宫本武藏[共3部合集][繁英字幕].The.Samurai.Trilogy.1954.BluRay.1080p.DTS-HD.MA.1.0.x265.10bit-ALT 25.75GB

版主小s 5月前 929



◎译  名 宫本武藏 / Master Swordsman
◎片  名 宮本武蔵
◎年  代 1954
◎产  地 日本
◎类  别 剧情 / 动作 / 传记 / 历史 / 冒险
◎语  言 日语
◎上映日期 1954-09-26(日本)
◎IMDb链接 https://www.imdb.com/title/tt0047444/
◎豆瓣评分 7.6/10 (4029人评价)
◎豆瓣链接 https://movie.douban.com/subject/1296228/
◎片  长 94分钟
◎导  演 稻垣浩 Hiroshi Inagaki (id:1016838)
◎编  剧 稻垣浩 Hiroshi Inagaki (id:1016838)
       若尾德平 Tokuhei Wakao (id:1007726)
       司马辽太郎 Ryotaro Shiba (id:1024920)
◎演  员 三船敏郎 Toshir? Mifune (id:1056027)
       尾上九朗右卫门 Kuroemon Onoe (id:1007322)
       八千草薰 Kaoru Yachigusa (id:1016891)
       冈田茉莉子 Mariko Okada (id:1016911)
       三好荣子 Eiko Miyoshi (id:1001843)
       谷晃 Akira Tani (id:1030335)
       佐田丰 Yutaka Sada (id:1003718)
       上山草人 S?jin Kamiyama (id:1112966)
       水户光子 Mitsuko Mito (id:1002227)
       加东大介 Daisuke Kat? (id:1008093)
       三国连太郎 Rentar? Mikuni (id:1119854)
       多多良纯 Jun Tatara (id:1025951)
       吉村实子 Jitsuko Yoshimura (id:1001479)

◎简  介
  新免武藏(三船敏郎 饰)与好友本位田又八(三国连太郎 饰)为出人头地,参加了关原之战,但武藏这一方遭遇惨败。两个人逃亡途中迷路,幸得阿甲(水户光子 饰)和朱实(冈田茉莉子 饰)母女相救。武藏拒绝了朱实的求爱,独身返回故乡美作,又八则抛弃老家的爱人阿通(八千草薰 饰),与阿甲结合。                                    
                                武藏强闯关卡被官兵通缉,又八的母亲亦因为看不到儿子愤恨不已,武藏成了众矢之的。关键时刻僧人泽庵(尾上九郎又兵卫 饰)搭救武藏,将其吊在树上磨练意志。一代宗师宫本武藏开始经历人生第一个磨难……



  1. 合集文件列表:

  2. 1.Samurai.I.Musashi.Miyamoto.Master.Swordsman.1954.BluRay.1080p.DTS-HD.MA.1.0.x265.10bit-ALT.mkv 8.56GB

  3. 2.Samurai.II.Musashi.Miyamoto.Duel.at.Ichijoji.Temple.1955.BluRay.1080p.DTS-HD.MA.1.0.x265.10bit-ALT.mkv 8.68GB

  4. 3.Samurai.III.Musashi.Miyamoto.Duel.at.Ganryu.Island.1956.BluRay.1080p.DTS-HD.MA.1.0.x265.10bit-ALT.mkv 8.52GB

复制代码





  1. ##### MediaInfo ######
  2. General
  3. Unique ID                                : 20100621039075770492098920862048057225 (0xF1F3D21BBF6F8B20B49EFB80FAFF789)
  4. Complete name                            : Samurai.I.Musashi.Miyamoto.Master.Swordsman.1954.BluRay.1080p.DTS-HD.MA.1.0.x265.10bit-ALT.mkv
  5. Format                                   : Matroska
  6. Format version                           : Version 4
  7. File size                                : 8.56 GiB
  8. Duration                                 : 1 h 33 min
  9. Overall bit rate mode                    : Variable
  10. Overall bit rate                         : 13.1 Mb/s
  11. Encoded date                             : UTC 2021-03-06 01:36:56
  12. Writing application                      : mkvmerge v49.0.0 ('Sick Of Losing Soulmates') 64-bit
  13. Writing library                          : libebml v1.4.0 + libmatroska v1.6.1
  14. Video
  15. ID                                       : 1
  16. Format                                   : HEVC
  17. Format/Info                              : High Efficiency Video Coding
  18. Format profile                           : Main 10@L5.1@High
  19. Codec ID                                 : V_MPEGH/ISO/HEVC
  20. Duration                                 : 1 h 33 min
  21. Bit rate                                 : 12.6 Mb/s
  22. Width                                    : 1 440 pixels
  23. Height                                   : 1 080 pixels
  24. Display aspect ratio                     : 4:3
  25. Frame rate mode                          : Constant
  26. Frame rate                               : 23.976 (24000/1001/53354) FPS
  27. Color space                              : YUV
  28. Chroma subsampling                       : 4:2:0
  29. Bit depth                                : 10 bits
  30. Bits/(Pixel*Frame)                       : 0.339
  31. Stream size                              : 8.24 GiB (96%)
  32. Title                                    : HEVC, x265Main10@L5.1@High, 24/1.001 fps @ 12649 kbps
  33. Writing library                          : x265 3.4+14-gd419c7152:[Windows][GCC 10.2.0][64 bit] 10bit
  34. Encoding settings                        : cpuid=533541111039 / frame-threads=5 / numa-pools=44,44 / wpp / pmode / pme / no-psnr / no-ssim / log-level=2 / input-csp=1 / input-res=1440x1080 / interlace=0 / total-frames=134218 / level-idc=51 / high-tier=1 / uhd-bd=0 / ref=5 / no-allow-non-conformance / no-repeat-headers / annexb / no-aud / no-hrd / info / hash=0 / no-temporal-layers / open-gop / min-keyint=24 / keyint=240 / gop-lookahead=0 / bframes=6 / b-adapt=2 / b-pyramid / bframe-bias=0 / rc-lookahead=40 / lookahead-slices=0 / NTMzNTQ=uuDQuD2mJt9fsCf / scenecut=40 / hist-scenecut=0 / radl=0 / no-splice / no-intra-refresh / ctu=32 / min-cu-size=8 / no-rect / no-amp / max-tu-size=32 / tu-inter-depth=3 / tu-intra-depth=3 / limit-tu=4 / rdoq-level=2 / dynamic-rd=0.00 / no-ssim-rd / signhide / no-tskip / nr-intra=0 / nr-inter=0 / no-constrained-intra / no-strong-intra-smoothing / max-merge=4 / limit-refs=1 / limit-modes / me=3 / subme=4 / merange=25 / temporal-mvp / no-frame-dup / no-hme / weightp / weightb / no-analyze-src-pics / deblock=-3:-3 / no-sao / no-sao-non-deblock / rd=6 / selective-sao=0 / no-early-skip / rskip / no-fast-intra / no-tskip-fast / no-cu-lossless / b-intra / no-splitrd-skip / rdpenalty=0 / psy-rd=2.00 / psy-rdoq=1.00 / no-rd-refine / no-lossless / cbqpoffs=0 / crqpoffs=0 / rc=crf / crf=19.5 / qcomp=0.65 / qpstep=4 / stats-write=0 / stats-read=0 / vbv-maxrate=80000 / vbv-bufsize=80000 / vbv-init=0.9 / crf-max=0.0 / crf-min=0.0 / ipratio=1.40 / pbratio=1.30 / aq-mode=2 / aq-strength=0.85 / cutree / zone-count=0 / no-strict-cbr / qg-size=32 / no-rc-grain / qpmax=69 / qpmin=0 / no-const-vbv / sar=1 / overscan=0 / videoformat=5 / range=0 / colorprim=1 / transfer=1 / colormatrix=1 / chromaloc=0 / display-window=0 / cll=0,0 / min-luma=0 / max-luma=1023 / log2-max-poc-lsb=8 / vui-timing-info / vui-hrd-info / slices=1 / no-opt-qp-pps / no-opt-ref-list-length-pps / no-multi-pass-opt-rps / scenecut-bias=0.05 / hist-threshold=0.03 / no-opt-cu-delta-qp / no-aq-motion / no-hdr10 / no-hdr10-opt / no-dhdr10-opt / no-idr-recovery-sei / analysis-reuse-level=0 / analysis-save-reuse-level=0 / analysis-load-reuse-level=0 / scale-factor=0 / refine-intra=0 / refine-inter=0 / refine-mv=1 / refine-ctu-distortion=0 / no-limit-sao / ctu-info=0 / no-lowpass-dct / refine-analysis-type=0 / copy-pic=1 / max-ausize-factor=1.0 / no-dynamic-refine / no-single-sei / no-hevc-aq / no-svt / no-field / qp-adaptation-range=1.00 / no-scenecut-aware-qpconformance-window-offsets / right=0 / bottom=0 / NTMzNTQ= / decoder-max-rate=0
  35. Language                                 : English
  36. Default                                  : Yes
  37. Forced                                   : No
  38. Color range                              : Limited
  39. Color primaries                          : BT.709
  40. Transfer characteristics                 : BT.709
  41. Matrix coefficients                      : BT.709
  42. Audio
  43. ID                                       : 2
  44. Format                                   : DTS XLL
  45. Format/Info                              : Digital Theater Systems
  46. Commercial name                          : DTS-HD Master Audio
  47. Codec ID                                 : A_DTS
  48. Duration                                 : 1 h 33 min
  49. Bit rate mode                            : Variable
  50. Bit rate                                 : 441 kb/s
  51. Channel(s)                               : 1 channel
  52. Channel layout                           : C
  53. Sampling rate                            : 48.0 kHz
  54. Frame rate                               : 93.750 FPS (512 SPF)
  55. Bit depth                                : 16 bits
  56. Compression mode                         : Lossless
  57. Stream size                              : 294 MiB (3%)
  58. Title                                    : Japanese DTS-HD Master Audio 2.0 @ 442 kbps
  59. Language                                 : Japanese
  60. Default                                  : Yes
  61. Forced                                   : No
  62. Text #1
  63. ID                                       : 3
  64. Format                                   : PGS
  65. Codec ID                                 : S_HDMV/PGS
  66. Codec ID/Info                            : Picture based subtitle format used on BDs/HD-DVDs
  67. Duration                                 : 1 h 33 min
  68. Bit rate                                 : 19.0 kb/s
  69. Count of elements                        : 1336
  70. Stream size                              : 12.7 MiB (0%)
  71. Title                                    : Cht/SUP  原盘繁体
  72. Language                                 : Chinese
  73. Default                                  : Yes
  74. Forced                                   : No
  75. Text #2
  76. ID                                       : 4
  77. Format                                   : PGS
  78. Codec ID                                 : S_HDMV/PGS
  79. Codec ID/Info                            : Picture based subtitle format used on BDs/HD-DVDs
  80. Duration                                 : 1 h 33 min
  81. Bit rate                                 : 19.0 kb/s
  82. Count of elements                        : 1448
  83. Stream size                              : 12.7 MiB (0%)
  84. Title                                    : Eng/SUP
  85. Language                                 : English
  86. Default                                  : No
  87. Forced                                   : No
  88. Menu
  89. 00:00:00.000                             : :第 01 章
  90. 00:02:18.430                             : :第 02 章
  91. 00:03:44.766                             : :第 03 章
  92. 00:06:05.657                             : :第 04 章
  93. 00:12:19.155                             : :第 05 章
  94. 00:13:08.705                             : :第 06 章
  95. 00:16:53.888                             : :第 07 章
  96. 00:18:51.589                             : :第 08 章
  97. 00:28:34.796                             : :第 09 章
  98. 00:32:47.465                             : :第 10 章
  99. 00:33:38.308                             : :第 11 章
  100. 00:34:42.330                             : :第 12 章
  101. 00:43:09.921                             : :第 13 章
  102. 00:47:40.191                             : :第 14 章
  103. 00:55:44.800                             : :第 15 章
  104. 00:56:27.050                             : :第 16 章
  105. 01:05:43.690                             : :第 17 章
  106. 01:15:20.224                             : :第 18 章
  107. 01:18:53.020                             : :第 19 章
  108. 01:23:56.949                             : :第 20 章
复制代码




TAGS 动作 冒险 剧情 历史 传记 /

磁力链:
  • magnet:?xt=urn:btih:613A0B5609EF0406DE1524AD4990E7D8EF46CB47
上传的附件:
BT9527电影天堂 1、BT9527电影天堂提供的BT文件均来源于互联网抓取,只供网友学习交流、技术提升使用。
2、我们遵守BitTorrent点对点协议原则,任何版权问题请联系原资源发布商,我们不处理任何版权纠纷,谢谢!如有争议请联系邮箱:BT9527#hotmail.com(#换成@)
3、如果您发现某页面或地址有错误,请联系站长邮箱BT9527#hotmail.com(#换成@),我们会尽快处理。您的热心是对BT9527电影天堂最大的支持。
4、本站建议去正规影院观看电影以支持电影行业发展。
最新回复 (0)

你可以在 登录 or 注册 后,对此帖发表评论!

返回
发新帖