蝎子王[共5部合集][繁英字幕].The.Scorpion.King.2002-2018.BluRay.1080p.DTS-HD.MA5.1.x265.10bit-ALT 50.01GB

版主小s 5月前 687

◎译 名 蝎子王 / 魔蝎大帝(台) / 蝎子王传奇盗墓迷城外传(港)

◎片 名 The Scorpion King

◎年 代 2002

◎产 地 德国 / 美国 / 比利时

◎类 别 动作 / 惊悚 / 奇幻 / 冒险

◎语 言 英语

◎上映日期 2002-04-19(美国)

◎IMDb链接 https://www.imdb.com/title/tt0277296/

◎豆瓣评分 6.6/10 (34500人评价)

◎豆瓣链接 https://movie.douban.com/subject/1306610/

◎片 长 92 分钟

◎导 演 查克·拉塞尔 Chuck Russell (id:1045153)

◎编 剧 大卫·海特 David Hayter (id:1004738)

乔纳森·黑尔斯 Jonathan Hales (id:1049469)

斯蒂芬·索莫斯 Stephen Sommers (id:1032090)

◎演 员 道恩·强森 Dwayne Johnson (id:1044707)

胡凯莉 Kelly Hu (id:1006984)

史蒂文·布兰德 Steven Brand (id:1009579)

迈克·克拉克·邓肯 Michael Clarke Duncan (id:1036346)

伯纳德·希尔 Bernard Hill (id:1036511)

彼得·夸塔罗利 Peter Quartaroli (id:1042246)

阿尔·梁 Al Leong (id:1123993)

阿曼达·本特利 Amanda Bentley (id:1045663)

罗杰·里斯 Roger Rees (id:1048199)

康拉德·罗伯茨 Conrad Roberts (id:1295756)

保罗·斯隆 Paul Sloan (id:1000788)

拉尔夫·莫勒 Ralf Moeller (id:1013977)

萨默尔·阿尔提丝 Summer Altice (id:1014148)

布兰斯康比·里奇蒙德 Branscombe Richmond (id:1025323)

马库斯·杨 Marcus Young (id:1028507)

彼得·费辛利 Peter Facinelli (id:1036306)

泰勒·梅恩 Tyler Mane (id:1036417)

格兰特·赫斯洛夫 Grant Heslov (id:1048206)

翠西·达利 Tracy Dali (id:1049782)

艾米·汉特 Amy Hunter (id:1055232)

玛丽莎·麦克马洪 Marissa McMahon (id:1160929)

肖恩·迈克尔·阿法贝尔 Sean Michael Afable (id:1219691)

Radhaa Nilia (id:1219642)

伯纳德·怀特 Bernard White (id:1164809)

Kitana Baker Kitana Baker (id:1213946)

约瑟夫·史蒂文 Joseph Steven (id:1206808)

Wayne Eric Wayne Eric (id:1172006)

Pennelope Jimenez Pennelope Jimenez (id:1181703)

Andrei Sterling Andrei Sterling (id:1152999)

T.J.若托罗 T.J. Rotolo (id:1148377)

约瑟夫·拉斯金 Joseph Ruskin (id:1144777)

Michael Hilow Michael Hilow (id:1286650)

Amy Fadhli Amy Fadhli (id:1089679)

Nick Hermz Nick Hermz (id:1286489)

阿多尼·马洛皮斯 Adoni Maropis (id:1122686)

朴云龙 Woon Young Park (id:1127857)

麦隆·雷维瓦 Mailon Rivera (id:1137850)

Marcio Rosario Marcio Rosario (id:1144369)

理查德·赛特伦 Richard Cetrone (id:1280368)

K.D. 奥贝特 K.D. Aubert (id:1178907)

乔什·麦克拉伦 Josh McLaglen (id:1032698)

肖恩·丹尼尔 Sean Daniel (id:1023446)

文斯·麦马汉 Vince McMahon (id:1050035)

迈克尔·特罗尼克 Michael Tronick (id:1299544)

斯蒂芬·索莫斯 Stephen Sommers (id:1032090)

约翰·戴布尼 John Debney (id:1025369)

约翰·R·莱昂耐迪 John R. Leonetti (id:1012546)

迈克尔·特罗尼克 Michael Tronick (id:1299544)

兰迪·希勒 Randi Hiller (id:1286647)

萨拉·芬兰 Sarah Finn (id:1283741)

埃德·韦罗 Ed Verreaux (id:1425944)

John Bloomfield John Bloomfield (id:1278822)

Judith Tiedemann Judith Tiedemann (id:1299261)

Heather Plott Heather Plott (id:1130566)

Peter Tothpal Peter Tothpal (id:1276622)

Anna Fleiner Anna Fleiner (id:1083059)

Elaina P. Schulman Elaina P. Schulman (id:1145928)

Mark Landon Mark Landon (id:1289362)

史蒂夫·拉波特 Steve LaPorte (id:1289183)

Dayne Johnson Dayne Johnson (id:1287783)

Adam Brandy Adam Brandy (id:1067710)

杰夫·道恩 Jeff Dawn (id:1281940)

William H. Burton William H. Burton (id:1279712)

乔什·麦克拉伦 Josh McLaglen (id:1032698)

Maria Mantia Maria Mantia (id:1290920)

Sean Wilson Sean Wilson (id:1302658)

米歇尔·莫恩 Michele Moen (id:1292270)

马克·A·拉索夫 Mark A. Lasoff (id:1289472)

Ken Lam Ken Lam (id:1289300)

Andrea D'Amico Andrea D'Amico (id:1281681)

Sevendalino Khay Sevendalino Khay (id:1288492)

Amanda Burton Amanda Burton (id:1192204)

Keith Kellogg Keith Kellogg (id:1168101)

克里斯·戴尔·康特 Chris Del Conte (id:1282169)

格雷戈里·杰恩 Gregory Jein (id:1287652)

罗科·焦弗雷 Rocco Gioffre (id:1284912)

Greg Groenekamp Greg Groenekamp (id:1285507)

Robert Scifo Robert Scifo (id:1297060)

内尔森·塞普维达 Nelson Sepulveda (id:1297217)

马克·斯泰特森 Mark Stetson (id:1298397)

迪克·费朗 Deak Ferrand (id:1283613)

斯蒂凡诺·特里维利 Stefano Trivelli (id:1304848)

Scott Cegielski Scott Cegielski (id:1198175)

Kay Cloud Kay Cloud (id:1304070)

马克·安德烈·萨姆森 Marc-Andre Samson (id:1296592)

Robert Castaneda Robert Castaneda (id:1215939)

Kelly Bumbarger Kelly Bumbarger (id:1302570)

安迪·巴里奥斯 Andy Barrios (id:1163399)

杰森·亚诺夫斯基 Jason Yanofsky (id:1220362)

John Tissavary John Tissavary (id:1157930)

Scott Schneider Scott Schneider (id:1147014)

布莱恩·哈纳伯 Brian Hanable (id:1090997)

◎简 介

在5000年前的古埃及,俄摩拉城因其城主曼侬(史蒂文·布兰德 Steven Brand 饰)手握重兵,并且统治非常残暴,使其称霸一方。为了反抗他的统治,领地里的其他部落组成联盟向其发动了多场战争。但是结果都是大败而归。原来,在曼侬身边有一位精通巫术 的神秘人物,她能预知未来,遇见部落联盟的战术安排,由此帮助曼侬百战百胜。在知晓这一情况后,部落联盟决定派出一位刺客先把这个神秘人物除掉。但是当刺客摩挲尤斯(道恩·强森 Dwayne Johnson 饰)深入城内准备暗杀那个神秘人物时,却发现这是一位漂亮的女人(胡凯莉 Kelly Hu 饰),而且是因为受到曼侬的威胁才被逼帮助曼侬。最终,他们的目标从这位神秘人物身上转到了直接刺杀曼侬,一场生死大战就此展开……

  1. 合集文件列表:

  2. 1.The.Scorpion.King.1.2002.BluRay.1080p.DTS-HD.MA5.1.x265.10bit-ALT.mkv 10.12GB

  3. 2.The.Scorpion.King.2.2008.BluRay.1080p.DTS-HD.MA5.1.x265.10bit-ALT.mkv 14.40GB

  4. 3.The.Scorpion.King.3.2012.BluRay.1080p.DTS-HD.MA5.1.x265.10bit-ALT.mkv 8.65GB

  5. 4.The.Scorpion.King.4.2015.BluRay.1080p.DTS-HD.MA5.1.x265.10bit-ALT.mkv 8.18GB

  6. 5.The.Scorpion.King.Book.of.Souls.2018.BluRay.1080p.DTS-HD.MA5.1.x265.10bit-ALT.mkv 8.66GB


复制代码

  1. ##### MediaInfo ######

  2. General

  3. Unique ID : 200392951817477972611281087680567967990 (0x96C24755EE2ACA35ED3F0FFC872A00F6)

  4. Complete name : The.Scorpion.King.1.2002.BluRay.1080p.DTS-HD.MA5.1.x265.10bit-ALT.mkv

  5. Format : Matroska

  6. Format version : Version 4

  7. File size : 10.1 GiB

  8. Duration : 1 h 31 min

  9. Overall bit rate mode : Variable

  10. Overall bit rate : 15.9 Mb/s

  11. Encoded date : UTC 2020-10-18 08:33:39

  12. Writing application : mkvmerge v49.0.0 ('Sick Of Losing Soulmates') 64-bit

  13. Writing library : libebml v1.4.0 + libmatroska v1.6.1

  14. Video

  15. ID : 1

  16. Format : HEVC

  17. Format/Info : High Efficiency Video Coding

  18. Format profile : Main 10@L5.1@High

  19. Codec ID : V_MPEGH/ISO/HEVC

  20. Duration : 1 h 31 min

  21. Bit rate : 11.3 Mb/s

  22. Width : 1 920 pixels

  23. Height : 816 pixels

  24. Display aspect ratio : 2.35:1

  25. Frame rate mode : Constant

  26. Frame rate : 23.976 (24000/1001/53354) FPS

  27. Color space : YUV

  28. Chroma subsampling : 4:2:0

  29. Bit depth : 10 bits

  30. Bits/(Pixel*Frame) : 0.300

  31. Stream size : 7.19 GiB (71%)

  32. Title : HEVC, x265Main10@L5.1@High, 24/1.001 fps @ 11263 kbps

  33. Writing library : x265 3.4+14-gd419c7152:[Windows][GCC 10.2.0][64 bit] 10bit

  34. Encoding settings : cpuid=533541111039 / frame-threads=5 / numa-pools=44,44 / wpp / pmode / pme / no-psnr / no-ssim / log-level=2 / input-csp=1 / input-res=1920x816 / interlace=0 / total-frames=131453 / level-idc=51 / high-tier=1 / uhd-bd=0 / ref=5 / no-allow-non-conformance / no-repeat-headers / annexb / no-aud / no-hrd / info / hash=0 / no-temporal-layers / open-gop / min-keyint=24 / keyint=240 / gop-lookahead=0 / bframes=6 / b-adapt=2 / b-pyramid / bframe-bias=0 / rc-lookahead=40 / lookahead-slices=0 / NTMzNTQ=uuDQuD2mJt9fsCf / scenecut=40 / hist-scenecut=0 / radl=0 / no-splice / no-intra-refresh / ctu=32 / min-cu-size=8 / no-rect / no-amp / max-tu-size=32 / tu-inter-depth=3 / tu-intra-depth=3 / limit-tu=4 / rdoq-level=2 / dynamic-rd=0.00 / no-ssim-rd / signhide / no-tskip / nr-intra=0 / nr-inter=0 / no-constrained-intra / no-strong-intra-smoothing / max-merge=4 / limit-refs=1 / limit-modes / me=3 / subme=4 / merange=25 / temporal-mvp / no-frame-dup / no-hme / weightp / weightb / no-analyze-src-pics / deblock=-3:-3 / no-sao / no-sao-non-deblock / rd=6 / selective-sao=0 / no-early-skip / rskip / no-fast-intra / no-tskip-fast / no-cu-lossless / b-intra / no-splitrd-skip / rdpenalty=0 / psy-rd=2.00 / psy-rdoq=1.00 / no-rd-refine / no-lossless / cbqpoffs=0 / crqpoffs=0 / rc=crf / crf=18.5 / qcomp=0.65 / qpstep=4 / stats-write=0 / stats-read=0 / vbv-maxrate=80000 / vbv-bufsize=80000 / vbv-init=0.9 / crf-max=0.0 / crf-min=0.0 / ipratio=1.40 / pbratio=1.30 / aq-mode=2 / aq-strength=0.85 / cutree / zone-count=0 / no-strict-cbr / qg-size=32 / no-rc-grain / qpmax=69 / qpmin=0 / no-const-vbv / sar=1 / overscan=0 / videoformat=5 / range=0 / colorprim=1 / transfer=1 / colormatrix=1 / chromaloc=0 / display-window=0 / cll=0,0 / min-luma=0 / max-luma=1023 / log2-max-poc-lsb=8 / vui-timing-info / vui-hrd-info / slices=1 / no-opt-qp-pps / no-opt-ref-list-length-pps / no-multi-pass-opt-rps / scenecut-bias=0.05 / hist-threshold=0.03 / no-opt-cu-delta-qp / no-aq-motion / no-hdr10 / no-hdr10-opt / no-dhdr10-opt / no-idr-recovery-sei / analysis-reuse-level=0 / analysis-save-reuse-level=0 / analysis-load-reuse-level=0 / scale-factor=0 / refine-intra=0 / refine-inter=0 / refine-mv=1 / refine-ctu-distortion=0 / no-limit-sao / ctu-info=0 / no-lowpass-dct / refine-analysis-type=0 / copy-pic=1 / max-ausize-factor=1.0 / no-dynamic-refine / no-single-sei / no-hevc-aq / no-svt / no-field / qp-adaptation-range=1.00 / no-scenecut-aware-qpconformance-window-offsets / right=0 / bottom=0 / NTMzNTQ= / decoder-max-rate=0

  35. Language : English

  36. Default : Yes

  37. Forced : No

  38. Color range : Limited

  39. Color primaries : BT.709

  40. Transfer characteristics : BT.709

  41. Matrix coefficients : BT.709

  42. Audio

  43. ID : 2

  44. Format : DTS XLL

  45. Format/Info : Digital Theater Systems

  46. Commercial name : DTS-HD Master Audio

  47. Codec ID : A_DTS

  48. Duration : 1 h 31 min

  49. Bit rate mode : Variable

  50. Bit rate : 4 551 kb/s

  51. Channel(s) : 6 channels

  52. Channel layout : C L R Ls Rs LFE

  53. Sampling rate : 48.0 kHz

  54. Frame rate : 93.750 FPS (512 SPF)

  55. Bit depth : 24 bits

  56. Compression mode : Lossless

  57. Stream size : 2.90 GiB (29%)

  58. Title : English DTS-HD Master Audio 5.1 @ 4551 kbps

  59. Language : English

  60. Default : Yes

  61. Forced : No

  62. Text #1

  63. ID : 3

  64. Format : PGS

  65. Codec ID : S_HDMV/PGS

  66. Codec ID/Info : Picture based subtitle format used on BDs/HD-DVDs

  67. Duration : 1 h 29 min

  68. Bit rate : 22.0 kb/s

  69. Count of elements : 1424

  70. Stream size : 14.1 MiB (0%)

  71. Title : Eng/SUP

  72. Language : English

  73. Default : No

  74. Forced : No

  75. Text #2

  76. ID : 4

  77. Format : PGS

  78. Codec ID : S_HDMV/PGS

  79. Codec ID/Info : Picture based subtitle format used on BDs/HD-DVDs

  80. Duration : 1 h 23 min

  81. Bit rate : 13.5 kb/s

  82. Count of elements : 1106

  83. Stream size : 8.02 MiB (0%)

  84. Title : Cht/SUP 原盘繁体

  85. Language : Chinese

  86. Default : Yes

  87. Forced : No

  88. Menu

  89. 00:00:00.000 : :第 01 章

  90. 00:03:48.019 : :第 02 章

  91. 00:05:04.012 : :第 03 章

  92. 00:08:33.178 : :第 04 章

  93. 00:11:34.442 : :第 05 章

  94. 00:15:59.540 : :第 06 章

  95. 00:21:34.710 : :第 07 章

  96. 00:27:40.157 : :第 08 章

  97. 00:29:49.496 : :第 09 章

  98. 00:32:52.929 : :第 10 章

  99. 00:39:11.766 : :第 11 章

  100. 00:45:16.003 : :第 12 章

  101. 00:51:00.514 : :第 13 章

  102. 00:56:12.117 : :第 14 章

  103. 01:03:42.108 : :第 15 章

  104. 01:06:50.630 : :第 16 章

  105. 01:11:35.873 : :第 17 章

  106. 01:19:41.150 : :第 18 章

  107. 01:21:43.355 : :第 19 章

  108. 01:24:42.409 : :第 20 章


复制代码


TAGS 动作 奇幻 冒险 惊悚 /

磁力链:
  • magnet:?xt=urn:btih:37227E6647F04532833DE71DB259688608E56C40
上传的附件:
BT9527电影天堂 1、BT9527电影天堂提供的BT文件均来源于互联网抓取,只供网友学习交流、技术提升使用。
2、我们遵守BitTorrent点对点协议原则,任何版权问题请联系原资源发布商,我们不处理任何版权纠纷,谢谢!如有争议请联系邮箱:BT9527#hotmail.com(#换成@)
3、如果您发现某页面或地址有错误,请联系站长邮箱BT9527#hotmail.com(#换成@),我们会尽快处理。您的热心是对BT9527电影天堂最大的支持。
4、本站建议去正规影院观看电影以支持电影行业发展。
最新回复 (1)

你可以在 登录 or 注册 后,对此帖发表评论!

返回