阳光姐妹淘[杜比视界版本][国语配音/中文字幕].Sunny.Sisters.2021.2160p.WEB-DL.H265.DV.DDP2.0-HDBWEB 3.80GB

版主小s 5月前 231

✔资源类型:4K   ✔电影年份:2021   ✔电影地区:大陆   ✔电影分类:喜剧

◎译  名 阳光姐妹淘 / 中国版阳光姐妹淘 / Sunny Sisters
◎年  代 2021
◎产  地 中国大陆
◎类  别 喜剧
◎语  言 汉语普通话
◎上映日期 2021-06-11(中国大陆)
◎IMDb链接 https://www.imdb.com/title/tt14849368/
◎豆瓣评分 4.4/10 (43219人评价)
◎豆瓣链接 https://movie.douban.com/subject/26924143/
◎片  长 118分钟
◎导  演 包贝尔 Bei'er Bao (id:1315866)
       李南 Nan Li (id:1378079)
◎编  剧 阿美 A Mei (id:1323030)
       宋成魏 Chengwei Song (id:1456461)
       张鹏 Peng Zhang (id:1343089)
       姜炯哲 Hyeong-Cheol Kang (id:1315887)
◎演  员 殷桃 Tao Yin (id:1275049)
       曾黎 Li Zeng (id:1053438)
       张歆艺 Xinyi Zhang (id:1275455)
       马苏 Su Ma (id:1275459)
       倪虹洁 Hongjie Ni (id:1274649)
       蒋小涵 Xiaohan Jiang (id:1313889)
       王玥婷 Yueting Wang (id:1388376)
       周洁琼 Pinky Zhou (id:1386550)
       梁颂晴 Songqing Liang (id:1445042)
       王清 Qing Wang (id:1434590)
       杨晗 Han Yang (id:1395220)
       夏梦 Meng Xia (id:1425529)
       赵铭 Ming Zhao (id:1456196)
       李子璇 Zixuan Li (id:1392262)
       潘斌龙 Binlong Pan (id:1316365)
       陈鹤一 Heyi Chen (id:1436017)
       袁弘 Hong Yuan (id:1275443)
       乔杉 Shan Qiao (id:1316368)
       谭凯 Kai Tan (id:1275687)
       柳小海 Xiaohai Liu (id:1318196)
       代乐乐 Lele Dai (id:1275749)
       李萍 Ping Li (id:1328349)
       杨皓宇 Haoyu Yang (id:1318482)
       西门飘飘 Piaopiao Ximen (id:1422159)
       江易轩 Yixuan Jiang (id:1419325)
       肖涵 Han Xiao (id:1314126)
       王添羽  (id:1458967)
       王丽美 Limei Wang (id:1421667)
       姜峰 Feng Jiang (id:1318194)
       乐思宏 Sihong Le (id:1375965)
       赵淑珍 Shuzhen Zhao (id:1334339)
       许君聪 Juncong Xu (id:1362516)
       鲁丹 Dan Lu (id:1445541)
       吴红波  (id:1417256)
       孙永焕 Yonghuan Sun (id:1426832)
       刘琼芳 Qiongfang Liu (id:1417977)
       贝尔 Varqa Buehrer (id:1410274)
       陈志英 Chi Ying Chan (id:1326652)
       陈志伟 Chi Wai Chan (id:1280415)
       陈为任  (id:1451719)
       张世杰 Stanley Cheung (id:1280624)
       罗珮莎 LAW PUI SHO (id:1472515)
       曹汉超 Hanchao Cao (id:1349908)
       姜祉羽 Jiang Zhiyu (id:1458312)

◎简  介
  当年陪你走过青春的好朋友,后来还有联系吗?大家又各自过得好吗?家庭主妇张丽君在医院重逢了病重的高中好姐妹林青,林青希望离世前能跟当年的姐妹们重聚。于是,张丽君开启了寻找姐妹的旅程,这一路,大家找回了青春,也重新审视了当下生活。时间好快,人已长大,好想和你再相聚。
  1. ##### MediaInfo ######
  2. General
  3. Complete name                            : 阳光姐妹淘.Sunny.Sisters.2021.2160p.WEB-DL.H265.DV.DDP2.0-HDBWEB.mp4
  4. Format                                   : MPEG-4
  5. Format profile                           : Base Media / Version 2
  6. Codec ID                                 : mp42 (mp42/iso6/isom/msdh/dby1)
  7. File size                                : 3.80 GiB
  8. Duration                                 : 1 h 57 min
  9. Overall bit rate mode                    : Variable
  10. Overall bit rate                         : 4 644 kb/s
  11. Encoded date                             : UTC 2022-06-09 10:25:15
  12. Tagged date                              : UTC 2022-06-09 10:25:15
  13. Video
  14. ID                                       : 1
  15. Format                                   : HEVC
  16. Format/Info                              : High Efficiency Video Coding
  17. Format profile                           : Main 10@L5@Main
  18. HDR format                               : Dolby Vision, Version 1.0, dvhe.05.06, BL+RPU
  19. Codec ID                                 : dvhe
  20. Codec ID/Info                            : High Efficiency Video Coding with Dolby Vision
  21. Duration                                 : 1 h 57 min
  22. Bit rate                                 : 4 131 kb/s
  23. Width                                    : 3 840 pixels
  24. Height                                   : 1 600 pixels
  25. Display aspect ratio                     : 2.40:1
  26. Frame rate mode                          : Constant
  27. Frame rate                               : 24.000 FPS
  28. Color space                              : YUV
  29. Chroma subsampling                       : 4:2:0
  30. Bit depth                                : 10 bits
  31. Bits/(Pixel*Frame)                       : 0.028
  32. Stream size                              : 3.38 GiB (89%)
  33. Default                                  : Yes
  34. Alternate group                          : 1
  35. Encoded date                             : UTC 2022-06-09 10:25:15
  36. Tagged date                              : UTC 2022-06-09 10:25:15
  37. Color range                              : Full
  38. Codec configuration box                  : hvcC+dvcC
  39. Audio #1
  40. ID                                       : 2
  41. Format                                   : E-AC-3
  42. Format/Info                              : Enhanced AC-3
  43. Commercial name                          : Dolby Digital Plus
  44. Codec ID                                 : ac-3
  45. Duration                                 : 1 h 57 min
  46. Bit rate mode                            : Constant
  47. Bit rate                                 : 256 kb/s
  48. Channel(s)                               : 2 channels
  49. Channel layout                           : L R
  50. Sampling rate                            : 48.0 kHz
  51. Frame rate                               : 31.250 FPS (1536 SPF)
  52. Compression mode                         : Lossy
  53. Stream size                              : 214 MiB (6%)
  54. Language                                 : Chinese
  55. Service kind                             : Complete Main
  56. Default                                  : Yes
  57. Alternate group                          : 2
  58. Encoded date                             : UTC 2022-06-09 10:25:15
  59. Tagged date                              : UTC 2022-06-09 10:25:15
  60. Audio #2
  61. ID                                       : 3
  62. Format                                   : AAC LC
  63. Format/Info                              : Advanced Audio Codec Low Complexity
  64. Codec ID                                 : mp4a-40-2
  65. Duration                                 : 1 h 57 min
  66. Bit rate mode                            : Variable
  67. Bit rate                                 : 253 kb/s
  68. Maximum bit rate                         : 259 kb/s
  69. Channel(s)                               : 2 channels
  70. Channel layout                           : L R
  71. Sampling rate                            : 48.0 kHz
  72. Frame rate                               : 46.875 FPS (1024 SPF)
  73. Compression mode                         : Lossy
  74. Stream size                              : 212 MiB (5%)
  75. Language                                 : Chinese
  76. Default                                  : No
  77. Alternate group                          : 2
  78. Encoded date                             : UTC 2022-06-09 10:25:15
  79. Tagged date                              : UTC 2022-06-09 10:25:15





此处一般会放置磁力链或种子下载链接,不过此链接需要注册会员才能看到,点击“立即注册”
磁力链下载【下载链接仅对注册会员开放,登陆后可见】
BT9527电影天堂 1、BT9527电影天堂提供的BT文件均来源于互联网抓取,只供网友学习交流、技术提升使用。
2、我们遵守BitTorrent点对点协议原则,任何版权问题请联系原资源发布商,我们不处理任何版权纠纷,谢谢!如有争议请联系邮箱:BT9527#hotmail.com(#换成@)
3、如果您发现某页面或地址有错误,请联系站长邮箱BT9527#hotmail.com(#换成@),我们会尽快处理。您的热心是对BT9527电影天堂最大的支持。
4、本站建议去正规影院观看电影以支持电影行业发展。
最新回复 (1)

你可以在 登录 or 注册 后,对此帖发表评论!

返回
发新帖