渡江侦察记[国语配音].Reconnaissance.Across.The.Yangtze.1954.1080p.WEB-DL.H264.AAC-HDBWEB 4.52GB

版主小s 5月前 242

✔资源类型:WEB-1080P   ✔电影年份:更 早   ✔电影地区:大陆   ✔电影分类:剧情

◎译  名 渡江侦察记 / Reconnaissance Across The Yangtze
◎年  代 1954
◎产  地 中国大陆
◎类  别 剧情 / 战争
◎语  言 汉语普通话
◎上映日期 1954
◎IMDb链接 https://www.imdb.com/title/tt6478958/
◎豆瓣评分 7.6/10 (4186人评价)
◎豆瓣链接 https://movie.douban.com/subject/1482707/
◎片  长 110分钟
◎导  演 汤晓丹 Xiaodan Tang (id:1035544)
       汤化达 Huada Tang (id:1329949)
◎编  剧 沈默君 Mojun Shen (id:1322556)
◎演  员 孙道临 Daolin Sun (id:1040344)
       康泰 Tai Kang (id:1329950)
       陈述 Shu Chen (id:1315792)
       齐衡 Heng Qi (id:1329984)
       孙永平 Yongping Sun (id:1316791)
       中叔皇 Huang Zhongshu (id:1317829)
       穆宏 Hong Mu (id:1361065)
       王少奇 Shaoqi Wang (id:1456172)
       崔超明 Chaoming Cui (id:1313821)
       李农 Nong Li (id:1330025)
       李玲君 Lingjun Li (id:1328443)
       莫愁 Chou Mo (id:1402096)
       李季 Ji Li (id:1400700)
       辛克 Ke Xin (id:1456173)
       王钧 Jun Wang (id:1431189)
       石灵 Ling Shi (id:1363585)
       郑敏 Min Zheng (id:1356303)
       马骥 Ji Ma (id:1314105)
       黄贻钧 Yijun Huang (id:1346508)
       葛炎 Yan Ge (id:1381389)
       周诗穆 Shimu Zhou (id:1361054)
       李生伟 Shengwei Li (id:1356861)
       丁辰 Chen Ding (id:1310080)
       徐进 Jin Xu (id:1458455)
       苗振宇 Zhenyu Miao (id:1401541)

◎简  介
  1949年,我人民解放军响应毛主席“打过长江去,解放全中国”的号召,砺兵秣马,准备横渡长江。大军渡江之前,特派李连长(孙道临 饰)带领一个侦察班先行渡江了解敌人的江防情况。接受命令后,他带领吴老贵(齐衡 饰)、周长喜(康泰 饰)、杨威(中叔皇 饰)、小马(孙永平 饰)等迅速过江,并及时和游击队刘四姐(李玲君 饰)取得了联系。他们混入江边修工事的老百姓中,略施小计搞到一份江防工事图,并及时汇报给上级。不久,他们得知敌人新增一个榴弹炮团,于是他们假扮敌人工兵混入敌炮阵地,出色完成了侦察任务,在返回的路上,周长喜为掩护同志而壮烈牺牲。军事机密的再三泄露,令敌军长(崔超明 饰)火冒三丈,他下令炮击我游击队根据地,正和上级通话的步话机被敌炮火击中,怎么办,吴老贵和小马临危受命......
  1. ##### MediaInfo ######
  2. General
  3. Complete name                            : 渡江侦察记.Reconnaissance.Across.The.Yangtze.1954.1080p.WEB-DL.H264.AAC-HDBWEB.mp4
  4. Format                                   : MPEG-4
  5. Format profile                           : Base Media
  6. Codec ID                                 : isom (isom/iso2/avc1/mp41)
  7. File size                                : 4.52 GiB
  8. Duration                                 : 1 h 45 min
  9. Overall bit rate mode                    : Variable
  10. Overall bit rate                         : 6 158 kb/s
  11. Writing application                      : OurTV Multimedia Platform
  12. Video
  13. ID                                       : 1
  14. Format                                   : AVC
  15. Format/Info                              : Advanced Video Codec
  16. Format profile                           : High@L4
  17. Format settings                          : CABAC / 3 Ref Frames
  18. Format settings, CABAC                   : Yes
  19. Format settings, Reference frames        : 3 frames
  20. Format settings, GOP                     : M=4, N=50
  21. Codec ID                                 : avc1
  22. Codec ID/Info                            : Advanced Video Coding
  23. Duration                                 : 1 h 45 min
  24. Source duration                          : 1 h 45 min
  25. Bit rate mode                            : Variable
  26. Bit rate                                 : 5 780 kb/s
  27. Maximum bit rate                         : 7 500 kb/s
  28. Width                                    : 1 920 pixels
  29. Height                                   : 1 080 pixels
  30. Display aspect ratio                     : 16:9
  31. Frame rate mode                          : Constant
  32. Frame rate                               : 25.000 FPS
  33. Color space                              : YUV
  34. Chroma subsampling                       : 4:2:0
  35. Bit depth                                : 8 bits
  36. Scan type                                : Progressive
  37. Bits/(Pixel*Frame)                       : 0.112
  38. Stream size                              : 4.25 GiB (94%)
  39. Source stream size                       : 4.43 GiB (98%)
  40. mdhd_Duration                            : 6309322
  41. Codec configuration box                  : avcC
  42. Audio
  43. ID                                       : 2
  44. Format                                   : AAC LC
  45. Format/Info                              : Advanced Audio Codec Low Complexity
  46. Codec ID                                 : mp4a-40-2
  47. Duration                                 : 1 h 45 min
  48. Bit rate mode                            : Variable
  49. Bit rate                                 : 125 kb/s
  50. Maximum bit rate                         : 129 kb/s / 129 kb/s
  51. Channel(s)                               : 2 channels
  52. Channel layout                           : L R
  53. Sampling rate                            : 48.0 kHz
  54. Frame rate                               : 46.875 FPS (1024 SPF)
  55. Compression mode                         : Lossy
  56. Stream size                              : 94.3 MiB (2%)
  57. Language                                 : Chinese
  58. Default                                  : Yes
  59. Alternate group                          : 1





此处一般会放置磁力链或种子下载链接,不过此链接需要注册会员才能看到,点击“立即注册”
磁力链下载【下载链接仅对注册会员开放,登陆后可见】
BT9527电影天堂 1、BT9527电影天堂提供的BT文件均来源于互联网抓取,只供网友学习交流、技术提升使用。
2、我们遵守BitTorrent点对点协议原则,任何版权问题请联系原资源发布商,我们不处理任何版权纠纷,谢谢!如有争议请联系邮箱:BT9527#hotmail.com(#换成@)
3、如果您发现某页面或地址有错误,请联系站长邮箱BT9527#hotmail.com(#换成@),我们会尽快处理。您的热心是对BT9527电影天堂最大的支持。
4、本站建议去正规影院观看电影以支持电影行业发展。
最新回复 (1)

你可以在 登录 or 注册 后,对此帖发表评论!

返回
发新帖