听见歌 再唱[国语音轨/简繁字幕].Listen.Before.You.Sing.2021.1080p.BluRay.x265.10bit-HomeHD 5.37GB

版主小s 5月前 195

✔资源类型:暂未分类   ✔电影年份:2021   ✔电影地区:台湾   ✔电影分类:喜剧

◎译  名 听见歌 再唱 / 听见歌在唱 / Kipahpah Ima / Listen Before You Sing
◎片  名 聽見歌 再唱
◎年  代 2021
◎产  地 中国台湾
◎类  别 喜剧 / 音乐
◎语  言 汉语普通话
◎上映日期 2021-04-09(中国台湾点映) / 2021-04-16(中国台湾)
◎IMDb链接 https://www.imdb.com/title/tt15448352/
◎豆瓣评分 7.2/10 (200人评价)
◎豆瓣链接 https://movie.douban.com/subject/30359474/
◎片  长 113分钟
◎导  演 杨智麟 Zhilin Yang (id:1342701)
◎演  员 马志翔 Umin Boya (id:1314142)
       陈嘉桦 Ella Chen (id:1313647)
       徐诣帆 Yi-Fan Hsu (id:1316578)
       撒基努 Sakinu (id:1364474)
       张惠春 Saya Chang (id:1313782)

◎简  介
  一个看不懂五线谱的合唱团指挥,一个到处流浪的音乐代课老师,和一群五音不全的原住民孩子,有机会在合唱比赛中夺冠,免于被废校的命运吗? #马志翔 、 #Ella陈嘉桦 领衔主演 历经12 年筹备,根据 #台湾原声童声合唱团 指挥马彼得校长 #真人实事啓发 【#听见歌再唱 】4/9 口碑献映 4/16 全台上映

◎获奖情况 (共2项)
  第23届台北电影节 (2021)
  台北电影奖 最佳编剧奖(提名)
   └──杨智麟 (id:1342701)
  台北电影奖 最佳男主角奖(提名)
   └──黄志翔 (id:1326843)

  1. ##### MediaInfo ######
  2. General
  3. Unique ID                                : 61711792420156447824062541280983924199 (0x2E6D4246E6EA4CFC0F30C0BFF4183DE7)
  4. Complete name                            : Listen.Before.You.Sing.2021.1080p.BluRay.x265.10bit-HomeHD.mkv
  5. Format                                   : Matroska
  6. Format version                           : Version 4
  7. File size                                : 5.37 GiB
  8. Duration                                 : 1 h 53 min
  9. Overall bit rate                         : 6 780 kb/s
  10. Encoded date                             : UTC 2022-06-09 11:21:15
  11. Writing application                      : mkvmerge v55.0.0 ('Waiting For Space') 64-bit
  12. Writing library                          : libebml v1.4.2 + libmatroska v1.6.4
  13. Video
  14. ID                                       : 1
  15. Format                                   : HEVC
  16. Format/Info                              : High Efficiency Video Coding
  17. Format profile                           : Main 10@L4@Main
  18. Codec ID                                 : V_MPEGH/ISO/HEVC
  19. Duration                                 : 1 h 53 min
  20. Bit rate                                 : 6 138 kb/s
  21. Width                                    : 1 920 pixels
  22. Height                                   : 804 pixels
  23. Display aspect ratio                     : 2.40:1
  24. Frame rate mode                          : Constant
  25. Frame rate                               : 24.000 FPS
  26. Color space                              : YUV
  27. Chroma subsampling                       : 4:2:0
  28. Bit depth                                : 10 bits
  29. Bits/(Pixel*Frame)                       : 0.166
  30. Stream size                              : 4.86 GiB (91%)
  31. Default                                  : Yes
  32. Forced                                   : No
  33. Audio
  34. ID                                       : 2
  35. Format                                   : AC-3
  36. Format/Info                              : Audio Coding 3
  37. Commercial name                          : Dolby Digital
  38. Codec ID                                 : A_AC3
  39. Duration                                 : 1 h 53 min
  40. Bit rate mode                            : Constant
  41. Bit rate                                 : 640 kb/s
  42. Channel(s)                               : 6 channels
  43. Channel layout                           : L R C LFE Ls Rs
  44. Sampling rate                            : 48.0 kHz
  45. Frame rate                               : 31.250 FPS (1536 SPF)
  46. Compression mode                         : Lossy
  47. Stream size                              : 519 MiB (9%)
  48. Language                                 : Chinese
  49. Service kind                             : Complete Main
  50. Default                                  : Yes
  51. Forced                                   : No
  52. Text #1
  53. ID                                       : 3
  54. Format                                   : UTF-8
  55. Codec ID                                 : S_TEXT/UTF8
  56. Codec ID/Info                            : UTF-8 Plain Text
  57. Duration                                 : 1 h 43 min
  58. Bit rate                                 : 46 b/s
  59. Count of elements                        : 1675
  60. Stream size                              : 35.6 KiB (0%)
  61. Title                                    : 简体
  62. Language                                 : Chinese
  63. Default                                  : Yes
  64. Forced                                   : No
  65. Text #2
  66. ID                                       : 4
  67. Format                                   : UTF-8
  68. Codec ID                                 : S_TEXT/UTF8
  69. Codec ID/Info                            : UTF-8 Plain Text
  70. Duration                                 : 1 h 43 min
  71. Bit rate                                 : 46 b/s
  72. Count of elements                        : 1675
  73. Stream size                              : 35.6 KiB (0%)
  74. Title                                    : 繁体
  75. Language                                 : Chinese
  76. Default                                  : No
  77. Forced                                   : No





此处一般会放置磁力链或种子下载链接,不过此链接需要注册会员才能看到,点击“立即注册”
磁力链下载【下载链接仅对注册会员开放,登陆后可见】
BT9527电影天堂 1、BT9527电影天堂提供的BT文件均来源于互联网抓取,只供网友学习交流、技术提升使用。
2、我们遵守BitTorrent点对点协议原则,任何版权问题请联系原资源发布商,我们不处理任何版权纠纷,谢谢!如有争议请联系邮箱:BT9527#hotmail.com(#换成@)
3、如果您发现某页面或地址有错误,请联系站长邮箱BT9527#hotmail.com(#换成@),我们会尽快处理。您的热心是对BT9527电影天堂最大的支持。
4、本站建议去正规影院观看电影以支持电影行业发展。
最新回复 (1)

你可以在 登录 or 注册 后,对此帖发表评论!

返回
发新帖