目击者之追凶[国语音轨/中英字幕].Who.Killed.Cock.Robin.2017.BluRay.1080p.x265.10bit-MiniHD 4.82GB

版主小s 5月前 238

✔资源类型:暂未分类   ✔电影年份:2017   ✔电影地区:台湾   ✔电影分类:悬疑

◎译  名 目击者之追凶 / Who Killed Cock Robin
◎片  名 目擊者
◎年  代 2017
◎产  地 中国台湾
◎类  别 悬疑 / 惊悚 / 犯罪
◎语  言 汉语普通话 / 闽南语
◎上映日期 2017-03-31(中国台湾) / 2017-06-21(上海电影节)
◎IMDb链接 https://www.imdb.com/title/tt5576318/
◎豆瓣评分 8.2/10 (168075人评价)
◎豆瓣链接 https://movie.douban.com/subject/11600078/
◎片  长 117分钟
◎导  演 程伟豪 Wei-hao Cheng (id:1355982)
◎编  剧 程伟豪 Wei-hao Cheng (id:1355982)
       陈昱俐 Yu Li Chen (id:1390062)
       陈彦齐 Yen-Chi Chen (id:1390061)
       陈玉珊 Dorothy Chen (id:1411164)
◎演  员 庄凯勋 Cash Chuang (id:1325030)
       许玮甯 Wei-Ning Hsu (id:1315600)
       柯佳嬿 Alice Ko (id:1274458)
       李铭顺 Lee Ming Shun (id:1189122)
       李淳 Mason Lee (id:1316450)
       陈彦允 Ian Chen (id:1378401)
       郑志伟 Chih-Wei Cheng (id:1357715)
       汤志伟 Chih Wei Tang (id:1312863)
       卜国耕 Mario Pu (id:1321051)
       张昌缅 Chang-Mien Chang (id:1401786)
       覃宏 Hong Qin (id:1275502)
       林仕肯 Shih-Ken Lin (id:1452665)
       孙纪明 Sun Chi-ming (id:1405304)
       陈柏佑 Po-You Chen (id:1449696)
       林楷博 Kipo Lin (id:1382398)
       陈俊宏 Chun-Hung Chen (id:1405906)
       胡定一 Ding-Yi Hu (id:1377240)
       高伟晏 R.T. Kao (id:1382400)
       陈维良 Wei-Liang Chen (id:1382401)
       李昭桦 Charles Lee (id:1352759)
       刘惟熠 Wei-Yi Liu (id:1382408)
       叶仁豪 Jen Hao Yeh (id:1382407)
       洪昰颢 Scott Hung (id:1416638)

◎简  介
  冲劲十足、富有野心的社会线记者小齐,在报导一则事故车还魂新闻时,意外发现9年前一宗肇事逃逸命案并不单纯,虽然提案不被长官邱哥重视,但相信直觉的小齐找上菜鸟警员阿纬帮忙,并说服女主管Maggie连手调查当年的真相。当小齐、Maggie 好不容易找到命案中唯一生还的受害者徐爱婷,并取得采访同意后 ,徐爱婷却无故失踪了…到底九年前被隐瞒的真相是什么?

◎获奖情况 (共12项)
  第54届台北金马影展 (2017)
  金马奖 最佳男主角(提名)
   └──庄凯勋 (id:1325030)
  金马奖 最佳男配角(提名)
   └──李淳 (id:1316450)
  金马奖 最佳剪辑(提名)
   └──林楷博 (id:1382398)
  金马奖 最佳音效(提名)
  金马奖 最佳视觉效果(提名)

  第20届上海国际电影节 (2017)
  亚洲新人奖 最佳导演(提名)
   └──程伟豪 (id:1355982)
  亚洲新人奖 最佳摄影(提名)

  第19届台北电影节 (2017)
  台北电影奖 最佳剧情长片(提名)

  第4届豆瓣电影年度榜单 (2017)
  评分最高的华语电影(提名)
  最受关注的非院线电影(提名)
  评分最高的惊悚/犯罪片(提名)
  8月最受关注电影(提名)

  1. ##### MediaInfo ######
  2. General
  3. Unique ID                                : 223924781645451884633877731434002772280 (0xA876581F3437DBB8BA624058CDB1F138)
  4. Complete name                            : Who.Killed.Cock.Robin.2017.BluRay.1080p.x265.10bit-MiniHD.mkv
  5. Format                                   : Matroska
  6. Format version                           : Version 4
  7. File size                                : 4.81 GiB
  8. Duration                                 : 1 h 57 min
  9. Overall bit rate                         : 5 882 kb/s
  10. Encoded date                             : UTC 2017-09-01 08:58:04
  11. Writing application                      : mkvmerge v11.0.0 ('Alive') 64bit
  12. Writing library                          : libebml v1.3.4 + libmatroska v1.4.5
  13. Video
  14. ID                                       : 1
  15. Format                                   : HEVC
  16. Format/Info                              : High Efficiency Video Coding
  17. Codec ID                                 : V_MPEGH/ISO/HEVC
  18. Duration                                 : 1 h 57 min
  19. Bit rate                                 : 5 125 kb/s
  20. Width                                    : 1 920 pixels
  21. Height                                   : 806 pixels
  22. Display aspect ratio                     : 2.40:1
  23. Frame rate mode                          : Constant
  24. Frame rate                               : 24.000 FPS
  25. Bits/(Pixel*Frame)                       : 0.138
  26. Stream size                              : 4.19 GiB (87%)
  27. Default                                  : Yes
  28. Forced                                   : No
  29. Audio
  30. ID                                       : 2
  31. Format                                   : AC-3
  32. Format/Info                              : Audio Coding 3
  33. Commercial name                          : Dolby Digital
  34. Codec ID                                 : A_AC3
  35. Duration                                 : 1 h 57 min
  36. Bit rate mode                            : Constant
  37. Bit rate                                 : 640 kb/s
  38. Channel(s)                               : 6 channels
  39. Channel layout                           : L R C LFE Ls Rs
  40. Sampling rate                            : 48.0 kHz
  41. Frame rate                               : 31.250 FPS (1536 SPF)
  42. Compression mode                         : Lossy
  43. Stream size                              : 536 MiB (11%)
  44. Language                                 : Chinese
  45. Service kind                             : Complete Main
  46. Default                                  : Yes
  47. Forced                                   : No
  48. Text #1
  49. ID                                       : 3
  50. Format                                   : PGS
  51. Muxing mode                              : zlib
  52. Codec ID                                 : S_HDMV/PGS
  53. Codec ID/Info                            : Picture based subtitle format used on BDs/HD-DVDs
  54. Language                                 : Chinese
  55. Default                                  : Yes
  56. Forced                                   : No
  57. Text #2
  58. ID                                       : 4
  59. Format                                   : PGS
  60. Muxing mode                              : zlib
  61. Codec ID                                 : S_HDMV/PGS
  62. Codec ID/Info                            : Picture based subtitle format used on BDs/HD-DVDs
  63. Language                                 : English
  64. Default                                  : No
  65. Forced                                   : No
  66. Menu
  67. 00:00:00.000                             : en:Chapter 01
  68. 00:10:23.290                             : en:Chapter 02
  69. 00:19:53.375                             : en:Chapter 03
  70. 00:30:32.625                             : en:Chapter 04
  71. 00:38:37.625                             : en:Chapter 05
  72. 00:49:17.500                             : en:Chapter 06
  73. 00:59:19.291                             : en:Chapter 07
  74. 01:08:21.291                             : en:Chapter 08
  75. 01:18:51.125                             : en:Chapter 09
  76. 01:28:24.375                             : en:Chapter 10
  77. 01:38:44.291                             : en:Chapter 11
  78. 01:51:54.666                             : en:Chapter 12





此处一般会放置磁力链或种子下载链接,不过此链接需要注册会员才能看到,点击“立即注册”
磁力链下载【下载链接仅对注册会员开放,登陆后可见】
BT9527电影天堂 1、BT9527电影天堂提供的BT文件均来源于互联网抓取,只供网友学习交流、技术提升使用。
2、我们遵守BitTorrent点对点协议原则,任何版权问题请联系原资源发布商,我们不处理任何版权纠纷,谢谢!如有争议请联系邮箱:BT9527#hotmail.com(#换成@)
3、如果您发现某页面或地址有错误,请联系站长邮箱BT9527#hotmail.com(#换成@),我们会尽快处理。您的热心是对BT9527电影天堂最大的支持。
4、本站建议去正规影院观看电影以支持电影行业发展。
最新回复 (1)

你可以在 登录 or 注册 后,对此帖发表评论!

返回
发新帖