霓虹恶魔[中文字幕].The.Neon.Demon.2016.2160p.SDR.UHD.BluRay.DTS.x265-10bit-ENTHD 12.36GB

版主小s 5月前 183

✔资源类型:BD-4K   ✔电影年份:2016   ✔电影地区:其他   ✔电影分类:剧情

◎标  题 霓虹恶魔
◎译  名 Neon démon
◎片  名 The Neon Demon
◎年  代 2016
◎产  地 法国 / 丹麦 / 美国
◎类  别 剧情 / 惊悚
◎语  言 英语
◎上映日期 2016-05-20(戛纳电影节) / 2016-06-08(法国) / 2016-06-24(美国)
◎IMDb评分 6.2/10 (90713人评价)
◎IMDb链接 https://www.imdb.com/title/tt1974419/
◎豆瓣评分 6.3/10 (22355人评价)
◎豆瓣链接 https://movie.douban.com/subject/6860147/
◎片  长 117分钟
◎导  演 尼古拉斯·温丁·雷弗恩 Nicolas Winding Refn
◎编  剧 尼古拉斯·温丁·雷弗恩 Nicolas Winding Refn
       波莉·斯滕纳姆 Polly Stenham
       玛丽·罗斯 Mary Laws
◎演  员 艾丽·范宁 Elle Fanning
       阿比·丽 Abbey Lee
       贝拉·希思科特 Bella Heathcote
       吉娜·马隆 Jena Malone
       卡尔·格洛斯曼 Karl Glusman
       戴斯蒙德·哈灵顿 Desmond Harrington
       克里斯蒂娜·亨德里克斯 Christina Hendricks
       基努·里维斯 Keanu Reeves
       查尔斯·贝克 Charles Baker
       杰米·克莱顿 Jamie Clayton
       史迪茜·丁泽 Stacey Danger
       丽贝卡·达扬 Rebecca Dayan
       海伦·威尔森 Helen Wilson
       侯达·史伦塔 Houda Shretah
       泰勒·希尔 Taylor Hill
       查理兹·科顿 Charlize Cotton
       科迪·蕾尼·卡梅伦 Cody Renee Cameron
       亚历桑德罗·尼沃拉 Alessandro Nivola
       卡梅伦·布林克曼 Cameron Brinkman
       克里斯·穆托 Chris Muto
       丽芙·考菲克森 Liv Corfixen
       文森特·马拉瓦尔 Vincent Maraval
       尼古拉斯·温丁·雷弗恩 Nicolas Winding Refn
       克里夫·马丁内斯 Cliff Martinez
       娜塔莎·布雷尔 Natasha Braier
       奥斯丁·格尔 Austin Gorg
       埃林·贝纳赫 Erin Benach
       狄恩·琼斯 Dean Jones
       乔治娅·弗勒 Georgia Fowler
       Stacey Danger Stacey Danger
       希雅 Sia

◎标  签 惊悚 / 迷幻 / 美国 / 2016 / 法国 / 恐怖 / 丹麦 / 剧情

◎简  介
  美丽女孩杰茜(艾丽·范宁 Elle Fanning 饰)是一个只身独闯洛杉矶的年轻女模特,她初次涉足花花世界,看起来懵懂无知,人畜无害。亲和的化妆师茹比(吉娜·马隆 Jena Malone 饰)最先接近她,并将其介绍给两个小有名气的模特琪琪(贝拉·希思科特 Bella Heathcote 饰)与莎拉(阿比·丽 Abbey Lee 饰)。杰茜如同一块蕴藏着莫大价值的璞玉,她很快得到了业内有识之士的赏识,前路充满光芒。她的美是上天的恩赐,她的美却也成为他人嫉妒乃至急于毁灭的脆弱之花。                                    
                                T台之上,霓虹交错,杰茜逐渐趋向梦的彼岸,然则肆无忌惮膨胀的欲望与嫉恨也正将她吞没……
  1. ##### MediaInfo ######
  2. General
  3. Unique ID                                : 322964663858505648539282275222176321156 (0xF2F8BB515F85618194587B468842CE84)
  4. Complete name                            : The.Neon.Demon.2016.2160p.SDR.UHD.BluRay.DTS.x265-10bit-ENTHD.mkv
  5. Format                                   : Matroska
  6. Format version                           : Version 4
  7. File size                                : 12.4 GiB
  8. Duration                                 : 1 h 57 min
  9. Overall bit rate                         : 15.1 Mb/s
  10. Movie name                               : The Neon Demon 2016 2160p SDR UHD BluRay DTS x265-10bit-HDS
  11. Encoded date                             : UTC 2022-06-08 00:29:38
  12. Writing application                      : mkvmerge v67.0.0 ('Under Stars') 64-bit
  13. Writing library                          : libebml v1.4.2 + libmatroska v1.6.4
  14. Video
  15. ID                                       : 1
  16. Format                                   : HEVC
  17. Format/Info                              : High Efficiency Video Coding
  18. Format profile                           : Main 10@L5.1@High
  19. Codec ID                                 : V_MPEGH/ISO/HEVC
  20. Duration                                 : 1 h 57 min
  21. Bit rate                                 : 13.6 Mb/s
  22. Width                                    : 3 840 pixels
  23. Height                                   : 1 596 pixels
  24. Display aspect ratio                     : 2.40:1
  25. Frame rate mode                          : Constant
  26. Frame rate                               : 24.000 FPS
  27. Color space                              : YUV
  28. Chroma subsampling                       : 4:2:0
  29. Bit depth                                : 10 bits
  30. Bits/(Pixel*Frame)                       : 0.092
  31. Stream size                              : 11.1 GiB (90%)
  32. Title                                    : @HDSky
  33. Writing library                          : x265 - H.265/HEVC codec
  34. Default                                  : Yes
  35. Forced                                   : No
  36. Audio
  37. ID                                       : 2
  38. Format                                   : DTS
  39. Format/Info                              : Digital Theater Systems
  40. Codec ID                                 : A_DTS
  41. Duration                                 : 1 h 57 min
  42. Bit rate mode                            : Constant
  43. Bit rate                                 : 1 509 kb/s
  44. Channel(s)                               : 6 channels
  45. Channel layout                           : C L R Ls Rs LFE
  46. Sampling rate                            : 48.0 kHz
  47. Frame rate                               : 93.750 FPS (512 SPF)
  48. Bit depth                                : 24 bits
  49. Compression mode                         : Lossy
  50. Stream size                              : 1.23 GiB (10%)
  51. Title                                    : English
  52. Language                                 : English
  53. Default                                  : Yes
  54. Forced                                   : No
  55. Text #1
  56. ID                                       : 3
  57. Format                                   : PGS
  58. Muxing mode                              : zlib
  59. Codec ID                                 : S_HDMV/PGS
  60. Codec ID/Info                            : Picture based subtitle format used on BDs/HD-DVDs
  61. Duration                                 : 1 h 46 min
  62. Bit rate                                 : 10.6 kb/s
  63. Count of elements                        : 1087
  64. Stream size                              : 8.10 MiB (0%)
  65. Title                                    : CHS
  66. Language                                 : Chinese
  67. Default                                  : Yes
  68. Forced                                   : No
  69. Text #2
  70. ID                                       : 4
  71. Format                                   : PGS
  72. Muxing mode                              : zlib
  73. Codec ID                                 : S_HDMV/PGS
  74. Codec ID/Info                            : Picture based subtitle format used on BDs/HD-DVDs
  75. Duration                                 : 1 h 46 min
  76. Bit rate                                 : 10.8 kb/s
  77. Count of elements                        : 1087
  78. Stream size                              : 8.25 MiB (0%)
  79. Title                                    : CHT
  80. Language                                 : Chinese
  81. Default                                  : Yes
  82. Forced                                   : No
  83. Text #3
  84. ID                                       : 5
  85. Format                                   : PGS
  86. Muxing mode                              : zlib
  87. Codec ID                                 : S_HDMV/PGS
  88. Codec ID/Info                            : Picture based subtitle format used on BDs/HD-DVDs
  89. Duration                                 : 1 h 46 min
  90. Bit rate                                 : 19.0 kb/s
  91. Count of elements                        : 1087
  92. Stream size                              : 14.5 MiB (0%)
  93. Title                                    : CHS&ENG
  94. Language                                 : Chinese
  95. Default                                  : Yes
  96. Forced                                   : No
  97. Text #4
  98. ID                                       : 6
  99. Format                                   : PGS
  100. Muxing mode                              : zlib
  101. Codec ID                                 : S_HDMV/PGS
  102. Codec ID/Info                            : Picture based subtitle format used on BDs/HD-DVDs
  103. Duration                                 : 1 h 46 min
  104. Bit rate                                 : 19.3 kb/s
  105. Count of elements                        : 1087
  106. Stream size                              : 14.7 MiB (0%)
  107. Title                                    : CHT&ENG
  108. Language                                 : Chinese
  109. Default                                  : Yes
  110. Forced                                   : No
  111. Menu
  112. 00:00:00.000                             : en:第 01 章
  113. 00:07:00.000                             : en:第 02 章
  114. 00:19:42.000                             : en:第 03 章
  115. 00:30:07.000                             : en:第 04 章
  116. 00:39:02.000                             : en:第 05 章
  117. 00:50:10.000                             : en:第 06 章
  118. 00:58:56.000                             : en:第 07 章
  119. 01:08:53.000                             : en:第 08 章
  120. 01:17:08.000                             : en:第 09 章
  121. 01:24:11.000                             : en:第 10 章
  122. 01:33:33.000                             : en:第 11 章
  123. 01:40:39.000                             : en:第 12 章





此处一般会放置磁力链或种子下载链接,不过此链接需要注册会员才能看到,点击“立即注册”
磁力链下载【下载链接仅对注册会员开放,登陆后可见】
BT9527电影天堂 1、BT9527电影天堂提供的BT文件均来源于互联网抓取,只供网友学习交流、技术提升使用。
2、我们遵守BitTorrent点对点协议原则,任何版权问题请联系原资源发布商,我们不处理任何版权纠纷,谢谢!如有争议请联系邮箱:BT9527#hotmail.com(#换成@)
3、如果您发现某页面或地址有错误,请联系站长邮箱BT9527#hotmail.com(#换成@),我们会尽快处理。您的热心是对BT9527电影天堂最大的支持。
4、本站建议去正规影院观看电影以支持电影行业发展。
最新回复 (0)

你可以在 登录 or 注册 后,对此帖发表评论!

返回
发新帖