精英部队2:大敌当前[中英字幕].Tropa.de.Elite.2.2010.BluRay.1080p.x265.10bit-MiniHD 6.98GB

版主小s 5月前 306

✔资源类型:暂未分类   ✔电影年份:2010   ✔电影地区:其他   ✔电影分类:剧情

◎标  题 精英部队2:大敌当前
◎译  名 精英部队2 / 精锐部队2 / 菁英部队2 / Elite Squad 2 / Elite Squad: The Enemy Within
◎片  名 Tropa de Elite 2 - O Inimigo Agora É Outro
◎年  代 2010
◎产  地 巴西
◎类  别 剧情 / 动作 / 惊悚 / 犯罪
◎语  言 葡萄牙语
◎上映日期 2011-11-25(中国大陆) / 2010-10-08(巴西)
◎IMDb评分 8/10 (81524人评价)
◎IMDb链接 https://www.imdb.com/title/tt1555149/
◎豆瓣评分 8.7/10 (72628人评价)
◎豆瓣链接 https://movie.douban.com/subject/4304402/
◎片  长 115分钟(巴西)
◎导  演 何塞·帕迪里亚 José Padilha
◎编  剧 何塞·帕迪里亚 José Padilha
       罗德里戈·皮门特尔 Rodrigo Pimentel
       布罗里欧·曼托伐尼 Bráulio Mantovani
◎演  员 瓦格纳·马拉 Wagner Moura
       安德烈·拉米罗 André Ramiro
       米尔黑·考塔兹 Milhem Cortaz
       伊兰迪尔·桑托斯 Irandhir Santos
       玛利亚·瑞贝罗 Maria Ribeiro
       索·豪黑 Seu Jorge
       埃米利奥·奥希欧罗 Emílio Orciollo Neto
       Pedro Van-Held Pedro Van-Held
       Sandro Rocha Sandro Rocha
       阿德里亚诺·加里布 Adriano Garib
       儒里奥·阿德里安 Julio Adrião
       卡杜·法维罗 Cadu Fávero
       安德瑞·马托斯 André Mattos
       泰娜·毛勒 Tainá Müller
       霍德利高·堪德劳特 Rodrigo Candelot
       马科斯·普拉多 Marcos Prado
       何塞·帕迪里亚 José Padilha
       卢拉·卡瓦略 Lula Carvalho
       丹尼尔·雷森德 Daniel Rezende
       Claudia Kopke Claudia Kopke
       马丁·马西亚斯 Martin Macias
       Andre Waller Andre Waller

◎标  签 巴西 / 犯罪 / 政治 / 动作 / 黑帮 / 巴西电影 / 精英部队2 / 2010

◎简  介
  4年前,臭名昭著的拉西欧监狱发生了一场暴动,这一事件引起里约热内卢州社会的广泛争论,也不同程度改变了许多人的命运。直接领导精英部队(BOPE)的罗伯特·纳西贝托中校(Wagner Moura 饰)由此荣升为安全局的副秘书长,拥有更大的施展空间;而他的爱将安德鲁·马蒂亚斯(André Ramiro 饰)被政客当作替罪羔羊,踢出了BOPE部队。当然,纳西贝托也遭受着来自政坛、战友和家人各方面的压力,他将一腔愤懑转化到工作中,不仅扩编强化了BOPE的实力,还通过一次次铁腕的打击荡涤了贫民区毒贩的罪恶势力。                                    
                                毒贩销声匿迹,黑暗的阴霾却未散去。以罗卡(Sandro Rocha 饰)等人为首的腐败警察势力进入贫民窟,他们欺行霸市,官匪勾结,成为里约州另一个难以祛除的顽疾……
  1. ##### MediaInfo ######
  2. General
  3. Unique ID                                : 217380905105818519052299889754112377015 (0xA38A0A1945CA8B3A96774594AA55C0B7)
  4. Complete name                            : Tropa.de.Elite.2.2010.BluRay.1080p.x265.10bit-MiniHD.mkv
  5. Format                                   : Matroska
  6. Format version                           : Version 4
  7. File size                                : 6.98 GiB
  8. Duration                                 : 1 h 54 min
  9. Overall bit rate                         : 8 704 kb/s
  10. Encoded date                             : UTC 2017-10-12 10:14:14
  11. Writing application                      : mkvmerge v11.0.0 ('Alive') 64bit
  12. Writing library                          : libebml v1.3.4 + libmatroska v1.4.5
  13. Video
  14. ID                                       : 1
  15. Format                                   : HEVC
  16. Format/Info                              : High Efficiency Video Coding
  17. Codec ID                                 : V_MPEGH/ISO/HEVC
  18. Duration                                 : 1 h 54 min
  19. Bit rate                                 : 7 997 kb/s
  20. Width                                    : 1 920 pixels
  21. Height                                   : 1 080 pixels
  22. Display aspect ratio                     : 16:9
  23. Frame rate mode                          : Constant
  24. Frame rate                               : 23.976 (24000/1001/53354) FPS
  25. Bits/(Pixel*Frame)                       : 0.161
  26. Stream size                              : 6.41 GiB (92%)
  27. Default                                  : Yes
  28. Forced                                   : No
  29. Audio
  30. ID                                       : 2
  31. Format                                   : AC-3
  32. Format/Info                              : Audio Coding 3
  33. Commercial name                          : Dolby Digital
  34. Codec ID                                 : A_AC3
  35. Duration                                 : 1 h 54 min
  36. Bit rate mode                            : Constant
  37. Bit rate                                 : 640 kb/s
  38. Channel(s)                               : 6 channels
  39. Channel layout                           : L R C LFE Ls Rs
  40. Sampling rate                            : 48.0 kHz
  41. Frame rate                               : 31.250 FPS (1536 SPF)
  42. Compression mode                         : Lossy
  43. Stream size                              : 526 MiB (7%)
  44. Language                                 : Portuguese
  45. Service kind                             : Complete Main
  46. Default                                  : Yes
  47. Forced                                   : No
  48. Text #1
  49. ID                                       : 3
  50. Format                                   : PGS
  51. Muxing mode                              : zlib
  52. Codec ID                                 : S_HDMV/PGS
  53. Codec ID/Info                            : Picture based subtitle format used on BDs/HD-DVDs
  54. Duration                                 : 1 h 46 min
  55. Bit rate                                 : 27.8 kb/s
  56. Count of elements                        : 3948
  57. Stream size                              : 21.1 MiB (0%)
  58. Language                                 : English
  59. Default                                  : Yes
  60. Forced                                   : No
  61. Text #2
  62. ID                                       : 4
  63. Format                                   : PGS
  64. Muxing mode                              : zlib
  65. Codec ID                                 : S_HDMV/PGS
  66. Codec ID/Info                            : Picture based subtitle format used on BDs/HD-DVDs
  67. Duration                                 : 1 h 47 min
  68. Bit rate                                 : 20.6 kb/s
  69. Count of elements                        : 3700
  70. Stream size                              : 15.9 MiB (0%)
  71. Language                                 : Chinese
  72. Default                                  : No
  73. Forced                                   : No
  74. Text #3
  75. ID                                       : 5
  76. Format                                   : PGS
  77. Muxing mode                              : zlib
  78. Codec ID                                 : S_HDMV/PGS
  79. Codec ID/Info                            : Picture based subtitle format used on BDs/HD-DVDs
  80. Duration                                 : 1 h 47 min
  81. Bit rate                                 : 21.2 kb/s
  82. Count of elements                        : 3700
  83. Stream size                              : 16.4 MiB (0%)
  84. Language                                 : Chinese
  85. Default                                  : No
  86. Forced                                   : No
  87. Menu
  88. 00:00:00.000                             : en:00:00:00.000
  89. 00:06:17.252                             : en:00:06:17.252
  90. 00:12:29.123                             : en:00:12:29.123
  91. 00:19:05.936                             : en:00:19:05.936
  92. 00:27:16.218                             : en:00:27:16.218
  93. 00:33:55.784                             : en:00:33:55.784
  94. 00:39:46.301                             : en:00:39:46.301
  95. 00:45:59.465                             : en:00:45:59.465
  96. 01:00:21.910                             : en:01:00:21.910
  97. 01:07:36.844                             : en:01:07:36.844
  98. 01:14:38.974                             : en:01:14:38.974
  99. 01:17:15.214                             : en:01:17:15.214
  100. 01:23:57.616                             : en:01:23:57.616
  101. 01:30:47.067                             : en:01:30:47.067
  102. 01:34:54.355                             : en:01:34:54.355
  103. 01:41:01.514                             : en:01:41:01.514
  104. 01:42:06.162                             : en:01:42:06.162
  105. 01:49:34.568                             : en:01:49:34.568





此处一般会放置磁力链或种子下载链接,不过此链接需要注册会员才能看到,点击“立即注册”
磁力链下载【下载链接仅对注册会员开放,登陆后可见】
BT9527电影天堂 1、BT9527电影天堂提供的BT文件均来源于互联网抓取,只供网友学习交流、技术提升使用。
2、我们遵守BitTorrent点对点协议原则,任何版权问题请联系原资源发布商,我们不处理任何版权纠纷,谢谢!如有争议请联系邮箱:BT9527#hotmail.com(#换成@)
3、如果您发现某页面或地址有错误,请联系站长邮箱BT9527#hotmail.com(#换成@),我们会尽快处理。您的热心是对BT9527电影天堂最大的支持。
4、本站建议去正规影院观看电影以支持电影行业发展。
最新回复 (0)

你可以在 登录 or 注册 后,对此帖发表评论!

返回