时空线索[国英多音轨/中英字幕].Deja.Vu.2006.BluRay.1080p.x265.10bit.2Audio-MiniHD 7.25GB

版主小s 5月前 235

✔资源类型:暂未分类   ✔电影年份:2006   ✔电影地区:欧美   ✔电影分类:动作

◎译  名 时空线索 / 时凶感应(港) / 超时空效应 / 似曾相识
◎片  名 Deja Vu
◎年  代 2006
◎产  地 美国 / 英国
◎类  别 动作 / 科幻 / 惊悚
◎语  言 英语
◎上映日期 2007-03-20(中国大陆) / 2006-11-22(美国)
◎IMDb链接 https://www.imdb.com/title/tt0453467/
◎豆瓣评分 7.8/10 (56798人评价)
◎豆瓣链接 https://movie.douban.com/subject/1789283/
◎片  长 126 分钟
◎导  演 托尼·斯科特 Tony Scott (id:1017979)
◎编  剧 特里·鲁西奥 Terry Rossio (id:1009677)
◎演  员 丹泽尔·华盛顿 Denzel Washington (id:1054431)
       宝拉·巴顿 Paula Patton (id:1036350)
       方·基默 Val Kilmer (id:1013761)
       吉姆·卡维泽 Jim Caviezel (id:1027807)
       亚当·戈德堡 Adam Goldberg (id:1040542)
       布鲁斯·格林伍德 Bruce Greenwood (id:1025206)
       艾丽·范宁 Elle Fanning (id:1025133)
       戴恩·罗兹 Dane Rhodes (id:1330957)
       布莱恩·杜尔金 Brian F. Durkin (id:1198489)
       斯科特·克拉斯 Scott Klace (id:1110175)
       安迪·昂伯格 Andy Umberger (id:1365391)
       利欧·哈克福德 Rio Hackford (id:1009600)
       加里·格鲁布斯 Gary Grubbs (id:1099260)
       拉腊·格赖斯 Lara Grice (id:1182096)
       道格拉斯·M·格里芬 Douglas M. Griffin (id:1093003)
       大卫·詹森 David Jensen (id:1055924)
       安·托克尔 Ann Turkel (id:1010737)
       诺兰·诺斯 Nolan North (id:1134542)
       约翰·麦康奈尔 John McConnell (id:1124275)
       马特·克拉文 Matt Craven (id:1041223)
       埃尔登·汉森 Elden Henson (id:1049668)
       埃里卡·亚历山大 Erika Alexander (id:1055164)
       布莱恩·豪威  Brian Howe (id:1317100)
       恩里克·卡斯蒂略 Enrique Castillo (id:1075154)
       斯科特·阿兰·史密斯 Scott Alan Smith (id:1157729)
       卢·坦普尔 Lew Temple (id:1149667)
       肖恩·迈克尔·帕特里克 Shawn Michael Patrick (id:1126919)
       杰姆斯·黄 James Huang (id:1016841)
       唐娜·W·斯科特 Donna W. Scott (id:1344702)
       哈里·格雷格森-威廉姆斯 Harry Gregson-Williams (id:1056131)
       艾伦·米罗伊尼克 Ellen Mirojnick (id:1010099)
       蒙蒂·考克斯 Monty Cox (id:1450285)

◎简  介
  一艘货轮意外爆炸,特工道格(Denzel Washington 丹泽尔?华盛顿 饰)奉命前往调查。然而,当他到达现场时,却发现自己分明是第一次到这个地方,却对眼前的场景十分熟悉。道格经过缜密调查,发现了这起爆炸事件与自己有着密不可分的关系。                                    
                                他借助政府的时光实验室――这里可以获悉4天内任何地方发生的任何事件,发现了自己与一名神秘女子有着不同寻常的关系,而这名女子将导致未来的一场与自己有关的大灾难!                                    
                                道格必须回到过去,将历史从一个实相引向另一个实相才能阻止这场灾难的发生。
  1. ##### MediaInfo ######
  2. General
  3. Unique ID                                : 171587531990614718314810550906342166842 (0x81168E7CF8DAEA30B23D0B0D084D513A)
  4. Complete name                            : Deja.Vu.2006.BluRay.1080p.x265.10bit.2Audio-MiniHD.mkv
  5. Format                                   : Matroska
  6. Format version                           : Version 4
  7. File size                                : 7.25 GiB
  8. Duration                                 : 2 h 6 min
  9. Overall bit rate                         : 8 204 kb/s
  10. Encoded date                             : UTC 2017-10-16 07:57:18
  11. Writing application                      : mkvmerge v11.0.0 ('Alive') 64bit
  12. Writing library                          : libebml v1.3.4 + libmatroska v1.4.5
  13. Video
  14. ID                                       : 1
  15. Format                                   : HEVC
  16. Format/Info                              : High Efficiency Video Coding
  17. Format profile                           : Main 10@L4@Main
  18. Codec ID                                 : V_MPEGH/ISO/HEVC
  19. Duration                                 : 2 h 6 min
  20. Bit rate                                 : 7 025 kb/s
  21. Width                                    : 1 920 pixels
  22. Height                                   : 800 pixels
  23. Display aspect ratio                     : 2.40:1
  24. Frame rate mode                          : Constant
  25. Frame rate                               : 23.976 (24000/1001/53354) FPS
  26. Color space                              : YUV
  27. Chroma subsampling                       : 4:2:0
  28. Bit depth                                : 10 bits
  29. Bits/(Pixel*Frame)                       : 0.191
  30. Stream size                              : 6.20 GiB (86%)
  31. Writing library                          : x265 2.5+14-2718cb5dd67f:[Windows][GCC 7.1.0][64 bit] 10bit
  32. Encoding settings                        : cpuid=533541173503 / frame-threads=5 / numa-pools=36 / wpp / no-pmode / no-pme / no-psnr / no-ssim / log-level=2 / csvfn=D:\bdrip\DejaVu2006.log / csv-log-level=0 / input-csp=1 / input-res=1920x800 / interlace=0 / total-frames=181906 / level-idc=0 / high-tier=1 / uhd-bd=0 / ref=5 / no-allow-non-conformance / no-repeat-headers / annexb / no-aud / no-hrd / info / hash=0 / no-temporal-layers / no-open-gop / min-keyint=1 / keyint=360 / bframes=9 / b-adapt=2 / b-pyramid / bframe-bias=0 / rc-lookahead=60 / lookahead-slices=4 / NTMzNTQ=uuDQuD2mJt9fsCf / scenecut=40 / no-intra-refresh / ctu=32 / min-cu-size=8 / no-rect / no-amp / max-tu-size=16 / tu-inter-depth=2 / tu-intra-depth=2 / limit-tu=4 / rdoq-level=1 / dynamic-rd=0.00 / ssim-rd / signhide / no-tskip / nr-intra=0 / nr-inter=0 / no-constrained-intra / no-strong-intra-smoothing / max-merge=3 / limit-refs=2 / limit-modes / me=3 / subme=5 / merange=25 / temporal-mvp / weightp / weightb / no-analyze-src-pics / deblock=-1:-1 / no-sao / no-sao-non-deblock / rd=4 / no-early-skip / no-rskip / no-fast-intra / no-tskip-fast / no-cu-lossless / b-intra / no-splitrd-skip / rdpenalty=1 / psy-rd=0.00 / psy-rdoq=5.00 / no-rd-refine / analysis-reuse-mode=0 / no-lossless / cbqpoffs=-1 / crqpoffs=-1 / rc=crf / crf=21.0 / qcomp=0.70 / qpstep=4 / stats-write=0 / stats-read=0 / ipratio=1.40 / pbratio=1.30 / aq-mode=2 / aq-strength=0.80 / cutree / zone-count=0 / no-strict-cbr / qg-size=16 / no-rc-grain / qpmax=69 / qpmin=0 / no-const-vbv / sar=0 / overscan=0 / videoformat=5 / range=0 / colorprim=1 / transfer=2 / colormatrix=2 / chromaloc=0 / display-window=0 / max-cll=0,0 / min-luma=0 / max-luma=1023 / log2-max-poc-lsb=8 / vui-timing-info / vui-hrd-info / slices=1 / opt-qp-pps / opt-ref-list-length-pps / no-multi-pass-opt-rps / scenecut-bias=0.05 / no-opt-cu-delta-qp / no-aq-motion / no-hdr / no-hdr-opt / no-dhdr10-opt / analysis-reuse-level=5 / scale-factor=0 / refine-intra=0 / refine-inter=0 / refine-mv=0 / no-limit-sao / ctu-info=0
  33. Default                                  : Yes
  34. Forced                                   : No
  35. Color range                              : Limited
  36. Color primaries                          : BT.709
  37. Audio #1
  38. ID                                       : 2
  39. Format                                   : AC-3
  40. Format/Info                              : Audio Coding 3
  41. Commercial name                          : Dolby Digital
  42. Codec ID                                 : A_AC3
  43. Duration                                 : 2 h 6 min
  44. Bit rate mode                            : Constant
  45. Bit rate                                 : 640 kb/s
  46. Channel(s)                               : 6 channels
  47. Channel layout                           : L R C LFE Ls Rs
  48. Sampling rate                            : 48.0 kHz
  49. Frame rate                               : 31.250 FPS (1536 SPF)
  50. Compression mode                         : Lossy
  51. Stream size                              : 579 MiB (8%)
  52. Language                                 : English
  53. Service kind                             : Complete Main
  54. Default                                  : Yes
  55. Forced                                   : No
  56. Audio #2
  57. ID                                       : 3
  58. Format                                   : AC-3
  59. Format/Info                              : Audio Coding 3
  60. Commercial name                          : Dolby Digital
  61. Codec ID                                 : A_AC3
  62. Duration                                 : 2 h 6 min
  63. Bit rate mode                            : Constant
  64. Bit rate                                 : 384 kb/s
  65. Channel(s)                               : 6 channels
  66. Channel layout                           : L R C LFE Ls Rs
  67. Sampling rate                            : 48.0 kHz
  68. Frame rate                               : 31.250 FPS (1536 SPF)
  69. Compression mode                         : Lossy
  70. Stream size                              : 347 MiB (5%)
  71. Language                                 : Chinese
  72. Service kind                             : Complete Main
  73. Default                                  : No
  74. Forced                                   : No
  75. Text #1
  76. ID                                       : 4
  77. Format                                   : PGS
  78. Muxing mode                              : zlib
  79. Codec ID                                 : S_HDMV/PGS
  80. Codec ID/Info                            : Picture based subtitle format used on BDs/HD-DVDs
  81. Duration                                 : 1 h 57 min
  82. Bit rate                                 : 11.1 kb/s
  83. Count of elements                        : 3187
  84. Stream size                              : 9.31 MiB (0%)
  85. Language                                 : English
  86. Default                                  : Yes
  87. Forced                                   : No
  88. Text #2
  89. ID                                       : 5
  90. Format                                   : PGS
  91. Muxing mode                              : zlib
  92. Codec ID                                 : S_HDMV/PGS
  93. Codec ID/Info                            : Picture based subtitle format used on BDs/HD-DVDs
  94. Duration                                 : 1 h 58 min
  95. Bit rate                                 : 15.5 kb/s
  96. Count of elements                        : 3079
  97. Stream size                              : 13.1 MiB (0%)
  98. Language                                 : Chinese
  99. Default                                  : No
  100. Forced                                   : No
  101. Text #3
  102. ID                                       : 6
  103. Format                                   : PGS
  104. Muxing mode                              : zlib
  105. Codec ID                                 : S_HDMV/PGS
  106. Codec ID/Info                            : Picture based subtitle format used on BDs/HD-DVDs
  107. Duration                                 : 1 h 58 min
  108. Bit rate                                 : 16.4 kb/s
  109. Count of elements                        : 3079
  110. Stream size                              : 13.8 MiB (0%)
  111. Language                                 : Chinese
  112. Default                                  : No
  113. Forced                                   : No
  114. Text #4
  115. ID                                       : 7
  116. Format                                   : PGS
  117. Muxing mode                              : zlib
  118. Codec ID                                 : S_HDMV/PGS
  119. Codec ID/Info                            : Picture based subtitle format used on BDs/HD-DVDs
  120. Duration                                 : 1 h 57 min
  121. Bit rate                                 : 23.0 kb/s
  122. Count of elements                        : 2685
  123. Stream size                              : 19.3 MiB (0%)
  124. Language                                 : Chinese
  125. Default                                  : No
  126. Forced                                   : No
  127. Text #5
  128. ID                                       : 8
  129. Format                                   : PGS
  130. Muxing mode                              : zlib
  131. Codec ID                                 : S_HDMV/PGS
  132. Codec ID/Info                            : Picture based subtitle format used on BDs/HD-DVDs
  133. Duration                                 : 1 h 57 min
  134. Bit rate                                 : 24.0 kb/s
  135. Count of elements                        : 2685
  136. Stream size                              : 20.1 MiB (0%)
  137. Language                                 : Chinese
  138. Default                                  : No
  139. Forced                                   : No
  140. Text #6
  141. ID                                       : 9
  142. Format                                   : PGS
  143. Muxing mode                              : zlib
  144. Codec ID                                 : S_HDMV/PGS
  145. Codec ID/Info                            : Picture based subtitle format used on BDs/HD-DVDs
  146. Duration                                 : 1 h 57 min
  147. Bit rate                                 : 36.6 kb/s
  148. Count of elements                        : 2742
  149. Stream size                              : 30.8 MiB (0%)
  150. Language                                 : Chinese
  151. Default                                  : No
  152. Forced                                   : No
  153. Text #7
  154. ID                                       : 10
  155. Format                                   : PGS
  156. Muxing mode                              : zlib
  157. Codec ID                                 : S_HDMV/PGS
  158. Codec ID/Info                            : Picture based subtitle format used on BDs/HD-DVDs
  159. Duration                                 : 1 h 57 min
  160. Bit rate                                 : 37.6 kb/s
  161. Count of elements                        : 2742
  162. Stream size                              : 31.6 MiB (0%)
  163. Language                                 : Chinese
  164. Default                                  : No
  165. Forced                                   : No
  166. Menu
  167. 00:00:00.000                             : en:Chapter 01
  168. 00:06:20.755                             : en:Chapter 02
  169. 00:15:32.681                             : en:Chapter 03
  170. 00:24:59.205                             : en:Chapter 04
  171. 00:30:20.235                             : en:Chapter 05
  172. 00:38:37.356                             : en:Chapter 06
  173. 00:42:57.992                             : en:Chapter 07
  174. 00:49:30.384                             : en:Chapter 08
  175. 00:55:52.390                             : en:Chapter 09
  176. 00:59:57.385                             : en:Chapter 10
  177. 01:14:15.617                             : en:Chapter 11
  178. 01:20:37.999                             : en:Chapter 12
  179. 01:29:00.418                             : en:Chapter 13
  180. 01:42:49.371                             : en:Chapter 14
  181. 01:54:41.416                             : en:Chapter 15
  182. 01:58:06.621                             : en:Chapter 16





此处一般会放置磁力链或种子下载链接,不过此链接需要注册会员才能看到,点击“立即注册”
磁力链下载【下载链接仅对注册会员开放,登陆后可见】
BT9527电影天堂 1、BT9527电影天堂提供的BT文件均来源于互联网抓取,只供网友学习交流、技术提升使用。
2、我们遵守BitTorrent点对点协议原则,任何版权问题请联系原资源发布商,我们不处理任何版权纠纷,谢谢!如有争议请联系邮箱:BT9527#hotmail.com(#换成@)
3、如果您发现某页面或地址有错误,请联系站长邮箱BT9527#hotmail.com(#换成@),我们会尽快处理。您的热心是对BT9527电影天堂最大的支持。
4、本站建议去正规影院观看电影以支持电影行业发展。
最新回复 (0)

你可以在 登录 or 注册 后,对此帖发表评论!

返回
发新帖