超凡战队[中英字幕].Power.Rangers.2017.BluRay.1080p.x265.10bit-MiniHD 6.17GB

版主小s 5月前 188

✔资源类型:暂未分类   ✔电影年份:2017   ✔电影地区:欧美   ✔电影分类:动作

◎译  名 超凡战队 / 战龙觉醒(港) / 金刚战士(台) / 恐龙战队 / 恐龙战队 真人版 / 超级战队 / 超能战队 / Mighty Morphin Power Rangers
◎片  名 Power Rangers
◎年  代 2017
◎产  地 美国 / 中国香港 / 加拿大
◎类  别 动作 / 科幻 / 冒险
◎语  言 英语
◎上映日期 2017-05-12(中国大陆) / 2017-03-24(美国)
◎IMDb链接 https://www.imdb.com/title/tt3717490/
◎豆瓣评分 4.5/10 (20144人评价)
◎豆瓣链接 https://movie.douban.com/subject/25881615/
◎片  长 124分钟
◎导  演 迪恩·以色列特 Dean Israelite (id:1347803)
◎编  剧 扎克·施坦茨 Zack Stentz (id:1357643)
       罗伯托·奥奇 Roberto Orci (id:1009508)
       伯克·沙普利斯 Burk Sharpless (id:1340743)
       马特·萨兹马 Matt Sazama (id:1340742)
       阿什利·米勒 Ashley Miller (id:1357642)
       约翰·盖汀斯 John Gatins (id:1321646)
       马克斯·兰迪斯   Max Landis (id:1023473)
       哈伊姆·萨班 Haim Saban (id:1139502)
       舒基·莱维 Shuki Levy (id:1019256)
◎演  员 戴克·蒙哥马利 Dacre Montgomery (id:1354781)
       娜奥米·斯科特 Naomi Scott (id:1325313)
       RJ·赛勒 RJ Cyler (id:1350258)
       林路迪 Ludi Lin (id:1351645)
       贝姬·戈麦斯 Becky G (id:1352172)
       伊丽莎白·班克斯 Elizabeth Banks (id:1004571)
       布莱恩·科兰斯顿 Bryan Cranston (id:1031807)
       比尔·哈德尔 Bill Hader (id:1017902)
       马特·夏夫利 Matt Shively (id:1226941)
       科迪·基尔斯利 Cody Kearsley (id:1371107)
       大卫·丹曼 David Denman (id:1087098)
       罗伯特·莫隆尼 Robert Moloney (id:1355210)
       安贾莉·杰 Anjali Jay (id:1349348)
       莎拉·格雷 Sarah Grey (id:1336318)
       摩根·泰勒·坎贝尔 Morgan Taylor Campbell (id:1359634)
       尼科·格莱瑟姆 Nico Greetham (id:1415058)
       雅南 Fiona Fu (id:1429826)
       杰森·弗兰克 Jason David Frank (id:1081079)
       艾米·乔·约翰逊 Amy Jo Johnson (id:1027180)
       帕特里克·萨邦圭 Patrick Sabongui (id:1014383)
       卡罗琳·凯芙 Caroline Cave (id:1280322)
       艾米莉·麦迪森 Emily Maddison (id:1346048)
       布莱恩·泰勒 Brian Tyler (id:1276412)
       李昭桦 Charles Lee (id:1352759)
       朱贝·何塞 Jubey Jose (id:1419120)
       斯科特·埃德斯坦 Scott Edelstein (id:1414097)
       特伦斯·伯杰龙 Terrence Bergeron (id:1411064)
       马可·伍斯特 Marco Wuest (id:1409520)
       西蒙·詹森 Simon Jansen (id:1409518)
       柯丝特·穆德利 Crystal Mudry (id:1467694)

◎简  介
  五个在校园被孤立的高中生,因为青春的荷尔蒙面临着许许多多的烦恼与迷茫。同时,黑暗势力丽达女王正蠢蠢欲动,为了寻找更多能量打造金人怪兽哥达来到地球。五名青少年命中注定地相遇,团结克服难关成为五色超凡战队,与他们的恐龙佐德人机合一雷霆出击拯救世界,毁天灭地一触即发……
  1. ##### MediaInfo ######
  2. General
  3. Unique ID                                : 186940647952278878129542502511623312171 (0x8CA3758C4281F0EABDD5FA3D2F34932B)
  4. Complete name                            : Power.Rangers.2017.BluRay.1080p.x265.10bit-MiniHD.mkv
  5. Format                                   : Matroska
  6. Format version                           : Version 4
  7. File size                                : 6.17 GiB
  8. Duration                                 : 2 h 3 min
  9. Overall bit rate                         : 7 123 kb/s
  10. Encoded date                             : UTC 2017-07-06 04:40:57
  11. Writing application                      : mkvmerge v13.0.0 ('The Juggler') 64bit
  12. Writing library                          : libebml v1.3.4 + libmatroska v1.4.5
  13. Video
  14. ID                                       : 1
  15. Format                                   : HEVC
  16. Format/Info                              : High Efficiency Video Coding
  17. Format profile                           : Main 10@L4@Main
  18. Codec ID                                 : V_MPEGH/ISO/HEVC
  19. Duration                                 : 2 h 3 min
  20. Bit rate                                 : 6 394 kb/s
  21. Width                                    : 1 920 pixels
  22. Height                                   : 800 pixels
  23. Display aspect ratio                     : 2.40:1
  24. Frame rate mode                          : Constant
  25. Frame rate                               : 23.976 (24000/1001/53354) FPS
  26. Color space                              : YUV
  27. Chroma subsampling                       : 4:2:0
  28. Bit depth                                : 10 bits
  29. Bits/(Pixel*Frame)                       : 0.174
  30. Stream size                              : 5.54 GiB (90%)
  31. Writing library                          : x265 2.4+6-fd01abfc7898:[Windows][GCC 6.3.0][64 bit] 10bit
  32. Encoding settings                        : cpuid=533541173503 / frame-threads=6 / numa-pools=20,20 / wpp / no-pmode / pme / no-psnr / no-ssim / log-level=2 / input-csp=1 / input-res=1920x800 / interlace=0 / total-frames=0 / level-idc=0 / high-tier=1 / uhd-bd=0 / ref=4 / no-allow-non-conformance / no-repeat-headers / annexb / no-aud / no-hrd / info / hash=0 / no-temporal-layers / no-open-gop / min-keyint=1 / keyint=360 / bframes=8 / b-adapt=1 / b-pyramid / bframe-bias=0 / rc-lookahead=250 / lookahead-slices=4 / NTMzNTQ=uuDQuD2mJt9fsCf / scenecut=40 / no-intra-refresh / ctu=32 / min-cu-size=8 / no-rect / no-amp / max-tu-size=32 / tu-inter-depth=2 / tu-intra-depth=2 / limit-tu=4 / rdoq-level=2 / dynamic-rd=0.00 / ssim-rd / signhide / no-tskip / nr-intra=0 / nr-inter=0 / no-constrained-intra / no-strong-intra-smoothing / max-merge=3 / limit-refs=2 / limit-modes / me=2 / subme=5 / merange=44 / temporal-mvp / weightp / weightb / no-analyze-src-pics / deblock=-2:-2 / no-sao / no-sao-non-deblock / rd=4 / no-early-skip / no-rskip / no-fast-intra / no-tskip-fast / no-cu-lossless / b-intra / rdpenalty=0 / psy-rd=0.00 / psy-rdoq=3.00 / no-rd-refine / analysis-mode=0 / no-lossless / cbqpoffs=-3 / crqpoffs=-3 / rc=crf / crf=20.0 / qcomp=0.70 / qpstep=4 / stats-write=0 / stats-read=0 / ipratio=1.40 / pbratio=1.20 / aq-mode=2 / aq-strength=0.90 / cutree / zone-count=0 / no-strict-cbr / qg-size=16 / no-rc-grain / qpmax=51 / qpmin=0 / sar=0 / overscan=0 / videoformat=5 / range=0 / colorprim=2 / transfer=2 / colormatrix=2 / chromaloc=0 / display-window=0 / max-cll=0,0 / min-luma=0 / max-luma=1023 / log2-max-poc-lsb=8 / vui-timing-info / vui-hrd-info / slices=1 / opt-qp-pps / opt-ref-list-length-pps / no-multi-pass-opt-rps / scenecut-bias=0.05 / no-opt-cu-delta-qp / no-aq-motion / no-hdr / no-hdr-opt / no-dhdr10-opt / refine-level=5 / no-limit-sao
  33. Default                                  : Yes
  34. Forced                                   : No
  35. Audio
  36. ID                                       : 2
  37. Format                                   : AC-3
  38. Format/Info                              : Audio Coding 3
  39. Commercial name                          : Dolby Digital
  40. Codec ID                                 : A_AC3
  41. Duration                                 : 2 h 3 min
  42. Bit rate mode                            : Constant
  43. Bit rate                                 : 640 kb/s
  44. Channel(s)                               : 6 channels
  45. Channel layout                           : L R C LFE Ls Rs
  46. Sampling rate                            : 48.0 kHz
  47. Frame rate                               : 31.250 FPS (1536 SPF)
  48. Compression mode                         : Lossy
  49. Delay relative to video                  : 1 ms
  50. Stream size                              : 568 MiB (9%)
  51. Language                                 : English
  52. Service kind                             : Complete Main
  53. Default                                  : Yes
  54. Forced                                   : No
  55. Text #1
  56. ID                                       : 3
  57. Format                                   : PGS
  58. Muxing mode                              : zlib
  59. Codec ID                                 : S_HDMV/PGS
  60. Codec ID/Info                            : Picture based subtitle format used on BDs/HD-DVDs
  61. Duration                                 : 1 h 55 min
  62. Bit rate                                 : 41.8 kb/s
  63. Count of elements                        : 3780
  64. Stream size                              : 34.4 MiB (1%)
  65. Language                                 : English
  66. Default                                  : Yes
  67. Forced                                   : No
  68. Text #2
  69. ID                                       : 4
  70. Format                                   : PGS
  71. Muxing mode                              : zlib
  72. Codec ID                                 : S_HDMV/PGS
  73. Codec ID/Info                            : Picture based subtitle format used on BDs/HD-DVDs
  74. Duration                                 : 1 h 52 min
  75. Bit rate                                 : 25.3 kb/s
  76. Count of elements                        : 3106
  77. Stream size                              : 20.3 MiB (0%)
  78. Language                                 : Chinese
  79. Default                                  : No
  80. Forced                                   : No
  81. Text #3
  82. ID                                       : 5
  83. Format                                   : PGS
  84. Muxing mode                              : zlib
  85. Codec ID                                 : S_HDMV/PGS
  86. Codec ID/Info                            : Picture based subtitle format used on BDs/HD-DVDs
  87. Duration                                 : 1 h 52 min
  88. Bit rate                                 : 25.6 kb/s
  89. Count of elements                        : 3106
  90. Stream size                              : 20.6 MiB (0%)
  91. Language                                 : Chinese
  92. Default                                  : No
  93. Forced                                   : No
  94. Text #4
  95. ID                                       : 6
  96. Format                                   : PGS
  97. Muxing mode                              : zlib
  98. Codec ID                                 : S_HDMV/PGS
  99. Codec ID/Info                            : Picture based subtitle format used on BDs/HD-DVDs
  100. Duration                                 : 1 h 52 min
  101. Bit rate                                 : 45.1 kb/s
  102. Count of elements                        : 3163
  103. Stream size                              : 36.3 MiB (1%)
  104. Language                                 : Chinese
  105. Default                                  : No
  106. Forced                                   : No
  107. Text #5
  108. ID                                       : 7
  109. Format                                   : PGS
  110. Muxing mode                              : zlib
  111. Codec ID                                 : S_HDMV/PGS
  112. Codec ID/Info                            : Picture based subtitle format used on BDs/HD-DVDs
  113. Duration                                 : 1 h 52 min
  114. Bit rate                                 : 44.7 kb/s
  115. Count of elements                        : 3163
  116. Stream size                              : 36.0 MiB (1%)
  117. Language                                 : Chinese
  118. Default                                  : No
  119. Forced                                   : No
  120. Menu
  121. 00:00:00.000                             : en:Chapter 1
  122. 00:07:00.253                             : en:Chapter 2
  123. 00:13:45.241                             : en:Chapter 3
  124. 00:18:57.719                             : en:Chapter 4
  125. 00:25:49.589                             : en:Chapter 5
  126. 00:31:17.125                             : en:Chapter 6
  127. 00:38:24.760                             : en:Chapter 7
  128. 00:50:49.045                             : en:Chapter 8
  129. 01:00:00.221                             : en:Chapter 9
  130. 01:08:09.877                             : en:Chapter 10
  131. 01:17:06.746                             : en:Chapter 11
  132. 01:24:41.743                             : en:Chapter 12
  133. 01:30:45.022                             : en:Chapter 13
  134. 01:34:18.861                             : en:Chapter 14
  135. 01:44:32.933                             : en:Chapter 15
  136. 01:51:46.157                             : en:Chapter 16





此处一般会放置磁力链或种子下载链接,不过此链接需要注册会员才能看到,点击“立即注册”
磁力链下载【下载链接仅对注册会员开放,登陆后可见】
BT9527电影天堂 1、BT9527电影天堂提供的BT文件均来源于互联网抓取,只供网友学习交流、技术提升使用。
2、我们遵守BitTorrent点对点协议原则,任何版权问题请联系原资源发布商,我们不处理任何版权纠纷,谢谢!如有争议请联系邮箱:BT9527#hotmail.com(#换成@)
3、如果您发现某页面或地址有错误,请联系站长邮箱BT9527#hotmail.com(#换成@),我们会尽快处理。您的热心是对BT9527电影天堂最大的支持。
4、本站建议去正规影院观看电影以支持电影行业发展。
最新回复 (0)

你可以在 登录 or 注册 后,对此帖发表评论!

返回
发新帖