飞向宇宙:巴斯的浩瀚无垠之旅[中文字幕].Beyond.Infinity.Buzz.and.the.Journey.to.Lightyear.2022.2160p.WEB-DL.x265.8bit.SDR.DDP5.1-SMURF 4.67GB

版主小s 5月前 220

✔资源类型:4K   ✔电影年份:2022   ✔电影地区:欧美   ✔电影分类:其他

RARBG.jpg (14.51 KB, 下载次数: 0)

下载附件

昨天 17:13 上传


Douban.jpg (83.37 KB, 下载次数: 0)

下载附件

昨天 17:13 上传



◎译  名 飞向宇宙:巴斯的浩瀚无垠之旅
◎片  名 Beyond Infinity: Buzz and the Journey to Lightyear
◎年  代 2022
◎产  地 美国
◎类  别 纪录片 / 短片
◎语  言 英语 / 西班牙语
◎上映日期 2022-06-10(美国网络)
◎IMDb链接 https://www.imdb.com/title/tt16026684/
◎豆瓣链接 https://movie.douban.com/subject/35926861/
◎片  长 35分钟

◎简  介
  Follows the making of the Pixar "Lightyear".
  1. Video
  2. ID                                       : 1
  3. Format                                   : HEVC
  4. Format/Info                              : High Efficiency Video Coding
  5. Format profile                           : Main@L5@High
  6. Codec ID                                 : V_MPEGH/ISO/HEVC
  7. Duration                                 : 34 min 11 s
  8. Bit rate                                 : 19.3 Mb/s
  9. Width                                    : 3 840 pixels
  10. Height                                   : 2 160 pixels
  11. Display aspect ratio                     : 16:9
  12. Frame rate mode                          : Constant
  13. Frame rate                               : 23.976 (24000/1001/53354) FPS
  14. Color space                              : YUV
  15. Chroma subsampling                       : 4:2:0
  16. Bit depth                                : 8 bits
  17. Bits/(Pixel*Frame)                       : 0.097
  18. Stream size                              : 4.61 GiB (99%)
  19. Writing library                          : x265 3.5:[Linux][GCC 9.4.0][64 bit] 8bit+10bit+12bit
  20. Encoding settings                        : cpuid=533541111039 / frame-threads=1 / numa-pools=16 / wpp / no-pmode / no-pme / no-psnr / no-ssim / log-level=2 / input-csp=1 / input-res=3840x2160 / interlace=0 / total-frames=0 / level-idc=50 / high-tier=1 / uhd-bd=0 / ref=2 / no-allow-non-conformance / repeat-headers / annexb / no-aud / no-hrd / info / hash=0 / no-temporal-layers / no-open-gop / min-keyint=48 / keyint=48 / gop-lookahead=0 / bframes=4 / b-adapt=0 / b-pyramid / bframe-bias=0 / rc-lookahead=48 / lookahead-slices=8 / scenecut=0 / hist-scenecut=0 / radl=0 / no-splice / no-intra-refresh / ctu=32 / min-cu-size=8 / no-rect / no-amp / max-tu-size=16 / tu-inter-depth=2 / tu-intra-depth=2 / limit-tu=0 / rdoq-level=1 / dynamic-rd=0.00 / no-ssim-rd / signhide / no-tskip / nr-intra=0 / nr-inter=0 / no-constrained-intra / no-strong-intra-smoothing / max-merge=3 / limit-refs=1 / no-limit-modes / me=1 / subme=2 / merange=44 / temporal-mvp / no-frame-dup / no-hme / weightp / no-weightb / no-analyze-src-pics / deblock=0:0 / no-sao / no-sao-non-deblock / rd=4 / selective-sao=0 / early-skip / rskip / no-fast-intra / no-tskip-fast / no-cu-lossless / b-intra / no-splitrd-skip / rdpenalty=1 / psy-rd=1.60 / psy-rdoq=5.00 / no-rd-refine / no-lossless / cbqpoffs=0 / crqpoffs=0 / rc=abr / bitrate=20000 / qcomp=0.75 / qpstep=4 / stats-write=0 / stats-read=0 / vbv-maxrate=24000 / vbv-bufsize=40000 / vbv-init=0.9 / ipratio=1.40 / pbratio=1.30 / aq-mode=3 / aq-strength=1.00 / no-cutree / zone-count=0 / no-strict-cbr / qg-size=32 / no-rc-grain / qpmax=69 / qpmin=0 / no-const-vbv / sar=1 / overscan=0 / videoformat=5 / range=0 / colorprim=1 / transfer=1 / colormatrix=1 / chromaloc=0 / display-window=0 / cll=0,0 / min-luma=0 / max-luma=255 / log2-max-poc-lsb=8 / vui-timing-info / vui-hrd-info / slices=1 / no-opt-qp-pps / no-opt-ref-list-length-pps / no-multi-pass-opt-rps / scenecut-bias=0.00 / hist-threshold=0.01 / no-opt-cu-delta-qp / no-aq-motion / no-hdr10 / no-hdr10-opt / no-dhdr10-opt / no-idr-recovery-sei / analysis-reuse-level=0 / analysis-save-reuse-level=0 / analysis-load-reuse-level=0 / scale-factor=0 / refine-intra=0 / refine-inter=0 / refine-mv=1 / refine-ctu-distortion=0 / no-limit-sao / ctu-info=0 / no-lowpass-dct / refine-analysis-type=0 / copy-pic=1 / max-ausize-factor=1.0 / no-dynamic-refine / no-single-sei / no-hevc-aq / no-svt / no-field / qp-adaptation-range=1.00 / no-scenecut-aware-qpconformance-window-offsets / right=0 / bottom=0 / NTMzNTQ=
  21. Default                                  : No
  22. Forced                                   : No
  23. Color range                              : Limited
  24. Color primaries                          : BT.709
  25. Transfer characteristics                 : BT.709
  26. Matrix coefficients                      : BT.709

  27. Audio
  28. ID                                       : 2
  29. Format                                   : E-AC-3
  30. Format/Info                              : Enhanced AC-3
  31. Commercial name                          : Dolby Digital Plus
  32. Codec ID                                 : A_EAC3
  33. Duration                                 : 34 min 12 s
  34. Bit rate mode                            : Constant
  35. Bit rate                                 : 256 kb/s
  36. Channel(s)                               : 6 channels
  37. Channel layout                           : L R C LFE Ls Rs
  38. Sampling rate                            : 48.0 kHz
  39. Frame rate                               : 31.250 FPS (1536 SPF)
  40. Compression mode                         : Lossy
  41. Stream size                              : 62.6 MiB (1%)
  42. Language                                 : English
  43. Service kind                             : Complete Main
  44. Default                                  : No
  45. Forced                                   : No

  46. Text #1
  47. ID                                       : 3
  48. Format                                   : UTF-8
  49. Codec ID                                 : S_TEXT/UTF8
  50. Codec ID/Info                            : UTF-8 Plain Text
  51. Duration                                 : 34 min 4 s
  52. Bit rate                                 : 111 b/s
  53. Count of elements                        : 582
  54. Stream size                              : 27.7 KiB (0%)
  55. Language                                 : English
  56. Default                                  : No
  57. Forced                                   : No

  58. Text #2
  59. ID                                       : 4
  60. Format                                   : UTF-8
  61. Codec ID                                 : S_TEXT/UTF8
  62. Codec ID/Info                            : UTF-8 Plain Text
  63. Duration                                 : 34 min 4 s
  64. Bit rate                                 : 113 b/s
  65. Count of elements                        : 588
  66. Stream size                              : 28.4 KiB (0%)
  67. Title                                    : SDH
  68. Language                                 : English
  69. Default                                  : No
  70. Forced                                   : No

  71. Text #3
  72. ID                                       : 5
  73. Format                                   : UTF-8
  74. Codec ID                                 : S_TEXT/UTF8
  75. Codec ID/Info                            : UTF-8 Plain Text
  76. Duration                                 : 34 min 6 s
  77. Bit rate                                 : 94 b/s
  78. Count of elements                        : 658
  79. Stream size                              : 23.5 KiB (0%)
  80. Title                                    : Hong Kong
  81. Language                                 : Chinese
  82. Default                                  : No
  83. Forced                                   : No

  84. Text #4
  85. ID                                       : 6
  86. Format                                   : UTF-8
  87. Codec ID                                 : S_TEXT/UTF8
  88. Codec ID/Info                            : UTF-8 Plain Text
  89. Duration                                 : 34 min 6 s
  90. Bit rate                                 : 96 b/s
  91. Count of elements                        : 657
  92. Stream size                              : 24.2 KiB (0%)
  93. Title                                    : Simplified
  94. Language                                 : Chinese
  95. Default                                  : No
  96. Forced                                   : No

  97. Text #5
  98. ID                                       : 7
  99. Format                                   : UTF-8
  100. Codec ID                                 : S_TEXT/UTF8
  101. Codec ID/Info                            : UTF-8 Plain Text
  102. Duration                                 : 34 min 6 s
  103. Bit rate                                 : 80 b/s
  104. Count of elements                        : 582
  105. Stream size                              : 20.2 KiB (0%)
  106. Title                                    : Traditional
  107. Language                                 : Chinese
  108. Default                                  : No
  109. Forced                                   : No

  110. Text #6
  111. ID                                       : 8
  112. Format                                   : UTF-8
  113. Codec ID                                 : S_TEXT/UTF8
  114. Codec ID/Info                            : UTF-8 Plain Text
  115. Duration                                 : 34 min 6 s
  116. Bit rate                                 : 111 b/s
  117. Count of elements                        : 627
  118. Stream size                              : 27.9 KiB (0%)
  119. Language                                 : Danish
  120. Default                                  : No
  121. Forced                                   : No

  122. Text #7
  123. ID                                       : 9
  124. Format                                   : UTF-8
  125. Codec ID                                 : S_TEXT/UTF8
  126. Codec ID/Info                            : UTF-8 Plain Text
  127. Duration                                 : 34 min 6 s
  128. Bit rate                                 : 102 b/s
  129. Count of elements                        : 592
  130. Stream size                              : 25.7 KiB (0%)
  131. Language                                 : German
  132. Default                                  : No
  133. Forced                                   : No

  134. Text #8
  135. ID                                       : 10
  136. Format                                   : UTF-8
  137. Codec ID                                 : S_TEXT/UTF8
  138. Codec ID/Info                            : UTF-8 Plain Text
  139. Duration                                 : 34 min 6 s
  140. Bit rate                                 : 120 b/s
  141. Count of elements                        : 637
  142. Stream size                              : 30.1 KiB (0%)
  143. Title                                    : Latin American
  144. Language                                 : Spanish
  145. Default                                  : No
  146. Forced                                   : No

  147. Text #9
  148. ID                                       : 11
  149. Format                                   : UTF-8
  150. Codec ID                                 : S_TEXT/UTF8
  151. Codec ID/Info                            : UTF-8 Plain Text
  152. Duration                                 : 34 min 6 s
  153. Bit rate                                 : 114 b/s
  154. Count of elements                        : 633
  155. Stream size                              : 28.5 KiB (0%)
  156. Title                                    : European
  157. Language                                 : Spanish
  158. Default                                  : No
  159. Forced                                   : No

  160. Text #10
  161. ID                                       : 12
  162. Format                                   : UTF-8
  163. Codec ID                                 : S_TEXT/UTF8
  164. Codec ID/Info                            : UTF-8 Plain Text
  165. Duration                                 : 34 min 6 s
  166. Bit rate                                 : 93 b/s
  167. Count of elements                        : 619
  168. Stream size                              : 23.5 KiB (0%)
  169. Language                                 : French
  170. Default                                  : No
  171. Forced                                   : No

  172. Text #11
  173. ID                                       : 13
  174. Format                                   : UTF-8
  175. Codec ID                                 : S_TEXT/UTF8
  176. Codec ID/Info                            : UTF-8 Plain Text
  177. Duration                                 : 34 min 6 s
  178. Bit rate                                 : 190 b/s
  179. Count of elements                        : 642
  180. Stream size                              : 47.6 KiB (0%)
  181. Language                                 : Greek
  182. Default                                  : No
  183. Forced                                   : No

  184. Text #12
  185. ID                                       : 14
  186. Format                                   : UTF-8
  187. Codec ID                                 : S_TEXT/UTF8
  188. Codec ID/Info                            : UTF-8 Plain Text
  189. Duration                                 : 34 min 6 s
  190. Bit rate                                 : 108 b/s
  191. Count of elements                        : 639
  192. Stream size                              : 27.1 KiB (0%)
  193. Language                                 : Italian
  194. Default                                  : No
  195. Forced                                   : No

  196. Text #13
  197. ID                                       : 15
  198. Format                                   : UTF-8
  199. Codec ID                                 : S_TEXT/UTF8
  200. Codec ID/Info                            : UTF-8 Plain Text
  201. Duration                                 : 34 min 6 s
  202. Bit rate                                 : 107 b/s
  203. Count of elements                        : 553
  204. Stream size                              : 27.0 KiB (0%)
  205. Language                                 : Japanese
  206. Default                                  : No
  207. Forced                                   : No

  208. Text #14
  209. ID                                       : 16
  210. Format                                   : UTF-8
  211. Codec ID                                 : S_TEXT/UTF8
  212. Codec ID/Info                            : UTF-8 Plain Text
  213. Duration                                 : 34 min 6 s
  214. Bit rate                                 : 115 b/s
  215. Count of elements                        : 647
  216. Stream size                              : 28.8 KiB (0%)
  217. Language                                 : Korean
  218. Default                                  : No
  219. Forced                                   : No

  220. Text #15
  221. ID                                       : 17
  222. Format                                   : UTF-8
  223. Codec ID                                 : S_TEXT/UTF8
  224. Codec ID/Info                            : UTF-8 Plain Text
  225. Duration                                 : 34 min 4 s
  226. Bit rate                                 : 108 b/s
  227. Count of elements                        : 642
  228. Stream size                              : 27.1 KiB (0%)
  229. Language                                 : Hungarian
  230. Default                                  : No
  231. Forced                                   : No

  232. Text #16
  233. ID                                       : 18
  234. Format                                   : UTF-8
  235. Codec ID                                 : S_TEXT/UTF8
  236. Codec ID/Info                            : UTF-8 Plain Text
  237. Duration                                 : 34 min 6 s
  238. Bit rate                                 : 82 b/s
  239. Count of elements                        : 516
  240. Stream size                              : 20.7 KiB (0%)
  241. Language                                 : Dutch
  242. Default                                  : No
  243. Forced                                   : No

  244. Text #17
  245. ID                                       : 19
  246. Format                                   : UTF-8
  247. Codec ID                                 : S_TEXT/UTF8
  248. Codec ID/Info                            : UTF-8 Plain Text
  249. Duration                                 : 34 min 6 s
  250. Bit rate                                 : 110 b/s
  251. Count of elements                        : 631
  252. Stream size                              : 27.7 KiB (0%)
  253. Language                                 : Norwegian
  254. Default                                  : No
  255. Forced                                   : No

  256. Text #18
  257. ID                                       : 20
  258. Format                                   : UTF-8
  259. Codec ID                                 : S_TEXT/UTF8
  260. Codec ID/Info                            : UTF-8 Plain Text
  261. Duration                                 : 34 min 6 s
  262. Bit rate                                 : 113 b/s
  263. Count of elements                        : 641
  264. Stream size                              : 28.3 KiB (0%)
  265. Language                                 : Polish
  266. Default                                  : No
  267. Forced                                   : No

  268. Text #19
  269. ID                                       : 21
  270. Format                                   : UTF-8
  271. Codec ID                                 : S_TEXT/UTF8
  272. Codec ID/Info                            : UTF-8 Plain Text
  273. Duration                                 : 34 min 6 s
  274. Bit rate                                 : 114 b/s
  275. Count of elements                        : 637
  276. Stream size                              : 28.6 KiB (0%)
  277. Language                                 : Portuguese
  278. Default                                  : No
  279. Forced                                   : No

  280. Text #20
  281. ID                                       : 22
  282. Format                                   : UTF-8
  283. Codec ID                                 : S_TEXT/UTF8
  284. Codec ID/Info                            : UTF-8 Plain Text
  285. Duration                                 : 34 min 6 s
  286. Bit rate                                 : 118 b/s
  287. Count of elements                        : 636
  288. Stream size                              : 29.6 KiB (0%)
  289. Title                                    : Brazilian
  290. Language                                 : Portuguese
  291. Default                                  : No
  292. Forced                                   : No

  293. Text #21
  294. ID                                       : 23
  295. Format                                   : UTF-8
  296. Codec ID                                 : S_TEXT/UTF8
  297. Codec ID/Info                            : UTF-8 Plain Text
  298. Duration                                 : 34 min 6 s
  299. Bit rate                                 : 116 b/s
  300. Count of elements                        : 643
  301. Stream size                              : 29.1 KiB (0%)
  302. Language                                 : Romanian
  303. Default                                  : No
  304. Forced                                   : No

  305. Text #22
  306. ID                                       : 24
  307. Format                                   : UTF-8
  308. Codec ID                                 : S_TEXT/UTF8
  309. Codec ID/Info                            : UTF-8 Plain Text
  310. Duration                                 : 34 min 6 s
  311. Bit rate                                 : 116 b/s
  312. Count of elements                        : 649
  313. Stream size                              : 29.0 KiB (0%)
  314. Language                                 : Slovak
  315. Default                                  : No
  316. Forced                                   : No

  317. Text #23
  318. ID                                       : 25
  319. Format                                   : UTF-8
  320. Codec ID                                 : S_TEXT/UTF8
  321. Codec ID/Info                            : UTF-8 Plain Text
  322. Duration                                 : 34 min 6 s
  323. Bit rate                                 : 102 b/s
  324. Count of elements                        : 639
  325. Stream size                              : 25.6 KiB (0%)
  326. Language                                 : Finnish
  327. Default                                  : No
  328. Forced                                   : No

  329. Text #24
  330. ID                                       : 26
  331. Format                                   : UTF-8
  332. Codec ID                                 : S_TEXT/UTF8
  333. Codec ID/Info                            : UTF-8 Plain Text
  334. Duration                                 : 34 min 6 s
  335. Bit rate                                 : 107 b/s
  336. Count of elements                        : 629
  337. Stream size                              : 26.9 KiB (0%)
  338. Language                                 : Swedish
  339. Default                                  : No
  340. Forced                                   : No

  341. Text #25
  342. ID                                       : 27
  343. Format                                   : UTF-8
  344. Codec ID                                 : S_TEXT/UTF8
  345. Codec ID/Info                            : UTF-8 Plain Text
  346. Duration                                 : 34 min 6 s
  347. Bit rate                                 : 113 b/s
  348. Count of elements                        : 655
  349. Stream size                              : 28.4 KiB (0%)
  350. Language                                 : Turkish
  351. Default                                  : No
  352. Forced                                   : No

  353. Text #26
  354. ID                                       : 28
  355. Format                                   : UTF-8
  356. Codec ID                                 : S_TEXT/UTF8
  357. Codec ID/Info                            : UTF-8 Plain Text
  358. Duration                                 : 34 min 6 s
  359. Bit rate                                 : 106 b/s
  360. Count of elements                        : 640
  361. Stream size                              : 26.7 KiB (0%)
  362. Language                                 : Czech
  363. Default                                  : No
  364. Forced                                   : No

  365. Menu
  366. 00:34:14.009                             : en:Credits


1.jpg (26.64 KB, 下载次数: 0)

下载附件

昨天 17:13 上传

2.jpg (43.38 KB, 下载次数: 0)

下载附件

昨天 17:13 上传

3.jpg (25.05 KB, 下载次数: 0)

下载附件

昨天 17:13 上传




此处一般会放置磁力链或种子下载链接,不过此链接需要注册会员才能看到,点击“立即注册”
磁力链下载【下载链接仅对注册会员开放,登陆后可见】
BT9527电影天堂 1、BT9527电影天堂提供的BT文件均来源于互联网抓取,只供网友学习交流、技术提升使用。
2、我们遵守BitTorrent点对点协议原则,任何版权问题请联系原资源发布商,我们不处理任何版权纠纷,谢谢!如有争议请联系邮箱:BT9527#hotmail.com(#换成@)
3、如果您发现某页面或地址有错误,请联系站长邮箱BT9527#hotmail.com(#换成@),我们会尽快处理。您的热心是对BT9527电影天堂最大的支持。
4、本站建议去正规影院观看电影以支持电影行业发展。
最新回复 (0)

你可以在 登录 or 注册 后,对此帖发表评论!

返回
发新帖