渔业阴谋[中文字幕].Seaspiracy.2021.2160p.NF.WEB-DL.x265.10bit.SDR.DDP5.1-SKiZOiD 7.76GB

版主小s 5月前 235

✔资源类型:4K   ✔电影年份:2021   ✔电影地区:欧美   ✔电影分类:其他

RARBG.jpg (41.64 KB, 下载次数: 0)

下载附件

昨天 17:12 上传


Douban.jpg (102.26 KB, 下载次数: 0)

下载附件

昨天 17:12 上传



◎译  名 渔业阴谋 / 深海阴谋(港) / 海洋阴谋(台)
◎片  名 Seaspiracy
◎年  代 2021
◎产  地 美国
◎类  别 纪录片
◎语  言 英语
◎上映日期 2021-03-24(美国)
◎IMDb链接 https://www.imdb.com/title/tt14152756/
◎豆瓣评分 8.5/10 (5849人评价)
◎豆瓣链接 https://movie.douban.com/subject/35377036/
◎片  长 89分钟
◎导  演 阿里·塔瑞兹 Ali Tabrizi (id:1350221)
◎演  员 阿里·塔瑞兹 Ali Tabrizi (id:1350221)
       吉普·安德森 Kip Andersen (id:1469518)

◎简  介
  开创性纪录片《奶牛阴谋》的联合创剧人带来《海洋阴谋》,这部后续纪录片揭示了令人担忧的事实:人类行为已对海洋环境造成广泛的破坏,但这点却鲜为人知。电影制作人阿里·塔瑞兹原本只打算拍摄他心爱的海洋,但后来却发现自己在审视人类对脆弱的海洋所造成的伤害。从污染水域的塑料和渔具,到底拖作业和副渔获造成的不可挽回的破坏,再到非法捕鱼和毁灭性的狩猎行为,人类正在对海洋生物造成重创,进而威胁到整个地球。塔瑞兹的最终发现不仅挑战了可持续捕鱼的理念,任何人如果关注海洋生命、地球的未来以及人类和地球的关系,都将从中得到警示。
  1. Video
  2. ID                                       : 1
  3. Format                                   : HEVC
  4. Format/Info                              : High Efficiency Video Coding
  5. Format profile                           : Main 10@L5@Main
  6. Codec ID                                 : V_MPEGH/ISO/HEVC
  7. Duration                                 : 1 h 30 min
  8. Bit rate                                 : 11.7 Mb/s
  9. Width                                    : 3 840 pixels
  10. Height                                   : 2 160 pixels
  11. Display aspect ratio                     : 16:9
  12. Frame rate mode                          : Constant
  13. Frame rate                               : 23.976 (24000/1001/53354) FPS
  14. Color space                              : YUV
  15. Chroma subsampling                       : 4:2:0
  16. Bit depth                                : 10 bits
  17. Bits/(Pixel*Frame)                       : 0.059
  18. Stream size                              : 7.36 GiB (95%)
  19. Default                                  : Yes
  20. Forced                                   : No
  21. Color range                              : Limited
  22. Color primaries                          : BT.709
  23. Transfer characteristics                 : BT.709
  24. Matrix coefficients                      : BT.709

  25. Audio
  26. ID                                       : 2
  27. Format                                   : E-AC-3
  28. Format/Info                              : Enhanced AC-3
  29. Commercial name                          : Dolby Digital Plus
  30. Codec ID                                 : A_EAC3
  31. Duration                                 : 1 h 30 min
  32. Bit rate mode                            : Constant
  33. Bit rate                                 : 640 kb/s
  34. Channel(s)                               : 6 channels
  35. Channel layout                           : L R C LFE Ls Rs
  36. Sampling rate                            : 48.0 kHz
  37. Frame rate                               : 31.250 FPS (1536 SPF)
  38. Compression mode                         : Lossy
  39. Stream size                              : 413 MiB (5%)
  40. Title                                    : English
  41. Language                                 : English
  42. Service kind                             : Complete Main
  43. Default                                  : Yes
  44. Forced                                   : No

  45. Text #1
  46. ID                                       : 3
  47. Format                                   : UTF-8
  48. Codec ID                                 : S_TEXT/UTF8
  49. Codec ID/Info                            : UTF-8 Plain Text
  50. Duration                                 : 1 h 28 min
  51. Bit rate                                 : 150 b/s
  52. Count of elements                        : 1699
  53. Stream size                              : 97.3 KiB (0%)
  54. Title                                    : English
  55. Language                                 : English
  56. Default                                  : Yes
  57. Forced                                   : No

  58. Text #2
  59. ID                                       : 4
  60. Format                                   : UTF-8
  61. Codec ID                                 : S_TEXT/UTF8
  62. Codec ID/Info                            : UTF-8 Plain Text
  63. Duration                                 : 1 h 11 min
  64. Bit rate                                 : 4 b/s
  65. Count of elements                        : 58
  66. Stream size                              : 2.24 KiB (0%)
  67. Title                                    : Forced
  68. Language                                 : English
  69. Default                                  : No
  70. Forced                                   : Yes

  71. Text #3
  72. ID                                       : 5
  73. Format                                   : UTF-8
  74. Codec ID                                 : S_TEXT/UTF8
  75. Codec ID/Info                            : UTF-8 Plain Text
  76. Duration                                 : 1 h 28 min
  77. Bit rate                                 : 187 b/s
  78. Count of elements                        : 1682
  79. Stream size                              : 122 KiB (0%)
  80. Title                                    : Arabic
  81. Language                                 : Arabic
  82. Default                                  : No
  83. Forced                                   : No

  84. Text #4
  85. ID                                       : 6
  86. Format                                   : UTF-8
  87. Codec ID                                 : S_TEXT/UTF8
  88. Codec ID/Info                            : UTF-8 Plain Text
  89. Duration                                 : 1 h 28 min
  90. Bit rate                                 : 104 b/s
  91. Count of elements                        : 1614
  92. Stream size                              : 67.9 KiB (0%)
  93. Title                                    : Chinese Simplified
  94. Language                                 : Chinese
  95. Default                                  : No
  96. Forced                                   : No

  97. Text #5
  98. ID                                       : 7
  99. Format                                   : UTF-8
  100. Codec ID                                 : S_TEXT/UTF8
  101. Codec ID/Info                            : UTF-8 Plain Text
  102. Duration                                 : 1 h 28 min
  103. Bit rate                                 : 93 b/s
  104. Count of elements                        : 1698
  105. Stream size                              : 60.9 KiB (0%)
  106. Title                                    : Chinese Traditional
  107. Language                                 : Chinese
  108. Default                                  : No
  109. Forced                                   : No

  110. Text #6
  111. ID                                       : 8
  112. Format                                   : UTF-8
  113. Codec ID                                 : S_TEXT/UTF8
  114. Codec ID/Info                            : UTF-8 Plain Text
  115. Duration                                 : 1 h 28 min
  116. Bit rate                                 : 98 b/s
  117. Count of elements                        : 1305
  118. Stream size                              : 63.9 KiB (0%)
  119. Title                                    : Croatian
  120. Language                                 : Croatian
  121. Default                                  : No
  122. Forced                                   : No

  123. Text #7
  124. ID                                       : 9
  125. Format                                   : UTF-8
  126. Codec ID                                 : S_TEXT/UTF8
  127. Codec ID/Info                            : UTF-8 Plain Text
  128. Duration                                 : 1 h 27 min
  129. Bit rate                                 : 114 b/s
  130. Count of elements                        : 1077
  131. Stream size                              : 73.2 KiB (0%)
  132. Title                                    : Czech
  133. Language                                 : Czech
  134. Default                                  : No
  135. Forced                                   : No

  136. Text #8
  137. ID                                       : 10
  138. Format                                   : UTF-8
  139. Codec ID                                 : S_TEXT/UTF8
  140. Codec ID/Info                            : UTF-8 Plain Text
  141. Duration                                 : 1 h 28 min
  142. Bit rate                                 : 106 b/s
  143. Count of elements                        : 1387
  144. Stream size                              : 69.5 KiB (0%)
  145. Title                                    : Danish
  146. Language                                 : Danish
  147. Default                                  : No
  148. Forced                                   : No

  149. Text #9
  150. ID                                       : 11
  151. Format                                   : UTF-8
  152. Codec ID                                 : S_TEXT/UTF8
  153. Codec ID/Info                            : UTF-8 Plain Text
  154. Duration                                 : 1 h 28 min
  155. Bit rate                                 : 100 b/s
  156. Count of elements                        : 1302
  157. Stream size                              : 65.7 KiB (0%)
  158. Title                                    : Dutch
  159. Language                                 : Dutch
  160. Default                                  : No
  161. Forced                                   : No

  162. Text #10
  163. ID                                       : 12
  164. Format                                   : UTF-8
  165. Codec ID                                 : S_TEXT/UTF8
  166. Codec ID/Info                            : UTF-8 Plain Text
  167. Duration                                 : 1 h 28 min
  168. Bit rate                                 : 114 b/s
  169. Count of elements                        : 1443
  170. Stream size                              : 74.3 KiB (0%)
  171. Title                                    : Finnish
  172. Language                                 : Finnish
  173. Default                                  : No
  174. Forced                                   : No

  175. Text #11
  176. ID                                       : 13
  177. Format                                   : UTF-8
  178. Codec ID                                 : S_TEXT/UTF8
  179. Codec ID/Info                            : UTF-8 Plain Text
  180. Duration                                 : 1 h 28 min
  181. Bit rate                                 : 106 b/s
  182. Count of elements                        : 1510
  183. Stream size                              : 69.2 KiB (0%)
  184. Title                                    : French
  185. Language                                 : French
  186. Default                                  : No
  187. Forced                                   : No

  188. Text #12
  189. ID                                       : 14
  190. Format                                   : UTF-8
  191. Codec ID                                 : S_TEXT/UTF8
  192. Codec ID/Info                            : UTF-8 Plain Text
  193. Duration                                 : 1 h 27 min
  194. Bit rate                                 : 119 b/s
  195. Count of elements                        : 1521
  196. Stream size                              : 76.2 KiB (0%)
  197. Title                                    : German
  198. Language                                 : German
  199. Default                                  : No
  200. Forced                                   : No

  201. Text #13
  202. ID                                       : 15
  203. Format                                   : UTF-8
  204. Codec ID                                 : S_TEXT/UTF8
  205. Codec ID/Info                            : UTF-8 Plain Text
  206. Duration                                 : 1 h 28 min
  207. Bit rate                                 : 190 b/s
  208. Count of elements                        : 1466
  209. Stream size                              : 124 KiB (0%)
  210. Title                                    : Greek
  211. Language                                 : Greek
  212. Default                                  : No
  213. Forced                                   : No

  214. Text #14
  215. ID                                       : 16
  216. Format                                   : UTF-8
  217. Codec ID                                 : S_TEXT/UTF8
  218. Codec ID/Info                            : UTF-8 Plain Text
  219. Duration                                 : 1 h 28 min
  220. Bit rate                                 : 175 b/s
  221. Count of elements                        : 1421
  222. Stream size                              : 114 KiB (0%)
  223. Title                                    : Hebrew
  224. Language                                 : Hebrew
  225. Default                                  : No
  226. Forced                                   : No

  227. Text #15
  228. ID                                       : 17
  229. Format                                   : UTF-8
  230. Codec ID                                 : S_TEXT/UTF8
  231. Codec ID/Info                            : UTF-8 Plain Text
  232. Duration                                 : 1 h 28 min
  233. Bit rate                                 : 110 b/s
  234. Count of elements                        : 1280
  235. Stream size                              : 72.0 KiB (0%)
  236. Title                                    : Hungarian
  237. Language                                 : Hungarian
  238. Default                                  : No
  239. Forced                                   : No

  240. Text #16
  241. ID                                       : 18
  242. Format                                   : UTF-8
  243. Codec ID                                 : S_TEXT/UTF8
  244. Codec ID/Info                            : UTF-8 Plain Text
  245. Duration                                 : 1 h 28 min
  246. Bit rate                                 : 117 b/s
  247. Count of elements                        : 1530
  248. Stream size                              : 76.3 KiB (0%)
  249. Title                                    : Indonesian
  250. Language                                 : Indonesian
  251. Default                                  : No
  252. Forced                                   : No

  253. Text #17
  254. ID                                       : 19
  255. Format                                   : UTF-8
  256. Codec ID                                 : S_TEXT/UTF8
  257. Codec ID/Info                            : UTF-8 Plain Text
  258. Duration                                 : 1 h 28 min
  259. Bit rate                                 : 116 b/s
  260. Count of elements                        : 1643
  261. Stream size                              : 75.6 KiB (0%)
  262. Title                                    : Italian
  263. Language                                 : Italian
  264. Default                                  : No
  265. Forced                                   : No

  266. Text #18
  267. ID                                       : 20
  268. Format                                   : UTF-8
  269. Codec ID                                 : S_TEXT/UTF8
  270. Codec ID/Info                            : UTF-8 Plain Text
  271. Duration                                 : 1 h 29 min
  272. Bit rate                                 : 118 b/s
  273. Count of elements                        : 1651
  274. Stream size                              : 77.4 KiB (0%)
  275. Title                                    : Japanese
  276. Language                                 : Japanese
  277. Default                                  : No
  278. Forced                                   : No

  279. Text #19
  280. ID                                       : 21
  281. Format                                   : UTF-8
  282. Codec ID                                 : S_TEXT/UTF8
  283. Codec ID/Info                            : UTF-8 Plain Text
  284. Duration                                 : 1 h 28 min
  285. Bit rate                                 : 139 b/s
  286. Count of elements                        : 1763
  287. Stream size                              : 90.3 KiB (0%)
  288. Title                                    : Korean
  289. Language                                 : Korean
  290. Default                                  : No
  291. Forced                                   : No

  292. Text #20
  293. ID                                       : 22
  294. Format                                   : UTF-8
  295. Codec ID                                 : S_TEXT/UTF8
  296. Codec ID/Info                            : UTF-8 Plain Text
  297. Duration                                 : 1 h 28 min
  298. Bit rate                                 : 111 b/s
  299. Count of elements                        : 1531
  300. Stream size                              : 72.3 KiB (0%)
  301. Title                                    : Malay
  302. Language                                 : Malay
  303. Default                                  : No
  304. Forced                                   : No

  305. Text #21
  306. ID                                       : 23
  307. Format                                   : UTF-8
  308. Codec ID                                 : S_TEXT/UTF8
  309. Codec ID/Info                            : UTF-8 Plain Text
  310. Duration                                 : 1 h 27 min
  311. Bit rate                                 : 110 b/s
  312. Count of elements                        : 1249
  313. Stream size                              : 70.8 KiB (0%)
  314. Title                                    : Norwegian Bokmal
  315. Language                                 : Norwegian Bokmal
  316. Default                                  : No
  317. Forced                                   : No

  318. Text #22
  319. ID                                       : 24
  320. Format                                   : UTF-8
  321. Codec ID                                 : S_TEXT/UTF8
  322. Codec ID/Info                            : UTF-8 Plain Text
  323. Duration                                 : 1 h 28 min
  324. Bit rate                                 : 94 b/s
  325. Count of elements                        : 1380
  326. Stream size                              : 61.8 KiB (0%)
  327. Title                                    : Polish
  328. Language                                 : Polish
  329. Default                                  : No
  330. Forced                                   : No

  331. Text #23
  332. ID                                       : 25
  333. Format                                   : UTF-8
  334. Codec ID                                 : S_TEXT/UTF8
  335. Codec ID/Info                            : UTF-8 Plain Text
  336. Duration                                 : 1 h 27 min
  337. Bit rate                                 : 105 b/s
  338. Count of elements                        : 1268
  339. Stream size                              : 67.5 KiB (0%)
  340. Title                                    : Portuguese
  341. Language                                 : Portuguese
  342. Default                                  : No
  343. Forced                                   : No

  344. Text #24
  345. ID                                       : 26
  346. Format                                   : UTF-8
  347. Codec ID                                 : S_TEXT/UTF8
  348. Codec ID/Info                            : UTF-8 Plain Text
  349. Duration                                 : 1 h 28 min
  350. Bit rate                                 : 116 b/s
  351. Count of elements                        : 1571
  352. Stream size                              : 76.2 KiB (0%)
  353. Title                                    : Brazilian Portuguese
  354. Language                                 : Portuguese
  355. Default                                  : No
  356. Forced                                   : No

  357. Text #25
  358. ID                                       : 27
  359. Format                                   : UTF-8
  360. Codec ID                                 : S_TEXT/UTF8
  361. Codec ID/Info                            : UTF-8 Plain Text
  362. Duration                                 : 1 h 28 min
  363. Bit rate                                 : 113 b/s
  364. Count of elements                        : 1261
  365. Stream size                              : 74.2 KiB (0%)
  366. Title                                    : Romanian
  367. Language                                 : Romanian
  368. Default                                  : No
  369. Forced                                   : No

  370. Text #26
  371. ID                                       : 28
  372. Format                                   : UTF-8
  373. Codec ID                                 : S_TEXT/UTF8
  374. Codec ID/Info                            : UTF-8 Plain Text
  375. Duration                                 : 1 h 28 min
  376. Bit rate                                 : 191 b/s
  377. Count of elements                        : 1555
  378. Stream size                              : 124 KiB (0%)
  379. Title                                    : Russian
  380. Language                                 : Russian
  381. Default                                  : No
  382. Forced                                   : No

  383. Text #27
  384. ID                                       : 29
  385. Format                                   : UTF-8
  386. Codec ID                                 : S_TEXT/UTF8
  387. Codec ID/Info                            : UTF-8 Plain Text
  388. Duration                                 : 1 h 28 min
  389. Bit rate                                 : 114 b/s
  390. Count of elements                        : 1490
  391. Stream size                              : 74.5 KiB (0%)
  392. Title                                    : Spanish
  393. Language                                 : Spanish
  394. Default                                  : No
  395. Forced                                   : No

  396. Text #28
  397. ID                                       : 30
  398. Format                                   : UTF-8
  399. Codec ID                                 : S_TEXT/UTF8
  400. Codec ID/Info                            : UTF-8 Plain Text
  401. Duration                                 : 1 h 28 min
  402. Bit rate                                 : 109 b/s
  403. Count of elements                        : 1645
  404. Stream size                              : 71.4 KiB (0%)
  405. Title                                    : European Spanish
  406. Language                                 : Spanish
  407. Default                                  : No
  408. Forced                                   : No

  409. Text #29
  410. ID                                       : 31
  411. Format                                   : UTF-8
  412. Codec ID                                 : S_TEXT/UTF8
  413. Codec ID/Info                            : UTF-8 Plain Text
  414. Duration                                 : 1 h 28 min
  415. Bit rate                                 : 97 b/s
  416. Count of elements                        : 1272
  417. Stream size                              : 63.2 KiB (0%)
  418. Title                                    : Swedish
  419. Language                                 : Swedish
  420. Default                                  : No
  421. Forced                                   : No

  422. Text #30
  423. ID                                       : 32
  424. Format                                   : UTF-8
  425. Codec ID                                 : S_TEXT/UTF8
  426. Codec ID/Info                            : UTF-8 Plain Text
  427. Duration                                 : 1 h 28 min
  428. Bit rate                                 : 254 b/s
  429. Count of elements                        : 1582
  430. Stream size                              : 166 KiB (0%)
  431. Title                                    : Thai
  432. Language                                 : Thai
  433. Default                                  : No
  434. Forced                                   : No

  435. Text #31
  436. ID                                       : 33
  437. Format                                   : UTF-8
  438. Codec ID                                 : S_TEXT/UTF8
  439. Codec ID/Info                            : UTF-8 Plain Text
  440. Duration                                 : 1 h 28 min
  441. Bit rate                                 : 108 b/s
  442. Count of elements                        : 1174
  443. Stream size                              : 70.8 KiB (0%)
  444. Title                                    : Turkish
  445. Language                                 : Turkish
  446. Default                                  : No
  447. Forced                                   : No

  448. Text #32
  449. ID                                       : 34
  450. Format                                   : UTF-8
  451. Codec ID                                 : S_TEXT/UTF8
  452. Codec ID/Info                            : UTF-8 Plain Text
  453. Duration                                 : 1 h 28 min
  454. Bit rate                                 : 167 b/s
  455. Count of elements                        : 1611
  456. Stream size                              : 109 KiB (0%)
  457. Title                                    : Ukrainian
  458. Language                                 : Ukrainian
  459. Default                                  : No
  460. Forced                                   : No

  461. Text #33
  462. ID                                       : 35
  463. Format                                   : UTF-8
  464. Codec ID                                 : S_TEXT/UTF8
  465. Codec ID/Info                            : UTF-8 Plain Text
  466. Duration                                 : 1 h 28 min
  467. Bit rate                                 : 156 b/s
  468. Count of elements                        : 1349
  469. Stream size                              : 102 KiB (0%)
  470. Title                                    : Vietnamese
  471. Language                                 : Vietnamese
  472. Default                                  : No
  473. Forced                                   : No


1.jpg (22.43 KB, 下载次数: 0)

下载附件

昨天 17:12 上传

2.jpg (17.99 KB, 下载次数: 0)

下载附件

昨天 17:12 上传

3.jpg (9.67 KB, 下载次数: 0)

下载附件

昨天 17:12 上传




此处一般会放置磁力链或种子下载链接,不过此链接需要注册会员才能看到,点击“立即注册”
磁力链下载【下载链接仅对注册会员开放,登陆后可见】
BT9527电影天堂 1、BT9527电影天堂提供的BT文件均来源于互联网抓取,只供网友学习交流、技术提升使用。
2、我们遵守BitTorrent点对点协议原则,任何版权问题请联系原资源发布商,我们不处理任何版权纠纷,谢谢!如有争议请联系邮箱:BT9527#hotmail.com(#换成@)
3、如果您发现某页面或地址有错误,请联系站长邮箱BT9527#hotmail.com(#换成@),我们会尽快处理。您的热心是对BT9527电影天堂最大的支持。
4、本站建议去正规影院观看电影以支持电影行业发展。
最新回复 (0)

你可以在 登录 or 注册 后,对此帖发表评论!

返回
发新帖