阿尔忒弥斯酒店[简英字幕].Hotel.Artemis.2018.BluRay.2160p.x265.10bit.SDR-MiniHD 20.15GB

版主小s 5月前 197

✔资源类型:BD-4K   ✔电影年份:2018   ✔电影地区:欧美   ✔电影分类:动作

◎译  名 阿尔忒弥斯酒店 / 绝命酒店(港)
◎片  名 Hotel Artemis
◎年  代 2018
◎产  地 美国 / 英国
◎类  别 动作 / 惊悚 / 犯罪
◎语  言 英语
◎上映日期 2018-06-08(美国)
◎IMDb链接 https://www.imdb.com/title/tt5834262/
◎豆瓣评分 5.6/10 (4311人评价)
◎豆瓣链接 https://movie.douban.com/subject/26925532/
◎片  长 94分钟
◎导  演 德鲁·皮尔斯 Drew Pearce (id:1327339)
◎编  剧 德鲁·皮尔斯 Drew Pearce (id:1327339)
◎演  员 朱迪·福斯特 Jodie Foster (id:1031222)
       斯特林·K·布朗 Sterling K. Brown (id:1325589)
       索菲亚·波多拉 Sofia Boutella (id:1199057)
       杰夫·高布伦 Jeff Goldblum (id:1025109)
       布莱恩·泰里·亨利 Brian Tyree Henry (id:1390623)
       珍妮·斯蕾特 Jenny Slate (id:1230973)
       扎克瑞·昆图 Zachary Quinto (id:1041010)
       查理·戴 Charlie Day (id:1004621)
       戴夫·巴蒂斯塔 Dave Bautista (id:1014003)
       肯尼斯·崔 Kenneth Choi (id:1027505)
       乔希·蒂尔曼 Josh Tillman (id:1395295)
       伊万·琼斯 Evan Jones (id:1324018)
       内森·戴维斯 Nathan Davis Jr. (id:1378714)
       拉美西斯·希梅内斯 Ramses Jimenez (id:1180063)
       安吉拉·斯普林克尔 Angela Sprinkle (id:1395294)
       巴尔迪普·辛格 Baldeep Singh (id:1253369)
       布兰顿·莫拉莱斯 Brandon Morales (id:1326005)
       坦纳·吉尔 Tanner Gill (id:1284869)
       桑德拉·罗斯科 Sandra Rosko (id:1394521)
       婕拉尔丁·莫雷诺 Geraldine Moreno (id:1394522)
       Noelle Therese Mulligan Noelle Therese Mulligan (id:1394520)
       布瑞恩·泰里·亨利 Brian Henry Martin (id:1021857)
       梅森·谢伊·乔伊斯 Mason Shea Joyce (id:1466811)
       马克·普拉特 Marc Platt (id:1294606)
       克里夫·马丁内斯 Cliff Martinez (id:1005381)
       丁正勋 Chung-hoon Chung (id:1076638)

◎简  介
  影片由德鲁·皮尔斯执导,朱迪·福斯特主演,戴夫·巴蒂斯塔、索菲亚·波多拉出演。在近未来洛杉矶一家专门为罪犯疗伤的医院,福斯特饰演的护士在工作中偶然发现一名举止怪异的病人,与此同时其他病患却接连死于非命 ...
  1. ##### MediaInfo ######
  2. General
  3. Unique ID                                : 267131674109051787801849129355604374058 (0xC8F7B0640391389FF389E1E0E9EBB22A)
  4. Complete name                            : Hotel.Artemis.2018.BluRay.2160p.x265.10bit.SDR-MiniHD.mkv
  5. Format                                   : Matroska
  6. Format version                           : Version 4
  7. File size                                : 20.1 GiB
  8. Duration                                 : 1 h 33 min
  9. Overall bit rate mode                    : Variable
  10. Overall bit rate                         : 30.8 Mb/s
  11. Encoded date                             : UTC 2018-10-10 14:38:39
  12. Writing application                      : mkvmerge v20.0.0 ('I Am The Sun') 64-bit
  13. Writing library                          : libebml v1.3.5 + libmatroska v1.4.8
  14. Video
  15. ID                                       : 1
  16. Format                                   : HEVC
  17. Format/Info                              : High Efficiency Video Coding
  18. Format profile                           : Main 10@L5@Main
  19. Codec ID                                 : V_MPEGH/ISO/HEVC
  20. Duration                                 : 1 h 33 min
  21. Bit rate                                 : 27.1 Mb/s
  22. Width                                    : 3 840 pixels
  23. Height                                   : 1 600 pixels
  24. Display aspect ratio                     : 2.40:1
  25. Frame rate mode                          : Constant
  26. Frame rate                               : 23.976 (24000/1001/53354) FPS
  27. Color space                              : YUV
  28. Chroma subsampling                       : 4:2:0
  29. Bit depth                                : 10 bits
  30. Bits/(Pixel*Frame)                       : 0.184
  31. Stream size                              : 17.8 GiB (88%)
  32. Writing library                          : x265 2.8+4-g0ad419482+18:[Windows][GCC 7.1.0][64 bit] Yuuki 10bit
  33. Encoding settings                        : rc=crf / crf=19.0000 / qcomp=0.70 / qpstep=4 / aq-mode=3 / aq-strength=0.90 / cbqpoffs=-2 / crqpoffs=-2 / ipratio=1.40 / pbratio=1.30 / psy-rd=0.00 / psy-rdoq=5.00 / deblock=-1:-1 / ref=5 / bframes=9 / b-adapt=2 / bframe-bias=0 / b-pyramid / b-intra / weightp / weightb / min-keyint=1 / max-keyint=360 / rc-lookahead=60 / gop-lookahead=0 / NTMzNTQ=uuDQuD2mJt9fsCf / scenecut=40 / radl=0 / max-cu-size=32 / min-cu-size=8 / me=3 / subme=5 / merange=25 / rdoq-level=1 / rd=4 / rdpenalty=1 / ----- / cutree / no-sao / rect / no-amp / no-open-gop / wpp / no-pmode / no-pme / no-psnr / no-ssim / nr-intra=0 / nr-inter=0 / no-constrained-intra / no-strong-intra-smoothing / max-tu-size=16 / tu-inter-depth=2 / tu-intra-depth=2 / limit-tu=4 / qg-size=16 / qpmax=69 / qpmin=0 / ----- / cpuid=533541111039 / frame-threads=5 / numa-pools=84,- / log-level=2 / input-csp=1 / input-res=3840x1600 / interlace=0 / level-idc=0 / high-tier=1 / uhd-bd=0 / no-allow-non-conformance / no-repeat-headers / no-aud / no-hrd / info / hash=0 / no-temporal-layers / lookahead-slices=4 / no-intra-refresh / dynamic-rd=0.00 / ssim-rd / signhide / no-tskip / max-merge=3 / limit-refs=2 / limit-modes / temporal-mvp / no-analyze-src-pics / no-sao-non-deblock / no-early-skip / rskip / no-fast-intra / no-tskip-fast / no-cu-lossless / no-splitrd-skip / no-rd-refine / no-lossless / zone-count=0 / no-strict-cbr / no-rc-grain / no-const-vbv / sar=0 / overscan=0 / videoformat=5 / range=0 / colorprim=1 / transfer=2 / colormatrix=2 / chromaloc=0 / display-window=0 / max-cll=0,0 / min-luma=0 / max-luma=1023 / log2-max-poc-lsb=8 / vui-timing-info / vui-hrd-info / slices=1 / no-opt-qp-pps / no-opt-ref-list-length-pps / no-multi-pass-opt-rps / scenecut-bias=0.05 / no-opt-cu-delta-qp / no-aq-motion / no-hdr / no-hdr-opt / no-dhdr10-opt / no-idr-recovery-sei / analysis-reuse-level=5 / scale-factor=0 / refine-intra=0 / refine-inter=0 / refine-mv=0 / no-limit-sao / ctu-info=0 / no-lowpass-dct / refine-mv-type=0 / copy-pic=1 / max-ausize-factor=1.0 / no-dynamic-refine / no-single-sei
  34. Default                                  : Yes
  35. Forced                                   : No
  36. Color range                              : Limited
  37. Color primaries                          : BT.709
  38. Audio
  39. ID                                       : 2
  40. Format                                   : DTS XLL
  41. Format/Info                              : Digital Theater Systems
  42. Commercial name                          : DTS-HD Master Audio
  43. Codec ID                                 : A_DTS
  44. Duration                                 : 1 h 33 min
  45. Bit rate mode                            : Variable
  46. Bit rate                                 : 3 588 kb/s
  47. Channel(s)                               : 6 channels
  48. Channel layout                           : C L R Ls Rs LFE
  49. Sampling rate                            : 48.0 kHz
  50. Frame rate                               : 93.750 FPS (512 SPF)
  51. Bit depth                                : 24 bits
  52. Compression mode                         : Lossless
  53. Stream size                              : 2.35 GiB (12%)
  54. Title                                    : 英语DTSHD
  55. Language                                 : English
  56. Default                                  : Yes
  57. Forced                                   : No
  58. Text #1
  59. ID                                       : 3
  60. Format                                   : PGS
  61. Muxing mode                              : zlib
  62. Codec ID                                 : S_HDMV/PGS
  63. Codec ID/Info                            : Picture based subtitle format used on BDs/HD-DVDs
  64. Duration                                 : 1 h 26 min
  65. Bit rate                                 : 22.6 kb/s
  66. Count of elements                        : 1946
  67. Stream size                              : 13.9 MiB (0%)
  68. Title                                    : 简体中文
  69. Language                                 : Chinese
  70. Default                                  : Yes
  71. Forced                                   : No
  72. Text #2
  73. ID                                       : 4
  74. Format                                   : PGS
  75. Muxing mode                              : zlib
  76. Codec ID                                 : S_HDMV/PGS
  77. Codec ID/Info                            : Picture based subtitle format used on BDs/HD-DVDs
  78. Duration                                 : 1 h 33 min
  79. Bit rate                                 : 52.5 kb/s
  80. Count of elements                        : 3356
  81. Stream size                              : 35.2 MiB (0%)
  82. Title                                    : 英文
  83. Language                                 : English
  84. Default                                  : No
  85. Forced                                   : No
  86. Menu
  87. 00:00:00.000                             : en:00:00:00.000
  88. 00:05:06.973                             : en:00:05:06.973
  89. 00:10:57.531                             : en:00:10:57.531
  90. 00:14:11.350                             : en:00:14:11.350
  91. 00:17:47.649                             : en:00:17:47.649
  92. 00:21:08.225                             : en:00:21:08.225
  93. 00:25:43.458                             : en:00:25:43.458
  94. 00:28:17.695                             : en:00:28:17.695
  95. 00:31:27.176                             : en:00:31:27.176
  96. 00:34:46.417                             : en:00:34:46.417
  97. 00:39:28.365                             : en:00:39:28.365
  98. 00:44:38.675                             : en:00:44:38.675
  99. 00:46:38.879                             : en:00:46:38.879
  100. 00:50:12.092                             : en:00:50:12.092
  101. 00:54:21.257                             : en:00:54:21.257
  102. 00:58:11.821                             : en:00:58:11.821
  103. 01:01:28.684                             : en:01:01:28.684
  104. 01:04:28.030                             : en:01:04:28.030
  105. 01:08:04.580                             : en:01:08:04.580
  106. 01:10:50.079                             : en:01:10:50.079
  107. 01:14:22.040                             : en:01:14:22.040
  108. 01:17:16.715                             : en:01:17:16.715
  109. 01:22:06.921                             : en:01:22:06.921
  110. 01:25:17.112                             : en:01:25:17.112
  111. 01:29:52.386                             : en:01:29:52.386





此处一般会放置磁力链或种子下载链接,不过此链接需要注册会员才能看到,点击“立即注册”
磁力链下载【下载链接仅对注册会员开放,登陆后可见】
BT9527电影天堂 1、BT9527电影天堂提供的BT文件均来源于互联网抓取,只供网友学习交流、技术提升使用。
2、我们遵守BitTorrent点对点协议原则,任何版权问题请联系原资源发布商,我们不处理任何版权纠纷,谢谢!如有争议请联系邮箱:BT9527#hotmail.com(#换成@)
3、如果您发现某页面或地址有错误,请联系站长邮箱BT9527#hotmail.com(#换成@),我们会尽快处理。您的热心是对BT9527电影天堂最大的支持。
4、本站建议去正规影院观看电影以支持电影行业发展。
最新回复 (0)

你可以在 登录 or 注册 后,对此帖发表评论!

返回
发新帖