超能陆战队[国粤英多音轨/简英字幕].Big.Hero.6.2014.BluRay.2160p.x265.10bit.HDR.5Audio-MiniHD 15.38GB

版主小s 5月前 201

✔资源类型:BD-4K   ✔电影年份:2014   ✔电影地区:欧美   ✔电影分类:喜剧

◎译  名 超能陆战队 / 大英雄联盟(港) / 大英雄天团(台) / 六大英雄 / (●—●)
◎片  名 Big Hero 6
◎年  代 2014
◎产  地 美国
◎类  别 喜剧 / 动作 / 科幻 / 动画 / 冒险
◎语  言 英语
◎上映日期 2015-02-28(中国大陆) / 2020-07-31(中国大陆重映) / 2014-10-23(东京电影节) / 2014-11-07(美国)
◎IMDb链接 https://www.imdb.com/title/tt2245084/
◎豆瓣评分 8.7/10 (923877人评价)
◎豆瓣链接 https://movie.douban.com/subject/11026735/
◎片  长 102分钟
◎导  演 唐·霍尔 Don Hall (id:1310636)
       克里斯·威廉姆斯 Chris Williams (id:1300949)
◎编  剧 乔丹·罗伯茨 Jordan Roberts (id:1307023)
       丹尼尔·吉尔森 Daniel Gerson (id:1284753)
       罗伯特·L·贝尔德 Robert L. Baird (id:1277721)
       史提芬·T·西格尔 Steven T. Seagle (id:1341048)
       邓肯·鲁洛 Duncan Rouleau (id:1341049)
       乔·凯利 Joe Kelly (id:1372997)
       唐·霍尔 Don Hall (id:1310636)
       乔·凯西 Joe Casey (id:1372998)
◎演  员 斯科特·安第斯 Scott Adsit (id:1058140)
       瑞恩·波特 Ryan Potter (id:1341962)
       丹尼尔·海尼 Daniel Henney (id:1036460)
       T·J·米勒 T.J. Miller (id:1248294)
       郑智麟 Jamie Chung (id:1000068)
       小达蒙·韦恩斯 Damon Wayans Jr. (id:1312985)
       珍尼希斯·罗德里格兹 Genesis Rodriguez (id:1171207)
       詹姆斯·克伦威尔 James Cromwell (id:1006992)
       艾伦·图代克 Alan Tudyk (id:1031855)
       玛娅·鲁道夫 Maya Rudolph (id:1025183)
       亚布拉哈姆·本鲁比 Abraham Benrubi (id:1027238)
       凯蒂·洛斯 Katie Lowes (id:1334839)
       比利·布什 Billy Bush (id:1027495)
       丹尼尔·吉尔森 Daniel Gerson (id:1284753)
       保罗·布里格斯 Paul Briggs (id:1344524)
       菅野美穗 Miho Kanno (id:1023474)
       乔西·特立尼达 Josie Trinidad (id:1359015)
       查尔斯·阿德勒 Charles Adler (id:1027913)
       郝祥海 Xianghai Hao (id:1340968)
       斯坦·李 Stan Lee (id:1013888)
       Dan Howell Dan Howell (id:1378916)
       大卫·肖内西 David Shaughnessy (id:1297352)
       夏洛特·古列齐 Charlotte Gulezian (id:1344525)
       克里斯蒂娜·里德 Kristina Reed (id:1388232)
       亨利·杰克曼 Henry Jackman (id:1315635)
       蒂姆·梅尔滕斯 Tim Mertens (id:1365893)
       保罗·布里格斯 Paul Briggs (id:1344524)
       保罗·A·费利克斯 Paul A. Felix (id:1283549)
       乔什·斯莱斯 Josh Slice (id:1389651)
       安德鲁·查斯沃斯 Andrew Chesworth (id:1392623)
       巴比·庞迪亚斯 Bobby Pontillas (id:1392625)
       张少甫 Shaofu Zhang (id:1392656)

◎简  介
  未来世界的超级都市旧京山(San Fransokyo),热爱发明创造的天才少年小宏,在哥哥泰迪的鼓励下参加了罗伯特·卡拉汉教授主持的理工学院机器人专业的入学大赛。他凭借神奇的微型磁力机器人赢得观众、参赛者以及考官的一致好评,谁知突如其来的灾难却将小宏的梦想和人生毁于一旦。大火烧毁了展示会场,而哥哥为了救出受困的卡拉汉教授命丧火场。身心饱受创伤的小宏闭门不出,哥哥生前留下的治疗型机器人大白则成为安慰他的唯一伙伴。原以为微型机器人也毁于火灾,谁知小宏和大白竟意外发现有人在某座废弃工厂内大批量地生产他的发明。                                    
                                稍后哥哥的朋友们弗雷德等人也加入进来,他们穿上小宏发明的超级战士战斗装备,和怀有险恶阴谋的神秘对手展开较量……

◎获奖情况 (共14项)
  第87届奥斯卡金像奖 (2015)
  最佳动画长片

  第72届金球奖 (2015)
  电影类 最佳动画长片(提名)

  第42届动画安妮奖 (2015)
  最佳动画长片(提名)
  最佳导演(提名)
  最佳编剧(提名)
  最佳剪辑(提名)
  最佳分镜(提名)
  最佳角色设计(提名)
  最佳动画效果

  第13届华盛顿影评人协会奖 (2014)
  最佳动画片(提名)

  第27届芝加哥影评人协会奖 (2014)
  最佳动画片(提名)

  第18届美国在线影评人协会奖 (2014)
  最佳动画片(提名)

  第2届豆瓣电影年度榜单 (2015)
  2月最受关注电影(提名)

  第5届豆瓣电影鑫像奖 (2015)
  鑫豆单元 最佳动画长片

  1. ##### MediaInfo ######
  2. General
  3. Unique ID                                : 143949841360486768030345148754332597716 (0x6C4BBB2297C69A7C8C1C3EF44461BDD4)
  4. Complete name                            : Big.Hero.6.2014.BluRay.2160p.x265.10bit.HDR.5Audio-MiniHD.mkv
  5. Format                                   : Matroska
  6. Format version                           : Version 4
  7. File size                                : 15.4 GiB
  8. Duration                                 : 1 h 41 min
  9. Overall bit rate mode                    : Variable
  10. Overall bit rate                         : 21.6 Mb/s
  11. Encoded date                             : UTC 2019-12-05 12:31:36
  12. Writing application                      : mkvmerge v20.0.0 ('I Am The Sun') 64-bit
  13. Writing library                          : libebml v1.3.5 + libmatroska v1.4.8
  14. Video
  15. ID                                       : 1
  16. Format                                   : HEVC
  17. Format/Info                              : High Efficiency Video Coding
  18. Format profile                           : Main 10@L5.1@High
  19. HDR format                               : SMPTE ST 2086, HDR10 compatible
  20. Codec ID                                 : V_MPEGH/ISO/HEVC
  21. Duration                                 : 1 h 41 min
  22. Bit rate                                 : 11.4 Mb/s
  23. Width                                    : 3 840 pixels
  24. Height                                   : 1 608 pixels
  25. Display aspect ratio                     : 2.40:1
  26. Frame rate mode                          : Constant
  27. Frame rate                               : 23.976 (24000/1001/53354) FPS
  28. Color space                              : YUV
  29. Chroma subsampling                       : 4:2:0
  30. Bit depth                                : 10 bits
  31. Bits/(Pixel*Frame)                       : 0.077
  32. Stream size                              : 8.14 GiB (53%)
  33. Writing library                          : x265 3.1+2-g764455672+26:[Windows][+Erg`Djh+][Yuuki ] made by @Dongfangbubai
  34. Encoding settings                        : rc=crf / crf=18.0000 / qcomp=0.70 / qpstep=4 / stats-write=0 / stats-read=0 / vbv-maxrate=160000 / vbv-bufsize=160000 / vbv-init=0.9 / crf-max=0.0 / crf-min=0.0 / no-lossless / no-cu-lossless / aq-mode=1 / aq-strength=0.80 / cbqpoffs=-3 / crqpoffs=-3 / ipratio=1.40 / pbratio=1.30 / psy-rd=2.00 / psy-rdoq=3.00 / deblock=-1:-1 / ref=5 / limit-refs=0 / no-limit-modes / bframes=8 / b-adapt=2 / bframe-bias=0 / b-pyramid / b-intra / weightp / weightb / min-keyint=23 / max-keyint=240 / rc-lookahead=60 / gop-lookahead=0 / NTMzNTQ=uuDQuD2mJt9fsCf / scenecut=40 / radl=0 / max-cu-size=32 / min-cu-size=8 / me=3 / subme=4 / merange=25 / rdoq-level=2 / rd=4 / rdpenalty=1 / dynamic-rd=0.00 / no-rd-refine / ----- / no-cutree / no-sao / no-rect / no-amp / no-open-gop / wpp / pmode / pme / no-psnr / no-ssim / nr-intra=0 / nr-inter=0 / no-constrained-intra / no-strong-intra-smoothing / max-tu-size=32 / tu-inter-depth=2 / tu-intra-depth=2 / limit-tu=0 / qg-size=32 / qpmax=69 / qpmin=0 / ----- / cpuid=533541111039 / frame-threads=6 / numa-pools=54,- / log-level=2 / input-csp=1 / input-res=3840x1608 / interlace=0 / level-idc=0 / high-tier=1 / uhd-bd=0 / no-allow-non-conformance / no-repeat-headers / no-aud / hrd / info / hash=0 / no-temporal-layers / lookahead-slices=0 / no-splice / no-intra-refresh / no-ssim-rd / signhide / no-tskip / max-merge=3 / temporal-mvp / no-analyze-src-pics / no-sao-non-deblock / no-early-skip / no-rskip / no-fast-intra / no-tskip-fast / no-splitrd-skip / zone-count=0 / no-strict-cbr / no-rc-grain / no-const-vbv / sar=0 / overscan=0 / videoformat=5 / range=0 / colorprim=9 / transfer=16 / colormatrix=9 / chromaloc=0 / display-window=0 / master-display=G(13250,34500)B(7500,3000)R(34000,16000)WP(15635,16450)L(10000000,1)cll=0,0 / min-luma=0 / max-luma=1023 / log2-max-poc-lsb=8 / vui-timing-info / vui-hrd-info / slices=1 / no-opt-qp-pps / no-opt-ref-list-length-pps / no-multi-pass-opt-rps / scenecut-bias=0.05 / no-opt-cu-delta-qp / no-aq-motion / hdr / hdr-opt / no-dhdr10-opt / no-idr-recovery-sei / analysis-reuse-level=5 / scale-factor=0 / refine-intra=0 / refine-inter=0 / refine-mv=0 / refine-ctu-distortion=0 / no-limit-sao / ctu-info=0 / no-lowpass-dct / refine-analysis-type=0 / copy-pic=1 / max-ausize-factor=1.0 / no-dynamic-refine / no-single-sei / no-hevc-aq / no-svt / no-field / qp-adaptation-range=1.00
  35. Default                                  : Yes
  36. Forced                                   : No
  37. Color range                              : Limited
  38. Color primaries                          : BT.2020
  39. Transfer characteristics                 : PQ
  40. Matrix coefficients                      : BT.2020 non-constant
  41. Mastering display color primaries        : Display P3
  42. Mastering display luminance              : min: 0.0001 cd/m2, max: 1000 cd/m2
  43. Audio #1
  44. ID                                       : 2
  45. Format                                   : MLP FBA 16-ch
  46. Format/Info                              : Meridian Lossless Packing FBA with 16-channel presentation
  47. Commercial name                          : Dolby TrueHD with Dolby Atmos
  48. Codec ID                                 : A_TRUEHD
  49. Duration                                 : 1 h 41 min
  50. Bit rate mode                            : Variable
  51. Bit rate                                 : 7 470 kb/s
  52. Maximum bit rate                         : 11.2 Mb/s
  53. Channel(s)                               : 8 channels
  54. Channel layout                           : L R C LFE Ls Rs Lb Rb
  55. Sampling rate                            : 48.0 kHz
  56. Frame rate                               : 1 200.000 FPS (40 SPF)
  57. Compression mode                         : Lossless
  58. Stream size                              : 5.32 GiB (35%)
  59. Title                                    : 英语 Atmos
  60. Language                                 : English
  61. Default                                  : Yes
  62. Forced                                   : No
  63. Number of dynamic objects                : 13
  64. Bed channel count                        : 1 channel
  65. Bed channel configuration                : LFE
  66. Audio #2
  67. ID                                       : 3
  68. Format                                   : AC-3
  69. Format/Info                              : Audio Coding 3
  70. Commercial name                          : Dolby Digital
  71. Codec ID                                 : A_AC3
  72. Duration                                 : 1 h 41 min
  73. Bit rate mode                            : Constant
  74. Bit rate                                 : 640 kb/s
  75. Channel(s)                               : 6 channels
  76. Channel layout                           : L R C LFE Ls Rs
  77. Sampling rate                            : 48.0 kHz
  78. Frame rate                               : 31.250 FPS (1536 SPF)
  79. Compression mode                         : Lossy
  80. Stream size                              : 466 MiB (3%)
  81. Title                                    : 英语AC-3
  82. Language                                 : English
  83. Service kind                             : Complete Main
  84. Default                                  : No
  85. Forced                                   : No
  86. Audio #3
  87. ID                                       : 4
  88. Format                                   : AC-3
  89. Format/Info                              : Audio Coding 3
  90. Commercial name                          : Dolby Digital
  91. Codec ID                                 : A_AC3
  92. Duration                                 : 1 h 41 min
  93. Bit rate mode                            : Constant
  94. Bit rate                                 : 640 kb/s
  95. Channel(s)                               : 6 channels
  96. Channel layout                           : L R C LFE Ls Rs
  97. Sampling rate                            : 48.0 kHz
  98. Frame rate                               : 31.250 FPS (1536 SPF)
  99. Compression mode                         : Lossy
  100. Stream size                              : 466 MiB (3%)
  101. Title                                    : 八一国语
  102. Language                                 : Chinese
  103. Service kind                             : Complete Main
  104. Default                                  : No
  105. Forced                                   : No
  106. Audio #4
  107. ID                                       : 5
  108. Format                                   : AC-3
  109. Format/Info                              : Audio Coding 3
  110. Commercial name                          : Dolby Digital
  111. Codec ID                                 : A_AC3
  112. Duration                                 : 1 h 41 min
  113. Bit rate mode                            : Constant
  114. Bit rate                                 : 640 kb/s
  115. Channel(s)                               : 6 channels
  116. Channel layout                           : L R C LFE Ls Rs
  117. Sampling rate                            : 48.0 kHz
  118. Frame rate                               : 31.250 FPS (1536 SPF)
  119. Compression mode                         : Lossy
  120. Stream size                              : 466 MiB (3%)
  121. Title                                    : 台配国语
  122. Language                                 : Chinese
  123. Service kind                             : Complete Main
  124. Default                                  : No
  125. Forced                                   : No
  126. Audio #5
  127. ID                                       : 6
  128. Format                                   : AC-3
  129. Format/Info                              : Audio Coding 3
  130. Commercial name                          : Dolby Digital
  131. Codec ID                                 : A_AC3
  132. Duration                                 : 1 h 41 min
  133. Bit rate mode                            : Constant
  134. Bit rate                                 : 640 kb/s
  135. Channel(s)                               : 6 channels
  136. Channel layout                           : L R C LFE Ls Rs
  137. Sampling rate                            : 48.0 kHz
  138. Frame rate                               : 31.250 FPS (1536 SPF)
  139. Compression mode                         : Lossy
  140. Stream size                              : 466 MiB (3%)
  141. Title                                    : 粤语
  142. Language                                 : Chinese
  143. Service kind                             : Complete Main
  144. Default                                  : No
  145. Forced                                   : No
  146. Text #1
  147. ID                                       : 7
  148. Format                                   : PGS
  149. Muxing mode                              : zlib
  150. Codec ID                                 : S_HDMV/PGS
  151. Codec ID/Info                            : Picture based subtitle format used on BDs/HD-DVDs
  152. Duration                                 : 1 h 39 min
  153. Bit rate                                 : 30.7 kb/s
  154. Count of elements                        : 2650
  155. Stream size                              : 21.9 MiB (0%)
  156. Language                                 : English
  157. Default                                  : Yes
  158. Forced                                   : No
  159. Text #2
  160. ID                                       : 8
  161. Format                                   : PGS
  162. Muxing mode                              : zlib
  163. Codec ID                                 : S_HDMV/PGS
  164. Codec ID/Info                            : Picture based subtitle format used on BDs/HD-DVDs
  165. Duration                                 : 1 h 40 min
  166. Bit rate                                 : 15.0 kb/s
  167. Count of elements                        : 2337
  168. Stream size                              : 10.8 MiB (0%)
  169. Title                                    : 八一简中
  170. Language                                 : Chinese
  171. Default                                  : No
  172. Forced                                   : No
  173. Text #3
  174. ID                                       : 9
  175. Format                                   : PGS
  176. Muxing mode                              : zlib
  177. Codec ID                                 : S_HDMV/PGS
  178. Codec ID/Info                            : Picture based subtitle format used on BDs/HD-DVDs
  179. Duration                                 : 1 h 40 min
  180. Bit rate                                 : 21.6 kb/s
  181. Count of elements                        : 2410
  182. Stream size                              : 15.5 MiB (0%)
  183. Title                                    : 台配简中
  184. Language                                 : Chinese
  185. Default                                  : No
  186. Forced                                   : No
  187. Text #4
  188. ID                                       : 10
  189. Format                                   : PGS
  190. Muxing mode                              : zlib
  191. Codec ID                                 : S_HDMV/PGS
  192. Codec ID/Info                            : Picture based subtitle format used on BDs/HD-DVDs
  193. Duration                                 : 1 h 40 min
  194. Bit rate                                 : 34.2 kb/s
  195. Count of elements                        : 2864
  196. Stream size                              : 24.5 MiB (0%)
  197. Title                                    : 简中
  198. Language                                 : Chinese
  199. Default                                  : No
  200. Forced                                   : No
  201. Text #5
  202. ID                                       : 11
  203. Format                                   : PGS
  204. Muxing mode                              : zlib
  205. Codec ID                                 : S_HDMV/PGS
  206. Codec ID/Info                            : Picture based subtitle format used on BDs/HD-DVDs
  207. Duration                                 : 1 h 40 min
  208. Bit rate                                 : 53.0 kb/s
  209. Count of elements                        : 2866
  210. Stream size                              : 38.0 MiB (0%)
  211. Title                                    : 简英
  212. Language                                 : Chinese
  213. Default                                  : No
  214. Forced                                   : No
  215. Menu
  216. 00:00:00.000                             : en:Chapter 01
  217. 00:07:15.685                             : en:Chapter 02
  218. 00:14:37.835                             : en:Chapter 03
  219. 00:21:49.182                             : en:Chapter 04
  220. 00:24:32.888                             : en:Chapter 05
  221. 00:29:34.731                             : en:Chapter 06
  222. 00:36:58.090                             : en:Chapter 07
  223. 00:44:18.322                             : en:Chapter 08
  224. 00:50:49.087                             : en:Chapter 09
  225. 00:54:33.019                             : en:Chapter 10
  226. 01:00:44.140                             : en:Chapter 11
  227. 01:07:12.611                             : en:Chapter 12
  228. 01:11:54.643                             : en:Chapter 13
  229. 01:16:26.665                             : en:Chapter 14
  230. 01:24:44.162                             : en:Chapter 15
  231. 01:31:52.757                             : en:Chapter 16





此处一般会放置磁力链或种子下载链接,不过此链接需要注册会员才能看到,点击“立即注册”
磁力链下载【下载链接仅对注册会员开放,登陆后可见】
BT9527电影天堂 1、BT9527电影天堂提供的BT文件均来源于互联网抓取,只供网友学习交流、技术提升使用。
2、我们遵守BitTorrent点对点协议原则,任何版权问题请联系原资源发布商,我们不处理任何版权纠纷,谢谢!如有争议请联系邮箱:BT9527#hotmail.com(#换成@)
3、如果您发现某页面或地址有错误,请联系站长邮箱BT9527#hotmail.com(#换成@),我们会尽快处理。您的热心是对BT9527电影天堂最大的支持。
4、本站建议去正规影院观看电影以支持电影行业发展。
最新回复 (0)

你可以在 登录 or 注册 后,对此帖发表评论!

返回
发新帖