血色将至[国英多音轨/中英字幕].There.Will.Be.Blood.2007.BluRay.1080p.x265.10bit.2Audio-MiniHD 8.83GB

版主小s 5月前 179

✔资源类型:暂未分类   ✔电影年份:2007   ✔电影地区:欧美   ✔电影分类:剧情

◎译  名 血色将至 / 黑金企业(台) / 未血绸缪 / 血色黑金 / 黑金风云
◎片  名 There Will Be Blood
◎年  代 2007
◎产  地 美国
◎类  别 剧情
◎语  言 英语 / 美国手语
◎上映日期 2007-09-27(奇幻电影节) / 2008-01-25(美国)
◎IMDb链接 https://www.imdb.com/title/tt0469494/
◎豆瓣评分 8.4/10 (69378人评价)
◎豆瓣链接 https://movie.douban.com/subject/1945780/
◎片  长 158 分钟
◎导  演 保罗·托马斯·安德森 Paul Thomas Anderson (id:1054388)
◎编  剧 保罗·托马斯·安德森 Paul Thomas Anderson (id:1054388)
       厄普顿·辛克莱 Upton Sinclair (id:1050133)
◎演  员 丹尼尔·戴-刘易斯 Daniel Day-Lewis (id:1056177)
       巴里·德尔·舍曼 Barry Del Sherman (id:1082821)
       保罗·F·汤普金斯 Paul F. Tompkins (id:1049854)
       狄龙·弗雷泽尔 Dillon Freasier (id:1311881)
       凯文·布雷斯纳汉 Kevin Breznahan (id:1068814)
       吉姆·麦司奇门 Jim Meskimen (id:1055696)
       Randall Carver Randall Carver (id:1074503)
       保罗·达诺 Paul Dano (id:1027774)
       塞伦·希德 Ciarán Hinds (id:1004586)
       詹姆斯·唐尼 James Downey (id:1282680)
       凯文·J·奥康纳 Kevin J. O'Connor (id:1040598)
       大卫·沃肖夫斯基 David Warshofsky (id:1032209)
       Tom Doyle Tom Doyle (id:1250373)
       汉斯·霍斯 Hans Howes (id:1094036)
       科琳·福伊 Colleen Foy (id:1421939)
       拉塞尔·哈瓦尔德 Russell Harvard (id:1233892)
       Guy Richardson Guy Richardson (id:1163622)
       乔安妮·塞拉尔 JoAnne Sellar (id:1297179)
       保罗·托马斯·安德森 Paul Thomas Anderson (id:1054388)
       丹尼尔·卢皮 Daniel Lupi (id:1290484)
       强尼·格林伍德 Jonny Greenwood (id:1041462)
       罗伯特·艾斯威特 Robert Elswit (id:1048280)
       迪伦·蒂奇纳 Dylan Tichenor (id:1299252)
       杰克·菲斯克 Jack Fisk (id:1036807)
       大卫·格兰克 David Crank (id:1281444)
       吉姆·埃里克森 Jim Erickson (id:1303143)
       马克·布里奇斯 Mark Bridges (id:1279295)
       Linda D. Flowers Linda D. Flowers (id:1283887)
       约翰·布雷克 John Blake (id:1278750)
       Jeff Habberstad Jeff Habberstad (id:1285749)
       Adam Watkins Adam Watkins (id:1308602)
       格拉迪·科菲 Grady Cofer (id:1280960)
       罗伯特·斯特罗姆伯格 Robert Stromberg (id:1298560)
       Chad Taylor Chad Taylor (id:1298971)
       Paul Graff Paul Graff (id:1306925)
       理查德·金 Richard King (id:1288602)

◎简  介
  1898年,银矿工丹尼尔·普莱恩惟尤(丹尼尔·戴·刘易斯 Daniel Day Lewis 饰)因井下作业事故摔断了腿,但他因祸得福了解到秘密的石油信息。他利用领养的孤儿HW(狄龙·弗雷泽尔 Dillon Freasier 饰)欺骗乡民赢得了石油地盘,从此飞黄腾达。但是, 成为 石油大亨的他并不快乐,在一次意外事故中H.W不幸失聪, HW对他的怨恨与日俱增,他唯一认亲的兄弟居然也是冒牌货。传教士伊莱·桑迪不过是个借宗教蛊惑人心的小人。在一次采矿事故中,丹尼尔的工人不幸丧生。正当他希望伊莱(保罗·达诺 Paul Dano 饰)施以援手时,对方羞辱了他,两人从此开始明争暗斗……

◎获奖情况 (共23项)
  第80届奥斯卡金像奖 (2008)
  最佳影片(提名)
  最佳导演(提名)
   └──保罗·托马斯·安德森 (id:1054388)
  最佳男主角
   └──丹尼尔·戴-刘易斯 (id:1056177)
  最佳改编剧本(提名)
   └──保罗·托马斯·安德森 (id:1054388)
  最佳摄影
   └──罗伯特·艾斯威特 (id:1048280)
  最佳剪辑(提名)
   └──迪伦·蒂奇纳 (id:1299252)
  最佳音效剪辑(提名)
  最佳艺术指导(提名)

  第58届柏林国际电影节 (2008)
  金熊奖 最佳影片(提名)
   └──保罗·托马斯·安德森 (id:1054388)
  银熊奖 最佳导演
   └──保罗·托马斯·安德森 (id:1054388)
  银熊奖 杰出艺术成就奖
   └──强尼·格林伍德 (id:1041462)

  第65届金球奖 (2008)
  电影类 最佳剧情片(提名)
  电影类 剧情片最佳男主角
   └──丹尼尔·戴-刘易斯 (id:1056177)

  第61届英国电影学院奖 (2008)
  电影奖 最佳影片(提名)
  电影奖 最佳导演(提名)
   └──保罗·托马斯·安德森 (id:1054388)
  电影奖 最佳男主角
   └──丹尼尔·戴-刘易斯 (id:1056177)
  电影奖 最佳男配角(提名)
   └──保罗·达诺 (id:1027774)
  电影奖 最佳改编剧本(提名)
   └──保罗·托马斯·安德森 (id:1054388)
  电影奖 最佳摄影(提名)
   └──罗伯特·艾斯威特 (id:1048280)
  电影奖 最佳艺术指导(提名)
  电影奖 最佳原创音乐(提名)
   └──强尼·格林伍德 (id:1041462)
  电影奖 最佳音效(提名)

  第8届美国电影学会奖 (2007)
  年度佳片

  1. ##### MediaInfo ######
  2. General
  3. Unique ID                                : 176937639919448170031480036923717383556 (0x851CF32CB6602DF9A9C15CFF609AF584)
  4. Complete name                            : There.Will.Be.Blood.2007.BluRay.1080p.x265.10bit.2Audio-MiniHD.mkv
  5. Format                                   : Matroska
  6. Format version                           : Version 4
  7. File size                                : 8.82 GiB
  8. Duration                                 : 2 h 38 min
  9. Overall bit rate                         : 7 975 kb/s
  10. Encoded date                             : UTC 2017-03-30 12:51:52
  11. Writing application                      : mkvmerge v9.7.1 ('Pandemonium') 64bit
  12. Writing library                          : libebml v1.3.4 + libmatroska v1.4.5
  13. Video
  14. ID                                       : 1
  15. Format                                   : HEVC
  16. Format/Info                              : High Efficiency Video Coding
  17. Format profile                           : Main 10@L4@Main
  18. Codec ID                                 : V_MPEGH/ISO/HEVC
  19. Duration                                 : 2 h 38 min
  20. Bit rate                                 : 7 143 kb/s
  21. Width                                    : 1 920 pixels
  22. Height                                   : 800 pixels
  23. Display aspect ratio                     : 2.40:1
  24. Frame rate mode                          : Constant
  25. Frame rate                               : 23.976 (24000/1001/53354) FPS
  26. Color space                              : YUV
  27. Chroma subsampling                       : 4:2:0
  28. Bit depth                                : 10 bits
  29. Bits/(Pixel*Frame)                       : 0.194
  30. Stream size                              : 7.90 GiB (90%)
  31. Writing library                          : x265 2.3+24-a0eee4b41185:[Windows][GCC 6.3.0][64 bit] 10bit
  32. Encoding settings                        : cpuid=533541173503 / frame-threads=6 / numa-pools=36 / wpp / no-pmode / no-pme / no-psnr / no-ssim / log-level=2 / input-csp=1 / input-res=1920x800 / interlace=0 / total-frames=227910 / level-idc=0 / high-tier=1 / uhd-bd=0 / ref=5 / no-allow-non-conformance / no-repeat-headers / annexb / no-aud / no-hrd / info / hash=0 / no-temporal-layers / no-open-gop / min-keyint=1 / keyint=360 / bframes=8 / b-adapt=2 / b-pyramid / bframe-bias=0 / rc-lookahead=60 / lookahead-slices=4 / NTMzNTQ=uuDQuD2mJt9fsCf / scenecut=40 / no-intra-refresh / ctu=32 / min-cu-size=8 / rect / no-amp / max-tu-size=16 / tu-inter-depth=2 / tu-intra-depth=2 / limit-tu=4 / rdoq-level=2 / dynamic-rd=0.00 / signhide / no-tskip / nr-intra=0 / nr-inter=0 / no-constrained-intra / no-strong-intra-smoothing / max-merge=3 / limit-refs=2 / limit-modes / me=3 / subme=5 / merange=25 / temporal-mvp / weightp / weightb / no-analyze-src-pics / deblock=-1:-1 / no-sao / no-sao-non-deblock / rd=4 / no-early-skip / rskip / no-fast-intra / no-tskip-fast / no-cu-lossless / b-intra / rdpenalty=1 / psy-rd=0.00 / psy-rdoq=5.00 / no-rd-refine / analysis-mode=0 / no-lossless / cbqpoffs=-2 / crqpoffs=-2 / rc=crf / crf=19.0 / qcomp=0.65 / qpstep=4 / stats-write=0 / stats-read=0 / ipratio=1.40 / pbratio=1.30 / aq-mode=2 / aq-strength=0.80 / cutree / zone-count=0 / no-strict-cbr / qg-size=16 / no-rc-grain / qpmax=69 / qpmin=0 / sar=0 / overscan=0 / videoformat=5 / range=0 / colorprim=1 / transfer=2 / colormatrix=2 / chromaloc=0 / display-window=0 / max-cll=0,0 / min-luma=0 / max-luma=1023 / log2-max-poc-lsb=8 / vui-timing-info / vui-hrd-info / slices=1 / opt-qp-pps / opt-ref-list-length-pps / no-multi-pass-opt-rps / scenecut-bias=0.05 / no-opt-cu-delta-qp / no-aq-motion / no-hdr / no-hdr-opt / refine-level=5
  33. Default                                  : Yes
  34. Forced                                   : No
  35. Color range                              : Limited
  36. Color primaries                          : BT.709
  37. Audio #1
  38. ID                                       : 2
  39. Format                                   : AC-3
  40. Format/Info                              : Audio Coding 3
  41. Commercial name                          : Dolby Digital
  42. Codec ID                                 : A_AC3
  43. Duration                                 : 2 h 38 min
  44. Bit rate mode                            : Constant
  45. Bit rate                                 : 640 kb/s
  46. Channel(s)                               : 6 channels
  47. Channel layout                           : L R C LFE Ls Rs
  48. Sampling rate                            : 48.0 kHz
  49. Frame rate                               : 31.250 FPS (1536 SPF)
  50. Compression mode                         : Lossy
  51. Stream size                              : 725 MiB (8%)
  52. Language                                 : English
  53. Service kind                             : Complete Main
  54. Default                                  : Yes
  55. Forced                                   : No
  56. Audio #2
  57. ID                                       : 3
  58. Format                                   : AC-3
  59. Format/Info                              : Audio Coding 3
  60. Commercial name                          : Dolby Digital
  61. Codec ID                                 : A_AC3
  62. Duration                                 : 2 h 38 min
  63. Bit rate mode                            : Constant
  64. Bit rate                                 : 128 kb/s
  65. Channel(s)                               : 2 channels
  66. Channel layout                           : L R
  67. Sampling rate                            : 48.0 kHz
  68. Frame rate                               : 31.250 FPS (1536 SPF)
  69. Compression mode                         : Lossy
  70. Delay relative to video                  : 16 ms
  71. Stream size                              : 145 MiB (2%)
  72. Language                                 : Chinese
  73. Service kind                             : Complete Main
  74. Default                                  : No
  75. Forced                                   : No
  76. Text #1
  77. ID                                       : 4
  78. Format                                   : PGS
  79. Muxing mode                              : zlib
  80. Codec ID                                 : S_HDMV/PGS
  81. Codec ID/Info                            : Picture based subtitle format used on BDs/HD-DVDs
  82. Duration                                 : 2 h 25 min
  83. Bit rate                                 : 7 903 b/s
  84. Count of elements                        : 2608
  85. Stream size                              : 8.25 MiB (0%)
  86. Language                                 : English
  87. Default                                  : Yes
  88. Forced                                   : No
  89. Text #2
  90. ID                                       : 5
  91. Format                                   : PGS
  92. Muxing mode                              : zlib
  93. Codec ID                                 : S_HDMV/PGS
  94. Codec ID/Info                            : Picture based subtitle format used on BDs/HD-DVDs
  95. Duration                                 : 2 h 29 min
  96. Bit rate                                 : 8 514 b/s
  97. Count of elements                        : 2890
  98. Stream size                              : 9.09 MiB (0%)
  99. Language                                 : English
  100. Default                                  : No
  101. Forced                                   : No
  102. Text #3
  103. ID                                       : 6
  104. Format                                   : PGS
  105. Muxing mode                              : zlib
  106. Codec ID                                 : S_HDMV/PGS
  107. Codec ID/Info                            : Picture based subtitle format used on BDs/HD-DVDs
  108. Duration                                 : 2 h 37 min
  109. Bit rate                                 : 10.6 kb/s
  110. Count of elements                        : 2628
  111. Stream size                              : 12.0 MiB (0%)
  112. Language                                 : Chinese
  113. Default                                  : No
  114. Forced                                   : No
  115. Text #4
  116. ID                                       : 7
  117. Format                                   : PGS
  118. Muxing mode                              : zlib
  119. Codec ID                                 : S_HDMV/PGS
  120. Codec ID/Info                            : Picture based subtitle format used on BDs/HD-DVDs
  121. Duration                                 : 2 h 37 min
  122. Bit rate                                 : 21.1 kb/s
  123. Count of elements                        : 2628
  124. Stream size                              : 23.8 MiB (0%)
  125. Language                                 : Chinese
  126. Default                                  : No
  127. Forced                                   : No
  128. Text #5
  129. ID                                       : 8
  130. Format                                   : PGS
  131. Muxing mode                              : zlib
  132. Codec ID                                 : S_HDMV/PGS
  133. Codec ID/Info                            : Picture based subtitle format used on BDs/HD-DVDs
  134. Duration                                 : 2 h 37 min
  135. Bit rate                                 : 14.7 kb/s
  136. Count of elements                        : 2628
  137. Stream size                              : 16.5 MiB (0%)
  138. Language                                 : Chinese
  139. Default                                  : No
  140. Forced                                   : No
  141. Menu
  142. 00:00:00.000                             : en:Chapter 01
  143. 00:14:09.723                             : en:Chapter 02
  144. 00:31:32.056                             : en:Chapter 03
  145. 00:51:53.485                             : en:Chapter 04
  146. 01:11:16.230                             : en:Chapter 05
  147. 01:34:29.455                             : en:Chapter 06
  148. 01:56:58.678                             : en:Chapter 07
  149. 02:18:43.690                             : en:Chapter 08





此处一般会放置磁力链或种子下载链接,不过此链接需要注册会员才能看到,点击“立即注册”
磁力链下载【下载链接仅对注册会员开放,登陆后可见】
BT9527电影天堂 1、BT9527电影天堂提供的BT文件均来源于互联网抓取,只供网友学习交流、技术提升使用。
2、我们遵守BitTorrent点对点协议原则,任何版权问题请联系原资源发布商,我们不处理任何版权纠纷,谢谢!如有争议请联系邮箱:BT9527#hotmail.com(#换成@)
3、如果您发现某页面或地址有错误,请联系站长邮箱BT9527#hotmail.com(#换成@),我们会尽快处理。您的热心是对BT9527电影天堂最大的支持。
4、本站建议去正规影院观看电影以支持电影行业发展。
最新回复 (0)

你可以在 登录 or 注册 后,对此帖发表评论!

返回
发新帖