蝴蝶梦[国英多音轨/中英字幕].Rebecca.1940.BluRay.1080p.x265.10bit.3Audio-MiniHD 7.38GB

版主小s 5月前 226

✔资源类型:暂未分类   ✔电影年份:更 早   ✔电影地区:欧美   ✔电影分类:剧情

◎译  名 蝴蝶梦 / 丽贝卡 / 蝴蝶春梦 / 瑞贝卡
◎片  名 Rebecca
◎年  代 1940
◎产  地 美国
◎类  别 剧情 / 爱情 / 悬疑
◎语  言 英语
◎上映日期 1940-03-21(迈阿密首映) / 1940-04-12(美国)
◎IMDb链接 https://www.imdb.com/title/tt0032976/
◎豆瓣评分 8.3/10 (82458人评价)
◎豆瓣链接 https://movie.douban.com/subject/1293824/
◎片  长 130 分钟
◎导  演 阿尔弗雷德·希区柯克 Alfred Hitchcock (id:1025185)
◎编  剧 达芙妮·杜穆里埃 Daphne Du Maurier (id:1045383)
       罗伯特·E·舍伍德 Robert E. Sherwood (id:1001179)
       琼·哈里森 Joan Harrison (id:1010255)
       菲利普·麦克唐纳 Philip MacDonald (id:1042249)
       迈克尔·霍根 Michael Hogan (id:1054175)
◎演  员 劳伦斯·奥利弗 Laurence Olivier (id:1053557)
       琼·芳登 Joan Fontaine (id:1027882)
       乔治·桑德斯 George Sanders (id:1056113)
       朱迪丝·安德森 Judith Anderson (id:1004943)
       奈杰尔·布鲁斯 Nigel Bruce (id:1007156)
       莱吉纳德·戴尼 Reginald Denny (id:1083307)
       C.奥布雷·史密斯 C. Aubrey Smith (id:1155593)
       格拉黛丝·库珀 Gladys Cooper (id:1036778)
       梅尔维尔·库珀 Melville Cooper (id:1070703)
       里奥.G.卡罗尔 Leo G. Carroll (id:1055079)
       李奥纳多·凯瑞 Leonard Carey (id:1033123)
       爱德华·菲尔丁 Edward Fielding (id:1084855)
       福里斯特·哈维 Forrester Harvey (id:1098019)
       比利·贝文 Billy Bevan (id:1066196)
       埃贡·布雷赫尔 Egon Brecher (id:1078321)
       基诺科拉多 Gino Corrado (id:1074733)
       阿尔弗雷德·希区柯克 Alfred Hitchcock (id:1025185)
       莱兰·霍奇森 Leyland Hodgson (id:1093526)
       威廉·H·奥布莱恩 William H. O'Brien (id:1134700)
       Florence Bates Florence Bates (id:1066961)
       Lumsden Hare Lumsden Hare (id:1091820)
       Alphonse Martell Alphonse Martell (id:1122932)
       Ronald R. Rondell Ronald R. Rondell (id:1148628)
       菲利斯 · 伍德沃德 Phyllis Woodward (id:1161702)
       大卫·O·塞尔兹尼克 David O. Selznick (id:1048274)
       弗朗茨·沃克斯曼 Franz Waxman (id:1016824)

◎简  介
  年轻女子(琼·芳登 Joan Fontaine 饰)初遇曼德利主人德文特(劳伦斯·奥利弗 Laurence Olivier 饰)是在海边的悬崖边上。她以为德文特要跳海自尽,大叫一声,让德文特生气不已。然而,接下来的二人相识继而相知的经历让他们堕入爱河,结为伉俪,女子成为了曼德利庄园的女主人。                                    
                                幸福的生活眼看就要铺开,这个新婚妻子却遭遇到了阴森的“寒流”。她发现这个庄园到处可见德文特前妻丽贝卡的影子,她的名字,在家具留下痕迹,更令新婚妻子不安的是,管家丹佛斯太太,更是念念不忘丽贝卡,对这个新来的主人充满仇恨。就连丈夫德文特,也不愿意解释这一切,仿佛他的内心还有旧情。                                    
                                丽贝卡犹如梦魇般弥漫在曼德利庄园,事情开始变得越来越复杂。

◎获奖情况 (共11项)
  第13届奥斯卡金像奖 (1941)
  最佳影片
  最佳导演(提名)
   └──阿尔弗雷德·希区柯克 (id:1025185)
  最佳男主角(提名)
   └──劳伦斯·奥利弗 (id:1053557)
  最佳女主角(提名)
   └──琼·芳登 (id:1027882)
  最佳女配角(提名)
   └──朱迪丝·安德森 (id:1004943)
  最佳编剧(提名)
  黑白片最佳摄影
   └──乔治·巴恩斯 (id:1065911)
  最佳剪辑(提名)
   └──哈尔·C·克尔恩 (id:1012458)
  最佳特效(提名)
  黑白片最佳艺术指导(提名)
   └──莱尔·R·惠勒 (id:1005785)
  最佳原创配乐(提名)
   └──弗朗茨·沃克斯曼 (id:1016824)

  1. ##### MediaInfo ######
  2. General
  3. Unique ID                                : 234396942667330312958501130338652397723 (0xB0573585FA373266B0F9D1E88AC4209B)
  4. Complete name                            : Rebecca.1940.BluRay.1080p.x265.10bit.3Audio-MiniHD.mkv
  5. Format                                   : Matroska
  6. Format version                           : Version 4
  7. File size                                : 7.37 GiB
  8. Duration                                 : 2 h 10 min
  9. Overall bit rate                         : 8 078 kb/s
  10. Encoded date                             : UTC 2017-08-28 05:43:14
  11. Writing application                      : mkvmerge v11.0.0 ('Alive') 64bit
  12. Writing library                          : libebml v1.3.4 + libmatroska v1.4.5
  13. Video
  14. ID                                       : 1
  15. Format                                   : HEVC
  16. Format/Info                              : High Efficiency Video Coding
  17. Codec ID                                 : V_MPEGH/ISO/HEVC
  18. Duration                                 : 2 h 10 min
  19. Bit rate                                 : 7 372 kb/s
  20. Width                                    : 1 480 pixels
  21. Height                                   : 1 080 pixels
  22. Display aspect ratio                     : 1.370
  23. Frame rate mode                          : Constant
  24. Frame rate                               : 23.976 (24000/1001/53354) FPS
  25. Bits/(Pixel*Frame)                       : 0.192
  26. Stream size                              : 6.73 GiB (91%)
  27. Default                                  : Yes
  28. Forced                                   : No
  29. Audio #1
  30. ID                                       : 2
  31. Format                                   : AC-3
  32. Format/Info                              : Audio Coding 3
  33. Commercial name                          : Dolby Digital
  34. Codec ID                                 : A_AC3
  35. Duration                                 : 2 h 10 min
  36. Bit rate mode                            : Constant
  37. Bit rate                                 : 320 kb/s
  38. Channel(s)                               : 2 channels
  39. Channel layout                           : L R
  40. Sampling rate                            : 48.0 kHz
  41. Frame rate                               : 31.250 FPS (1536 SPF)
  42. Compression mode                         : Lossy
  43. Stream size                              : 299 MiB (4%)
  44. Language                                 : English
  45. Service kind                             : Complete Main
  46. Default                                  : Yes
  47. Forced                                   : No
  48. Audio #2
  49. ID                                       : 3
  50. Format                                   : AC-3
  51. Format/Info                              : Audio Coding 3
  52. Commercial name                          : Dolby Digital
  53. Codec ID                                 : A_AC3
  54. Duration                                 : 2 h 10 min
  55. Bit rate mode                            : Constant
  56. Bit rate                                 : 224 kb/s
  57. Channel(s)                               : 2 channels
  58. Channel layout                           : L R
  59. Sampling rate                            : 48.0 kHz
  60. Frame rate                               : 31.250 FPS (1536 SPF)
  61. Compression mode                         : Lossy
  62. Stream size                              : 209 MiB (3%)
  63. Language                                 : Chinese
  64. Service kind                             : Complete Main
  65. Default                                  : No
  66. Forced                                   : No
  67. Audio #3
  68. ID                                       : 4
  69. Format                                   : AC-3
  70. Format/Info                              : Audio Coding 3
  71. Commercial name                          : Dolby Digital
  72. Codec ID                                 : A_AC3
  73. Duration                                 : 2 h 10 min
  74. Bit rate mode                            : Constant
  75. Bit rate                                 : 96.0 kb/s
  76. Channel(s)                               : 2 channels
  77. Channel layout                           : L R
  78. Sampling rate                            : 48.0 kHz
  79. Frame rate                               : 31.250 FPS (1536 SPF)
  80. Compression mode                         : Lossy
  81. Stream size                              : 89.7 MiB (1%)
  82. Language                                 : Chinese
  83. Service kind                             : Complete Main
  84. Default                                  : No
  85. Forced                                   : No
  86. Text #1
  87. ID                                       : 5
  88. Format                                   : PGS
  89. Muxing mode                              : zlib
  90. Codec ID                                 : S_HDMV/PGS
  91. Codec ID/Info                            : Picture based subtitle format used on BDs/HD-DVDs
  92. Duration                                 : 2 h 9 min
  93. Bit rate                                 : 18.0 kb/s
  94. Count of elements                        : 3846
  95. Stream size                              : 16.6 MiB (0%)
  96. Language                                 : English
  97. Default                                  : Yes
  98. Forced                                   : No
  99. Text #2
  100. ID                                       : 6
  101. Format                                   : PGS
  102. Muxing mode                              : zlib
  103. Codec ID                                 : S_HDMV/PGS
  104. Codec ID/Info                            : Picture based subtitle format used on BDs/HD-DVDs
  105. Duration                                 : 2 h 9 min
  106. Bit rate                                 : 22.6 kb/s
  107. Count of elements                        : 3503
  108. Stream size                              : 21.0 MiB (0%)
  109. Language                                 : Chinese
  110. Default                                  : No
  111. Forced                                   : No
  112. Text #3
  113. ID                                       : 7
  114. Format                                   : PGS
  115. Muxing mode                              : zlib
  116. Codec ID                                 : S_HDMV/PGS
  117. Codec ID/Info                            : Picture based subtitle format used on BDs/HD-DVDs
  118. Duration                                 : 2 h 9 min
  119. Bit rate                                 : 23.6 kb/s
  120. Count of elements                        : 3503
  121. Stream size                              : 21.9 MiB (0%)
  122. Language                                 : Chinese
  123. Default                                  : No
  124. Forced                                   : No
  125. Menu
  126. 00:00:00.000                             : en:Chapter 01
  127. 00:01:46.648                             : en:Chapter 02
  128. 00:03:40.094                             : en:Chapter 03
  129. 00:07:51.804                             : en:Chapter 04
  130. 00:12:32.501                             : en:Chapter 05
  131. 00:15:53.619                             : en:Chapter 06
  132. 00:18:22.100                             : en:Chapter 07
  133. 00:20:46.078                             : en:Chapter 08
  134. 00:28:20.990                             : en:Chapter 09
  135. 00:31:08.658                             : en:Chapter 10
  136. 00:35:01.641                             : en:Chapter 11
  137. 00:41:46.795                             : en:Chapter 12
  138. 00:47:05.906                             : en:Chapter 13
  139. 00:51:39.763                             : en:Chapter 14
  140. 00:55:42.672                             : en:Chapter 15
  141. 01:02:18.985                             : en:Chapter 16
  142. 01:06:46.836                             : en:Chapter 17
  143. 01:13:18.227                             : en:Chapter 18
  144. 01:17:43.450                             : en:Chapter 19
  145. 01:23:58.283                             : en:Chapter 20
  146. 01:26:46.242                             : en:Chapter 21
  147. 01:39:29.254                             : en:Chapter 22
  148. 01:41:55.692                             : en:Chapter 23
  149. 01:44:49.950                             : en:Chapter 24
  150. 01:49:26.017                             : en:Chapter 25
  151. 01:53:40.980                             : en:Chapter 26
  152. 02:00:59.752                             : en:Chapter 27
  153. 02:07:09.038                             : en:Chapter 28





此处一般会放置磁力链或种子下载链接,不过此链接需要注册会员才能看到,点击“立即注册”
磁力链下载【下载链接仅对注册会员开放,登陆后可见】
BT9527电影天堂 1、BT9527电影天堂提供的BT文件均来源于互联网抓取,只供网友学习交流、技术提升使用。
2、我们遵守BitTorrent点对点协议原则,任何版权问题请联系原资源发布商,我们不处理任何版权纠纷,谢谢!如有争议请联系邮箱:BT9527#hotmail.com(#换成@)
3、如果您发现某页面或地址有错误,请联系站长邮箱BT9527#hotmail.com(#换成@),我们会尽快处理。您的热心是对BT9527电影天堂最大的支持。
4、本站建议去正规影院观看电影以支持电影行业发展。
最新回复 (0)

你可以在 登录 or 注册 后,对此帖发表评论!

返回
发新帖