赤焰战场[国英多音轨/简特效字幕].RED.2010.BluRay.2160p.x265.10bit.HDR.4Audio-MiniHD 22.35GB

版主小s 5月前 230

✔资源类型:BD-4K   ✔电影年份:2010   ✔电影地区:欧美   ✔电影分类:喜剧

◎译  名 赤焰战场 / 猛火爆(港) / 超危险特工(台) / 红色危机 / 夕阳红别动队
◎片  名 Red
◎年  代 2010
◎产  地 美国 / 中国大陆
◎类  别 喜剧 / 动作 / 惊悚 / 犯罪
◎语  言 英语 / 俄语
◎上映日期 2011-04-01(中国大陆) / 2010-10-15(美国)
◎IMDb链接 https://www.imdb.com/title/tt1245526/
◎豆瓣评分 7.6/10 (98426人评价)
◎豆瓣链接 https://movie.douban.com/subject/3104794/
◎片  长 111分钟(美国)
◎导  演 罗伯特·斯文克 Robert Schwentke (id:1297058)
◎编  剧 乔·霍贝尔 Jon Hoeber (id:1319517)
       埃里希·霍贝尔 Erich Hoeber (id:1319518)
       沃伦·埃利斯 Warren Ellis (id:1335556)
       库里·哈米尔 Cully Hamner (id:1335557)
◎演  员 布鲁斯·威利斯 Bruce Willis (id:1010509)
       约翰·马尔科维奇 John Malkovich (id:1041013)
       玛丽-露易丝·帕克 Mary-Louise Parker (id:1022573)
       卡尔·厄本 Karl Urban (id:1017903)
       海伦·米伦 Helen Mirren (id:1054390)
       摩根·弗里曼 Morgan Freeman (id:1054534)
       海迪·冯·帕利斯克 Heidi von Palleske (id:1345020)
       杰斐逊·布朗 Jefferson Brown (id:1360266)
       克里斯·欧文斯 Chris Owens (id:1131565)
       丽贝卡·彼得根 Rebecca Pidgeon (id:1027392)
       贾克琳·弗莱明 Jaqueline Fleming (id:1081065)
       Jason Giuliano Jason Giuliano (id:1330198)
       劳伦斯·特纳 Lawrence Turner (id:1367211)
       乔·克里斯特 Joe Chrest (id:1338883)
       贾斯婷·瓦希伯格 Justine Wachsberger (id:1359569)
       塔拉·尤伦 Tara Yelland (id:1228491)
       欧内斯特·博格宁 Ernest Borgnine (id:1007005)
       奥德丽·瓦西莱夫斯基 Audrey Wasilewski (id:1328955)
       詹姆斯·瑞马尔 James Remar (id:1013812)
       迪米特里·柴波维特斯基 Dmitry Chepovetsky (id:1397349)
       布莱恩·考克斯 Brian Cox (id:1019027)
       格雷格·布瑞克 Greg Bryk (id:1353762)
       理查德·德莱福斯 Richard Dreyfuss (id:1041114)
       尼尔·怀特利 Neil Whitely (id:1244022)
       罗伯特·莫尔斯 Robert Morse (id:1262284)
       米歇尔·诺尔顿 Michelle Nolden (id:1293249)
       劳拉·德卡特莱特 Laura de Carteret (id:1335201)
       乔纳森·沃克 Jonathan Walker (id:1166807)
       朱利安·麦克马洪 Julian McMahon (id:1022659)
       托马斯·米切尔 Thomas Mitchell (id:1391580)
       罗布·阿切尔 Rob Archer (id:1396167)
       约瑟夫·辛特隆 Joseph Cintron (id:1254693)
       凯文·肯特 Kevin Kent (id:1426086)
       詹姆斯昂·克雷默 Jameson Kraemer (id:1405596)
       劳丽·李 Laurie Lee (id:1260805)
       泰德·麦克马洪 Tadhg McMahon (id:1353010)
       里奇·蒙哥马利 Ritchie Montgomery (id:1447605)
        B.J. Parker (id:1273747)
       Dan Shea Dan Shea (id:1145232)
       洛根·道格拉斯·史密斯 Logan Douglas Smith (id:1271844)
       特里·李·史密斯 Terry Lee Smith (id:1273073)
       洛伦佐·迪·博纳文图拉 Lorenzo di Bonaventura (id:1282389)
       克里斯托弗·贝克 Christophe Beck (id:1278180)
       弗洛里安·巴尔豪斯 Florian Ballhaus (id:1420282)
       汤姆·诺伯 Thom Noble (id:1293221)
       德博拉·阿奎拉 Deborah Aquila (id:1277347)
       布兰特·戈登 Brandt Gordon (id:1285177)
       Gerald Quist Gerald Quist (id:1295086)
       Jennifer Bower O'Halloran Jennifer Bower O'Halloran (id:1293355)
       Patricia Keighran Patricia Keighran (id:1288323)
       Sean Sansom Sean Sansom (id:1296662)
       乔丹·萨缪尔 Jordan Samuel (id:1296587)
       Myron Hoffert Myron Hoffert (id:1286759)
       Grant Lucibello Grant Lucibello (id:1290422)
       Lee Allan Lee Allan (id:1311803)
       Abel Milanes Abel Milanes (id:1310582)
       达格·伊瓦索伊 Dag Ivarsoy (id:1302078)
       罗科·帕西尼诺 Rocco Passionino (id:1294053)
       Debora Dunphy Debora Dunphy (id:1282830)
       Jinnie Pak Jinnie Pak (id:1293822)

◎简  介
  前特工人员弗兰克·摩西斯(布鲁斯·威利斯 Bruce Willis 饰)早年和同伴们金戈铁马,经历大风大浪,如今早已各自闲赋家中,过着优哉游哉的安逸生活。然而这份退休后的平静突然被打破,在圣诞前夜,一群全副武装的不速之客闯入弗兰克的家中,对其痛下杀手。原来,作为资深探员,弗兰克和他的同伴知道太多关于政府和军方的秘密,他们理所当然成为被抹杀的对象。不甘将命运交诸他人之手,弗兰克找到了乔·麦瑟森(摩根·弗里曼 Morgan Freeman 饰)、马文·博格斯(约翰?马尔科维奇 John Malkovich 饰)和维多利娅(海伦·米伦 Helen Mirren 饰)等当年的好搭档,决心展开一场绝地大反击……                                    
                                本片根据华伦·埃利斯(Warren Ellis)和库里·汉默(Cully Hamner)的漫画改编。

◎获奖情况 (共1项)
  第68届金球奖 (2011)
  电影类 最佳音乐/喜剧片(提名)

  1. ##### MediaInfo ######
  2. General
  3. Unique ID                                : 251307673222788715634095174935011864288 (0xBD1018E966767AF7DDE7886FBB6F2EE0)
  4. Complete name                            : RED.2010.BluRay.2160p.x265.10bit.HDR.4Audio-MiniHD.mkv
  5. Format                                   : Matroska
  6. Format version                           : Version 4
  7. File size                                : 22.3 GiB
  8. Duration                                 : 1 h 51 min
  9. Overall bit rate mode                    : Variable
  10. Overall bit rate                         : 28.8 Mb/s
  11. Encoded date                             : UTC 2018-11-24 11:51:57
  12. Writing application                      : mkvmerge v20.0.0 ('I Am The Sun') 64-bit
  13. Writing library                          : libebml v1.3.5 + libmatroska v1.4.8
  14. Video
  15. ID                                       : 1
  16. Format                                   : HEVC
  17. Format/Info                              : High Efficiency Video Coding
  18. Format profile                           : Main 10@L5@Main
  19. HDR format                               : SMPTE ST 2086, HDR10 compatible
  20. Codec ID                                 : V_MPEGH/ISO/HEVC
  21. Duration                                 : 1 h 51 min
  22. Bit rate                                 : 19.9 Mb/s
  23. Width                                    : 3 840 pixels
  24. Height                                   : 1 600 pixels
  25. Display aspect ratio                     : 2.40:1
  26. Frame rate mode                          : Constant
  27. Frame rate                               : 23.976 (24000/1001/53354) FPS
  28. Color space                              : YUV
  29. Chroma subsampling                       : 4:2:0
  30. Bit depth                                : 10 bits
  31. Bits/(Pixel*Frame)                       : 0.135
  32. Stream size                              : 15.5 GiB (69%)
  33. Writing library                          : x265 2.5+6-gfe8703dcb+15:[Windows][GCC 7.1.0][64 bit] Asuna 10bit
  34. Encoding settings                        : cpuid=533541173503 / frame-threads=5 / numa-pools=84,- / wpp / no-pmode / no-pme / no-psnr / no-ssim / log-level=2 / input-csp=1 / input-res=3840x1600 / interlace=0 / total-frames=159909 / level-idc=0 / high-tier=1 / uhd-bd=0 / ref=3 / no-allow-non-conformance / no-repeat-headers / no-annexb / no-aud / no-hrd / info / hash=0 / no-temporal-layers / no-open-gop / min-keyint=1 / keyint=360 / bframes=4 / b-adapt=2 / b-pyramid / bframe-bias=0 / rc-lookahead=40 / lookahead-slices=8 / NTMzNTQ=uuDQuD2mJt9fsCf / scenecut=40 / no-intra-refresh / ctu=32 / min-cu-size=8 / no-rect / no-amp / max-tu-size=32 / tu-inter-depth=1 / tu-intra-depth=1 / limit-tu=0 / rdoq-level=2 / dynamic-rd=0.00 / no-ssim-rd / signhide / no-tskip / nr-intra=0 / nr-inter=0 / no-constrained-intra / no-strong-intra-smoothing / max-merge=2 / limit-refs=3 / no-limit-modes / me=1 / subme=3 / merange=44 / temporal-mvp / weightp / weightb / no-analyze-src-pics / deblock=-1:-1 / no-sao / no-sao-non-deblock / rd=4 / no-early-skip / rskip / no-fast-intra / no-tskip-fast / no-cu-lossless / no-b-intra / rdpenalty=1 / psy-rd=1.80 / psy-rdoq=2.00 / no-rd-refine / analysis-reuse-mode=0 / no-lossless / cbqpoffs=-2 / crqpoffs=-2 / rc=crf / crf=21.6000 / qcomp=0.65 / qpstep=4 / stats-write=0 / stats-read=0 / ipratio=1.40 / pbratio=1.20 / aq-mode=3 / aq-strength=0.70 / cutree / zone-count=0 / no-strict-cbr / qg-size=32 / no-rc-grain / qpmax=69 / qpmin=0 / no-const-vbv / sar=0 / overscan=0 / videoformat=5 / range=0 / colorprim=9 / transfer=16 / colormatrix=9 / chromaloc=0 / display-window=0 / master-display=G(13250,34500)B(7500,3000)R(34000,16000)WP(15635,16450)L(100000000,500) / max-cll=1000,985 / min-luma=0 / max-luma=1023 / log2-max-poc-lsb=8 / vui-timing-info / vui-hrd-info / slices=1 / opt-qp-pps / opt-ref-list-length-pps / no-multi-pass-opt-rps / scenecut-bias=0.05 / no-opt-cu-delta-qp / no-aq-motion / hdr / no-hdr-opt / no-dhdr10-opt / analysis-reuse-level=5 / scale-factor=0 / refine-intra=0 / refine-inter=0 / refine-mv=0 / no-limit-sao / ctu-info=0
  35. Default                                  : Yes
  36. Forced                                   : No
  37. Color range                              : Limited
  38. Color primaries                          : BT.2020
  39. Transfer characteristics                 : PQ
  40. Matrix coefficients                      : BT.2020 non-constant
  41. Mastering display color primaries        : Display P3
  42. Mastering display luminance              : min: 0.0500 cd/m2, max: 10000 cd/m2
  43. Maximum Content Light Level              : 1000 cd/m2
  44. Maximum Frame-Average Light Level        : 985 cd/m2
  45. Audio #1
  46. ID                                       : 2
  47. Format                                   : MLP FBA 16-ch
  48. Format/Info                              : Meridian Lossless Packing FBA with 16-channel presentation
  49. Commercial name                          : Dolby TrueHD with Dolby Atmos
  50. Codec ID                                 : A_TRUEHD
  51. Duration                                 : 1 h 51 min
  52. Bit rate mode                            : Variable
  53. Bit rate                                 : 4 933 kb/s
  54. Maximum bit rate                         : 8 268 kb/s
  55. Channel(s)                               : 8 channels
  56. Channel layout                           : L R C LFE Ls Rs Lb Rb
  57. Sampling rate                            : 48.0 kHz
  58. Frame rate                               : 1 200.000 FPS (40 SPF)
  59. Compression mode                         : Lossless
  60. Stream size                              : 3.83 GiB (17%)
  61. Title                                    : 英语全景声
  62. Language                                 : English
  63. Default                                  : Yes
  64. Forced                                   : No
  65. Number of dynamic objects                : 11
  66. Bed channel count                        : 1 channel
  67. Bed channel configuration                : LFE
  68. Audio #2
  69. ID                                       : 3
  70. Format                                   : DTS
  71. Format/Info                              : Digital Theater Systems
  72. Codec ID                                 : A_DTS
  73. Duration                                 : 1 h 51 min
  74. Bit rate mode                            : Constant
  75. Bit rate                                 : 1 509 kb/s
  76. Channel(s)                               : 6 channels
  77. Channel layout                           : C L R Ls Rs LFE
  78. Sampling rate                            : 48.0 kHz
  79. Frame rate                               : 93.750 FPS (512 SPF)
  80. Bit depth                                : 24 bits
  81. Compression mode                         : Lossy
  82. Stream size                              : 1.17 GiB (5%)
  83. Title                                    : 英语DTS
  84. Language                                 : English
  85. Default                                  : No
  86. Forced                                   : No
  87. Audio #3
  88. ID                                       : 4
  89. Format                                   : MLP FBA
  90. Format/Info                              : Meridian Lossless Packing FBA
  91. Commercial name                          : Dolby TrueHD
  92. Codec ID                                 : A_TRUEHD
  93. Duration                                 : 1 h 51 min
  94. Bit rate mode                            : Variable
  95. Bit rate                                 : 1 588 kb/s
  96. Maximum bit rate                         : 2 880 kb/s
  97. Channel(s)                               : 6 channels
  98. Channel layout                           : L R C LFE Ls Rs
  99. Sampling rate                            : 48.0 kHz
  100. Frame rate                               : 1 200.000 FPS (40 SPF)
  101. Compression mode                         : Lossless
  102. Stream size                              : 1.23 GiB (6%)
  103. Title                                    : 上译国语THD
  104. Language                                 : Chinese
  105. Default                                  : No
  106. Forced                                   : No
  107. Audio #4
  108. ID                                       : 5
  109. Format                                   : AC-3
  110. Format/Info                              : Audio Coding 3
  111. Commercial name                          : Dolby Digital
  112. Codec ID                                 : A_AC3
  113. Duration                                 : 1 h 51 min
  114. Bit rate mode                            : Constant
  115. Bit rate                                 : 640 kb/s
  116. Channel(s)                               : 6 channels
  117. Channel layout                           : L R C LFE Ls Rs
  118. Sampling rate                            : 48.0 kHz
  119. Frame rate                               : 31.250 FPS (1536 SPF)
  120. Compression mode                         : Lossy
  121. Stream size                              : 509 MiB (2%)
  122. Title                                    : 上译国语AC-3
  123. Language                                 : Chinese
  124. Service kind                             : Complete Main
  125. Default                                  : No
  126. Forced                                   : No
  127. Text #1
  128. ID                                       : 6
  129. Format                                   : PGS
  130. Muxing mode                              : zlib
  131. Codec ID                                 : S_HDMV/PGS
  132. Codec ID/Info                            : Picture based subtitle format used on BDs/HD-DVDs
  133. Duration                                 : 1 h 43 min
  134. Bit rate                                 : 19.2 kb/s
  135. Count of elements                        : 1966
  136. Stream size                              : 14.2 MiB (0%)
  137. Title                                    : 国配简中
  138. Language                                 : Chinese
  139. Default                                  : Yes
  140. Forced                                   : No
  141. Text #2
  142. ID                                       : 7
  143. Format                                   : PGS
  144. Muxing mode                              : zlib
  145. Codec ID                                 : S_HDMV/PGS
  146. Codec ID/Info                            : Picture based subtitle format used on BDs/HD-DVDs
  147. Duration                                 : 1 h 44 min
  148. Bit rate                                 : 42.6 kb/s
  149. Count of elements                        : 2786
  150. Stream size                              : 31.9 MiB (0%)
  151. Title                                    : 双语特效
  152. Language                                 : Chinese
  153. Default                                  : No
  154. Forced                                   : No
  155. Text #3
  156. ID                                       : 8
  157. Format                                   : PGS
  158. Muxing mode                              : zlib
  159. Codec ID                                 : S_HDMV/PGS
  160. Codec ID/Info                            : Picture based subtitle format used on BDs/HD-DVDs
  161. Duration                                 : 1 h 43 min
  162. Bit rate                                 : 16.5 kb/s
  163. Count of elements                        : 2373
  164. Stream size                              : 12.2 MiB (0%)
  165. Title                                    : R3简中
  166. Language                                 : Chinese
  167. Default                                  : No
  168. Forced                                   : No
  169. Text #4
  170. ID                                       : 9
  171. Format                                   : PGS
  172. Muxing mode                              : zlib
  173. Codec ID                                 : S_HDMV/PGS
  174. Codec ID/Info                            : Picture based subtitle format used on BDs/HD-DVDs
  175. Duration                                 : 1 h 43 min
  176. Bit rate                                 : 14.5 kb/s
  177. Count of elements                        : 2382
  178. Stream size                              : 10.8 MiB (0%)
  179. Title                                    : HK简中
  180. Language                                 : Chinese
  181. Default                                  : No
  182. Forced                                   : No
  183. Menu
  184. 00:00:00.000                             : en:Chapter 1
  185. 00:07:11.264                             : en:Chapter 2
  186. 00:14:03.425                             : en:Chapter 3
  187. 00:24:06.570                             : en:Chapter 4
  188. 00:29:10.457                             : en:Chapter 5
  189. 00:35:56.571                             : en:Chapter 6
  190. 00:43:26.687                             : en:Chapter 7
  191. 00:49:12.532                             : en:Chapter 8
  192. 00:55:56.936                             : en:Chapter 9
  193. 01:03:12.121                             : en:Chapter 10
  194. 01:09:42.011                             : en:Chapter 11
  195. 01:20:52.180                             : en:Chapter 12
  196. 01:27:14.103                             : en:Chapter 13
  197. 01:33:04.787                             : en:Chapter 14
  198. 01:38:31.906                             : en:Chapter 15
  199. 01:43:16.648                             : en:Chapter 16
  200. 01:51:09.287                             : en:Chapter 17





此处一般会放置磁力链或种子下载链接,不过此链接需要注册会员才能看到,点击“立即注册”
磁力链下载【下载链接仅对注册会员开放,登陆后可见】
BT9527电影天堂 1、BT9527电影天堂提供的BT文件均来源于互联网抓取,只供网友学习交流、技术提升使用。
2、我们遵守BitTorrent点对点协议原则,任何版权问题请联系原资源发布商,我们不处理任何版权纠纷,谢谢!如有争议请联系邮箱:BT9527#hotmail.com(#换成@)
3、如果您发现某页面或地址有错误,请联系站长邮箱BT9527#hotmail.com(#换成@),我们会尽快处理。您的热心是对BT9527电影天堂最大的支持。
4、本站建议去正规影院观看电影以支持电影行业发展。
最新回复 (0)

你可以在 登录 or 注册 后,对此帖发表评论!

返回
发新帖