第三类接触[简繁英字幕].Close.Encounters.of.the.Third.Kind.1977.2160p.BluRay.x265.HDR-MiniHD 21.24GB

版主小s 5月前 209

✔资源类型:BD-4K   ✔电影年份:更 早   ✔电影地区:欧美   ✔电影分类:剧情

◎译  名 第三类接触
◎片  名 Close Encounters of the Third Kind
◎年  代 1977
◎产  地 美国
◎类  别 剧情 / 科幻
◎语  言 英语 / 法语 / 西班牙语 / 印地语 / 汉语普通话
◎上映日期 1990-09-16(中国大陆) / 1977-11-15(纽约首映) / 1977-12-14(美国)
◎IMDb链接 https://www.imdb.com/title/tt0075860/
◎豆瓣评分 7.2/10 (19441人评价)
◎豆瓣链接 https://movie.douban.com/subject/1298405/
◎片  长 135分钟
◎导  演 史蒂文·斯皮尔伯格 Steven Spielberg (id:1054440)
◎编  剧 史蒂文·斯皮尔伯格 Steven Spielberg (id:1054440)
       哈尔·巴伍德 Hal Barwood (id:1278029)
       杰里·贝尔森 Jerry Belson (id:1012604)
       约翰·希尔 John Hill (id:1286623)
       马修·罗宾斯 Matthew Robbins (id:1295742)
◎演  员 理查德·德莱福斯 Richard Dreyfuss (id:1041114)
       弗朗索瓦·特吕弗 Fran?ois Truffaut (id:1054852)
       特瑞·加尔 Teri Garr (id:1036451)
       梅林达·狄龙 Melinda Dillon (id:1027399)
       鲍勃·巴拉班 Bob Balaban (id:1022775)
       J·帕特里克·麦克纳马拉 J. Patrick McNamara (id:1380533)
       沃伦·肯梅灵 Warren J. Kemmerling (id:1107977)
       罗伯茨·布洛瑟姆 Roberts Blossom (id:1067168)
       菲利普·多德斯 Philip Dodds (id:1380534)
       卡里·加菲 Cary Guffey (id:1045218)
       兰斯·亨利克森 Lance Henriksen (id:1048140)
       麦瑞尔·康纳利 Merrill Connally (id:1076762)
       吉恩·戴纳斯基 Gene Dynarski (id:1088295)
       诺曼·巴托德 Norman Bartold (id:1061453)
       约瑟夫·索默 Josef Sommer (id:1152828)
       卡尔·韦瑟斯 Carl Weathers (id:1013861)
       马修·罗宾斯 Matthew Robbins (id:1295742)
       Bob Westmoreland Bob Westmoreland (id:1166548)
       Galen Thompson Galen Thompson (id:1012988)
       老本内特·韦恩·迪恩 Bennett Wayne Dean Sr. (id:1212942)
       J. Allen Hynek J. Allen Hynek (id:1105565)
       詹姆斯·基恩 James Keane (id:1027944)
       Basil Hoffman Basil Hoffman (id:1092279)
       Amy Douglass Amy Douglass (id:1090260)
       Roger Ernest Roger Ernest (id:1087069)
       Justin Dreyfuss Justin Dreyfuss (id:1084638)
       约翰·丹尼斯·约翰斯顿 John Dennis Johnston (id:1104556)
       乔治·第桑佐 George DiCenzo (id:1048255)
       Alexander Lockwood Alexander Lockwood (id:1122831)
       哈尔·巴伍德 Hal Barwood (id:1278029)
       Luis Contreras Luis Contreras (id:1072944)
       Bill Thurman Bill Thurman (id:1153400)
       Eumenio Blanco Eumenio Blanco (id:1066294)
       迈克尔·菲利普斯 Michael Phillips (id:1009994)
       朱莉娅·菲利普斯 Julia Phillips (id:1000859)
       Clark L. Paylow Clark L. Paylow (id:1039172)
       约翰·威廉姆斯 John Williams (id:1054692)
       维尔莫什·日格蒙德 Vilmos Zsigmond (id:1019204)
       迈克尔·卡恩 Michael Kahn (id:1037019)
       Shari Rhodes Shari Rhodes (id:1295552)
       茱莉叶·泰勒 Juliet Taylor (id:1299000)
       菲尔·艾布拉姆森 Phil Abramson (id:1276763)
       乔·阿尔夫斯 Joe Alves (id:1018632)
       丹尼尔·A·洛米诺 Daniel A. Lomino (id:1290260)
       Bob Westmoreland Bob Westmoreland (id:1166548)
       Sharleen Rassi Sharleen Rassi (id:1295261)
       Edie Panda Edie Panda (id:1137389)
       Charles Myers Charles Myers (id:1015466)
       道格拉斯·特朗布尔 Douglas Trumbull (id:1000641)
       格雷戈里·杰恩 Gregory Jein (id:1287652)
       保罗·哈特森 Paul Huston (id:1287204)
       罗科·焦弗雷 Rocco Gioffre (id:1284912)
       丹尼斯·穆伦 Dennis Muren (id:1041635)
       唐·特朗布尔 Don Trumbull (id:1149405)
       Joseph A. Ippolito Joseph A. Ippolito (id:1108794)
       Jack Hinkle Jack Hinkle (id:1098213)
       David Jones David Jones (id:1287862)
       布鲁斯·尼科尔森 Bruce Nicholson (id:1293146)
       马修·尤里奇 Matthew Yuricich (id:1301579)
       Gregory L. McMurry Gregory L. McMurry (id:1001651)
       David R. Hardberger David R. Hardberger (id:1006420)
       霍伊特·耶特曼 Hoyt Yeatman (id:1007234)
       罗伯特·斯沃斯 Robert Swarthe (id:1298715)
       大卫·K·斯图尔特 David K. Stewart (id:1298434)
       斯科特·斯奎尔斯 Scott Squires (id:1298205)
       理查德·尤里西奇 Richard Yuricich (id:1301577)
       克里斯托弗·S·罗斯 Christopher S. Ross (id:1296139)
       彼得·安德森 Peter Anderson (id:1277226)

◎简  介
  1978年意大利大卫奖最佳外语片。                                    
                                1945年的一天夜里,当诺伊·尼尔瑞(理查德·德莱福斯 Richard Dreyfuss 饰)在装载卡车时,忽然被神秘的光线所笼罩,之后奇怪的幻象和五个音符一直在他脑海中回旋。他能否发现幻象的意义,又是谁将其置于他的脑海中呢?                                    
                                与此同时,美国政府同星际来客有了一定的接触并确定其降落的地点。为了掩饰真相,政府要求人们远离此地。然而,包括诺伊在内的一群人,却被其共同的幻象所吸引,来到此地。                                    
                                在沙漠中的魔鬼山上,空军临时修建的基地上空,外星人如约来到,他们的飞船流光异彩,将半个天空都照亮了。人类播放了以前从太空接受到的外星人信息中破译出的音乐作为联络的手段,飞船的大门打开了,从前失踪的地球人都回到了自己的家乡,而一批外形矮小的外星人则来到地球人中间和他们做心灵的沟通……

◎获奖情况 (共9项)
  第50届奥斯卡金像奖 (1978)
  最佳导演(提名)
   └──史蒂文·斯皮尔伯格 (id:1054440)
  最佳女配角(提名)
   └──梅林达·狄龙 (id:1027399)
  最佳摄影
   └──维尔莫什·日格蒙德 (id:1019204)
  最佳剪辑(提名)
   └──迈克尔·卡恩 (id:1037019)
  最佳视觉效果(提名)
  最佳音响(提名)
  最佳艺术指导(提名)
  最佳原创配乐(提名)
   └──约翰·威廉姆斯 (id:1054692)
  特别成就奖
   └──弗兰克·E·华纳 (id:1300444)

  1. ##### MediaInfo ######
  2. General
  3. Unique ID                                : 144174653137457929609543087903205810608 (0x6C770736249EBE588CF4591DF8E8E1B0)
  4. Complete name                            : Close.Encounters.of.the.Third.Kind.1977.2160p.BluRay.x265.HDR-MiniHD.mkv
  5. Format                                   : Matroska
  6. Format version                           : Version 4
  7. File size                                : 21.2 GiB
  8. Duration                                 : 2 h 12 min
  9. Overall bit rate mode                    : Variable
  10. Overall bit rate                         : 22.9 Mb/s
  11. Movie name                               : Close Encounters of the Third Kind 40th Anniversary Edition – 4K Ultra HD
  12. Encoded date                             : UTC 2020-02-09 03:49:15
  13. Writing application                      : mkvmerge v43.0.0 ('The Quartermaster') 64-bit
  14. Writing library                          : libebml v1.3.10 + libmatroska v1.5.2
  15. Cover                                    : Yes
  16. Attachments                              : cover.jpg / back.jpg
  17. Video
  18. ID                                       : 1
  19. Format                                   : HEVC
  20. Format/Info                              : High Efficiency Video Coding
  21. Format profile                           : Main 10@L5.1@High
  22. HDR format                               : SMPTE ST 2086, HDR10 compatible
  23. Codec ID                                 : V_MPEGH/ISO/HEVC
  24. Duration                                 : 2 h 12 min
  25. Bit rate                                 : 20.9 Mb/s
  26. Width                                    : 3 840 pixels
  27. Height                                   : 1 608 pixels
  28. Display aspect ratio                     : 2.40:1
  29. Frame rate mode                          : Constant
  30. Frame rate                               : 23.976 (24000/1001/53354) FPS
  31. Color space                              : YUV
  32. Chroma subsampling                       : 4:2:0
  33. Bit depth                                : 10 bits
  34. Bits/(Pixel*Frame)                       : 0.141
  35. Stream size                              : 19.3 GiB (91%)
  36. Writing library                          : x265 3.2+7-gb291a1c95+26:[Windows][MSVC 1916][64 bit] Yuuki 10bit
  37. Encoding settings                        : rc=crf / crf=20.5000 / qcomp=0.65 / qpstep=4 / stats-write=0 / stats-read=0 / vbv-maxrate=160000 / vbv-bufsize=160000 / vbv-init=0.9 / crf-max=0.0 / crf-min=0.0 / no-lossless / no-cu-lossless / aq-mode=3 / aq-strength=0.85 / cbqpoffs=-3 / crqpoffs=-3 / ipratio=1.40 / pbratio=1.20 / psy-rd=0.00 / psy-rdoq=8.00 / deblock=-1:-1 / ref=4 / limit-refs=2 / limit-modes / bframes=8 / b-adapt=2 / bframe-bias=0 / b-pyramid / b-intra / weightp / weightb / min-keyint=1 / max-keyint=360 / rc-lookahead=40 / gop-lookahead=0 / NTMzNTQ=uuDQuD2mJt9fsCf / scenecut=40 / radl=0 / max-cu-size=32 / min-cu-size=8 / me=3 / subme=4 / merange=25 / rdoq-level=2 / rd=4 / rdpenalty=1 / dynamic-rd=0.00 / no-rd-refine / ----- / cutree / no-sao / no-rect / no-amp / no-open-gop / wpp / no-pmode / no-pme / no-psnr / no-ssim / nr-intra=0 / nr-inter=0 / no-constrained-intra / no-strong-intra-smoothing / max-tu-size=32 / tu-inter-depth=2 / tu-intra-depth=2 / limit-tu=3 / qg-size=32 / qpmax=69 / qpmin=0 / ----- / cpuid=533541111039 / frame-threads=4 / numa-pools=24 / log-level=2 / input-csp=1 / input-res=3840x1608 / interlace=0 / level-idc=51 / high-tier=1 / uhd-bd=0 / no-allow-non-conformance / repeat-headers / aud / hrd / info / hash=0 / no-temporal-layers / lookahead-slices=0 / no-splice / no-intra-refresh / ssim-rd / signhide / no-tskip / max-merge=4 / temporal-mvp / no-hme / no-analyze-src-pics / no-sao-non-deblock / selective-sao=0 / no-early-skip / no-rskip / no-fast-intra / no-tskip-fast / no-splitrd-skip / zone-count=0 / no-strict-cbr / no-rc-grain / no-const-vbv / sar=0 / overscan=0 / videoformat=5 / range=0 / colorprim=9 / transfer=16 / colormatrix=9 / chromaloc=0 / display-window=0 / master-display=G(13250,34500)B(7500,3000)R(34000,16000)WP(15635,16450)L(40000000,50) / cll=10000,791 / min-luma=0 / max-luma=1023 / log2-max-poc-lsb=8 / vui-timing-info / vui-hrd-info / slices=1 / no-opt-qp-pps / no-opt-ref-list-length-pps / no-multi-pass-opt-rps / scenecut-bias=0.05 / no-opt-cu-delta-qp / no-aq-motion / hdr / hdr-opt / no-dhdr10-opt / no-idr-recovery-sei / analysis-reuse-level=5 / scale-factor=0 / refine-intra=0 / refine-inter=0 / refine-mv=1 / refine-ctu-distortion=0 / no-limit-sao / ctu-info=0 / no-lowpass-dct / refine-analysis-type=0 / copy-pic=1 / max-ausize-factor=1.0 / no-dynamic-refine / no-single-sei / no-hevc-aq / no-svt / no-field / qp-adaptation-range=1.00
  38. Language                                 : English
  39. Default                                  : Yes
  40. Forced                                   : No
  41. Color range                              : Limited
  42. Color primaries                          : BT.2020
  43. Transfer characteristics                 : PQ
  44. Matrix coefficients                      : BT.2020 non-constant
  45. Mastering display color primaries        : Display P3
  46. Mastering display luminance              : min: 0.0050 cd/m2, max: 4000 cd/m2
  47. Maximum Content Light Level              : 10000 cd/m2
  48. Maximum Frame-Average Light Level        : 791 cd/m2
  49. Audio
  50. ID                                       : 2
  51. Format                                   : DTS XLL
  52. Format/Info                              : Digital Theater Systems
  53. Commercial name                          : DTS-HD Master Audio
  54. Codec ID                                 : A_DTS
  55. Duration                                 : 2 h 12 min
  56. Bit rate mode                            : Variable
  57. Bit rate                                 : 2 046 kb/s
  58. Channel(s)                               : 6 channels
  59. Channel layout                           : C L R Ls Rs LFE
  60. Sampling rate                            : 48.0 kHz
  61. Frame rate                               : 93.750 FPS (512 SPF)
  62. Bit depth                                : 16 bits
  63. Compression mode                         : Lossless
  64. Stream size                              : 1.89 GiB (9%)
  65. Title                                    : english DTS-HD MA@5.1
  66. Language                                 : English
  67. Default                                  : Yes
  68. Forced                                   : No
  69. Text #1
  70. ID                                       : 3
  71. Format                                   : PGS
  72. Muxing mode                              : zlib
  73. Codec ID                                 : S_HDMV/PGS
  74. Codec ID/Info                            : Picture based subtitle format used on BDs/HD-DVDs
  75. Duration                                 : 2 h 10 min
  76. Bit rate                                 : 27.6 kb/s
  77. Count of elements                        : 2632
  78. Stream size                              : 25.7 MiB (0%)
  79. Title                                    : English
  80. Language                                 : English
  81. Default                                  : No
  82. Forced                                   : No
  83. Text #2
  84. ID                                       : 4
  85. Format                                   : PGS
  86. Muxing mode                              : zlib
  87. Codec ID                                 : S_HDMV/PGS
  88. Codec ID/Info                            : Picture based subtitle format used on BDs/HD-DVDs
  89. Duration                                 : 2 h 6 min
  90. Bit rate                                 : 17.1 kb/s
  91. Count of elements                        : 1852
  92. Stream size                              : 15.4 MiB (0%)
  93. Title                                    : 原盘简体
  94. Language                                 : Chinese
  95. Default                                  : Yes
  96. Forced                                   : No
  97. Text #3
  98. ID                                       : 5
  99. Format                                   : PGS
  100. Muxing mode                              : zlib
  101. Codec ID                                 : S_HDMV/PGS
  102. Codec ID/Info                            : Picture based subtitle format used on BDs/HD-DVDs
  103. Duration                                 : 2 h 6 min
  104. Bit rate                                 : 18.4 kb/s
  105. Count of elements                        : 2006
  106. Stream size                              : 16.6 MiB (0%)
  107. Title                                    : 原盘繁体
  108. Language                                 : Chinese
  109. Default                                  : No
  110. Forced                                   : No
  111. Menu
  112. 00:00:00.000                             : en:第 01 章
  113. 00:14:40.379                             : en:第 02 章
  114. 00:17:29.882                             : en:第 03 章
  115. 00:18:29.149                             : en:第 04 章
  116. 00:23:59.854                             : en:第 05 章
  117. 00:24:06.403                             : en:第 06 章
  118. 00:26:09.442                             : en:第 07 章
  119. 00:26:11.569                             : en:第 08 章
  120. 00:31:32.348                             : en:第 09 章
  121. 00:37:12.772                             : en:第 10 章
  122. 00:41:08.340                             : en:第 11 章
  123. 00:55:08.054                             : en:第 12 章
  124. 00:57:39.497                             : en:第 13 章
  125. 01:01:28.142                             : en:第 14 章
  126. 01:06:26.857                             : en:第 15 章
  127. 01:07:13.904                             : en:第 16 章
  128. 01:08:29.730                             : en:第 17 章
  129. 01:12:25.966                             : en:第 18 章
  130. 01:12:38.478                             : en:第 19 章
  131. 01:25:44.805                             : en:第 20 章
  132. 02:03:09.631                             : en:第 21 章
  133. 02:06:03.930                             : en:第 22 章
  134. 02:10:10.051                             : en:第 23 章



此处一般会放置磁力链或种子下载链接,不过此链接需要注册会员才能看到,点击“立即注册”
磁力链下载【下载链接仅对注册会员开放,登陆后可见】
BT9527电影天堂 1、BT9527电影天堂提供的BT文件均来源于互联网抓取,只供网友学习交流、技术提升使用。
2、我们遵守BitTorrent点对点协议原则,任何版权问题请联系原资源发布商,我们不处理任何版权纠纷,谢谢!如有争议请联系邮箱:BT9527#hotmail.com(#换成@)
3、如果您发现某页面或地址有错误,请联系站长邮箱BT9527#hotmail.com(#换成@),我们会尽快处理。您的热心是对BT9527电影天堂最大的支持。
4、本站建议去正规影院观看电影以支持电影行业发展。
最新回复 (0)

你可以在 登录 or 注册 后,对此帖发表评论!

返回
发新帖