白雪公主与猎人[国英多音轨/简英字幕].Snow.White.and.the.Huntsman.2012.BluRay.2160p.x265.10bit.HDR.3Audio-MiniHD 24.79GB

版主小s 5月前 207

✔资源类型:BD-4K   ✔电影年份:2012   ✔电影地区:欧美   ✔电影分类:动作

◎译  名 白雪公主与猎人 / 公主与狩猎者(台) / 白雪公主之魔幻复仇记(港) / Snow White & the Huntsman / Snow White
◎片  名 Snow White and the Huntsman
◎年  代 2012
◎产  地 美国 / 英国
◎类  别 动作 / 奇幻 / 冒险
◎语  言 英语
◎上映日期 2012-06-01(美国)
◎IMDb链接 https://www.imdb.com/title/tt1735898/
◎豆瓣评分 5.6/10 (68717人评价)
◎豆瓣链接 https://movie.douban.com/subject/5327463/
◎片  长 127分钟
◎导  演 鲁伯特·桑德斯 Rupert Sanders (id:1320096)
◎编  剧 埃文·达赫迪 Evan Daughterty (id:1320100)
       霍辛·阿米尼 Hossein Amini (id:1277162)
       约翰·李·汉考克 John Lee Hancock (id:1285940)
       埃文·斯彼里奥托普洛斯 Evan Spiliotopoulos (id:1298164)
◎演  员 克里斯·海姆斯沃斯 Chris Hemsworth (id:1021959)
       克里斯汀·斯图尔特 Kristen Stewart (id:1012533)
       查理兹·塞隆 Charlize Theron (id:1018991)
       山姆·克拉弗林 Sam Claflin (id:1010617)
       萨姆·斯普卢尔  Sam Spruell (id:1316018)
       伊恩·麦柯肖恩 Ian McShane (id:1027143)
       鲍勃·霍斯金斯 Bob Hoskins (id:1041156)
       雷·温斯顿 Ray Winstone (id:1006977)
       埃迪·马森 Eddie Marsan (id:1291072)
       莉莉·科尔 Lily Cole (id:1048117)
       尼克·弗罗斯特 Nick Frost (id:1000102)
       托比·琼斯 Toby Jones (id:1107884)
       安娜贝拉·沃丽丝 Annabelle Wallis (id:1315815)
       拉菲·卡西迪 Raffey Cassidy (id:1328234)
       马特·贝里 Matt Berry (id:1194203)
       蕾切尔·斯特灵 Rachael Stirling (id:1018126)
       伊兹·米克尔-斯莫 Izzy Meikle-Small (id:1313105)
       安德鲁·郝雷 Andrew Hawley (id:1352723)
       布莱恩·格里森 Brian Gleeson (id:1227388)
       彼得·费迪南多 Peter Ferdinando (id:1332724)
       泽维尔·阿特金斯 Xavier Atkins (id:1332231)
       丽波缇·罗丝 Liberty Ross (id:1326527)
       丹·柏曼 Dan Burman (id:1348067)
       格雷格·希克斯 Greg Hicks (id:1019525)
       Sam Mercer Sam Mercer (id:1291858)
       詹姆斯·纽顿·霍华德 James Newton Howard (id:1019135)
       格雷格·弗莱瑟 Greig Fraser (id:1028361)
         Dominic Watkins (id:1462093)
       柯琳·阿特伍德 Colleen Atwood (id:1277560)
       菲尔·布伦南 Phil Brennan (id:1326163)
       杨亮 Liang Yang (id:1398252)

◎简  介
  很久很久以前,在一个美丽华贵的国度,善良而迷人的白雪公主(克里斯汀·斯图尔特 Kristen Stewart 饰)降生到这个世上。她用有让人欣羡的家境与童年,但是好景不长,他的母亲过早去世,祖国遭遇神秘的黑色军队袭击,更为绝望的是父王将偶然相遇的绝世美女拉文娜(查理兹· 塞隆 Charlize Theron 饰)迎为新的王后。拉文娜带来了难以想象的灾难,她狂暴与黑暗的欲望使她攫取了整个国家。在得知王后将要加害自己之时,白雪公主奋力从城堡逃脱躲入黑森林。不久,肩负着残酷使命的猎人(克里斯·海姆斯沃斯 Chris Hemsworth 饰)尾随而至……                                    
                                本片荣获2012年青年选择奖怒发冲冠奖(查理兹·塞隆)、最佳夏季电影女主角(克里斯汀·斯图尔特)、最佳夏季电影男主角(克里斯·海姆斯沃斯)。

◎获奖情况 (共18项)
  第85届奥斯卡金像奖 (2013)
  最佳视觉效果(提名)
  最佳服装设计(提名)
   └──柯琳·阿特伍德 (id:1277560)

  第33届金酸莓奖 (2013)
  最差女主角
   └──克里斯汀·斯图尔特 (id:1012533)

  第22届MTV电影奖 (2013)
  MTV电影奖 最佳英雄形象(提名)
   └──克里斯汀·斯图尔特 (id:1012533)

  第17届金卫星奖 (2012)
  电影部门 最佳音效(提名)
  电影部门 最佳服装设计(提名)
   └──柯琳·阿特伍德 (id:1277560)

  第17届圣地亚哥影评人协会奖 (2012)
  年度劳模
   └──格雷格·弗莱瑟 (id:1028361)

  第14届美国青少年选择奖 (2012)
  最佳电影反派(提名)
   └──查理兹·塞隆 (id:1018991)
  最佳突破表演电影新星(提名)
   └──山姆·克拉弗林 (id:1010617)
  Choice Movie: Hissy Fit
   └──查理兹·塞隆 (id:1018991)
  最佳暑期动作冒险电影(提名)
  最佳暑期电影女演员
   └──克里斯汀·斯图尔特 (id:1012533)
  最佳暑期电影女演员(提名)
   └──查理兹·塞隆 (id:1018991)

  第3届豆瓣电影鑫像奖 (2013)
  豆渣单元 最渣影片(外语)(提名)
  豆渣单元 最渣导演(外语)(提名)
   └──鲁伯特·桑德斯 (id:1320096)
  豆渣单元 最渣男演员(外语)(提名)
   └──克里斯·海姆斯沃斯 (id:1021959)
  豆渣单元 最渣女演员(外语)
   └──克里斯汀·斯图尔特 (id:1012533)
  豆渣单元 最渣女演员(外语)(提名)
   └──查理兹·塞隆 (id:1018991)

  1. ##### MediaInfo ######
  2. General
  3. Unique ID                                : 72381388945263233719772988757322551912 (0x36742600127DC99329CA3B387810D268)
  4. Complete name                            : Snow.White.and.the.Huntsman.2012.BluRay.2160p.x265.10bit.HDR.3Audio-MiniHD.mkv
  5. Format                                   : Matroska
  6. Format version                           : Version 4
  7. File size                                : 24.8 GiB
  8. Duration                                 : 2 h 11 min
  9. Overall bit rate mode                    : Variable
  10. Overall bit rate                         : 27.0 Mb/s
  11. Encoded date                             : UTC 2019-11-15 15:10:28
  12. Writing application                      : mkvmerge v27.0.0 ('Metropolis') 64-bit
  13. Writing library                          : libebml v1.3.6 + libmatroska v1.4.9
  14. Video
  15. ID                                       : 1
  16. Format                                   : HEVC
  17. Format/Info                              : High Efficiency Video Coding
  18. Format profile                           : Main 10@L5.1@High
  19. HDR format                               : SMPTE ST 2086, HDR10 compatible
  20. Codec ID                                 : V_MPEGH/ISO/HEVC
  21. Duration                                 : 2 h 11 min
  22. Bit rate                                 : 22.5 Mb/s
  23. Width                                    : 3 840 pixels
  24. Height                                   : 1 632 pixels
  25. Display aspect ratio                     : 2.35:1
  26. Frame rate mode                          : Constant
  27. Frame rate                               : 23.976 (24000/1001/53354) FPS
  28. Color space                              : YUV
  29. Chroma subsampling                       : 4:2:0
  30. Bit depth                                : 10 bits
  31. Bits/(Pixel*Frame)                       : 0.149
  32. Stream size                              : 20.6 GiB (83%)
  33. Title                                    : mUHD-FRDS
  34. Writing library                          : x265 3.1+2-g764455672+26:[Windows][+Erg`Djh+][Yuuki ] made by @Dongfangbubai
  35. Encoding settings                        : rc=crf / crf=18.0000 / qcomp=0.70 / qpstep=4 / stats-write=0 / stats-read=0 / vbv-maxrate=160000 / vbv-bufsize=160000 / vbv-init=0.9 / crf-max=0.0 / crf-min=0.0 / no-lossless / no-cu-lossless / aq-mode=1 / aq-strength=0.90 / cbqpoffs=-3 / crqpoffs=-3 / ipratio=1.40 / pbratio=1.30 / psy-rd=2.00 / psy-rdoq=3.00 / deblock=-1:-1 / ref=5 / limit-refs=0 / no-limit-modes / bframes=8 / b-adapt=2 / bframe-bias=0 / b-pyramid / b-intra / weightp / weightb / min-keyint=23 / max-keyint=240 / rc-lookahead=60 / gop-lookahead=0 / NTMzNTQ=uuDQuD2mJt9fsCf / scenecut=40 / radl=0 / max-cu-size=32 / min-cu-size=8 / me=3 / subme=4 / merange=25 / rdoq-level=2 / rd=4 / rdpenalty=1 / dynamic-rd=0.00 / no-rd-refine / ----- / no-cutree / no-sao / no-rect / no-amp / no-open-gop / wpp / pmode / pme / no-psnr / no-ssim / nr-intra=0 / nr-inter=0 / no-constrained-intra / no-strong-intra-smoothing / max-tu-size=32 / tu-inter-depth=2 / tu-intra-depth=2 / limit-tu=0 / qg-size=32 / qpmax=69 / qpmin=0 / ----- / cpuid=533541111039 / frame-threads=6 / numa-pools=54,- / log-level=2 / input-csp=1 / input-res=3840x1632 / interlace=0 / level-idc=0 / high-tier=1 / uhd-bd=0 / no-allow-non-conformance / no-repeat-headers / no-aud / hrd / info / hash=0 / no-temporal-layers / lookahead-slices=0 / no-splice / no-intra-refresh / no-ssim-rd / signhide / no-tskip / max-merge=3 / temporal-mvp / no-analyze-src-pics / no-sao-non-deblock / no-early-skip / no-rskip / no-fast-intra / no-tskip-fast / no-splitrd-skip / zone-count=0 / no-strict-cbr / no-rc-grain / no-const-vbv / sar=0 / overscan=0 / videoformat=5 / range=0 / colorprim=9 / transfer=16 / colormatrix=9 / chromaloc=0 / display-window=0 / master-display=G(13250,34500)B(7500,3000)R(34000,16000)WP(15635,16450)L(10000000,50)cll=1000,400 / min-luma=0 / max-luma=1023 / log2-max-poc-lsb=8 / vui-timing-info / vui-hrd-info / slices=1 / no-opt-qp-pps / no-opt-ref-list-length-pps / no-multi-pass-opt-rps / scenecut-bias=0.05 / no-opt-cu-delta-qp / no-aq-motion / hdr / hdr-opt / no-dhdr10-opt / no-idr-recovery-sei / analysis-reuse-level=5 / scale-factor=0 / refine-intra=0 / refine-inter=0 / refine-mv=0 / refine-ctu-distortion=0 / no-limit-sao / ctu-info=0 / no-lowpass-dct / refine-analysis-type=0 / copy-pic=1 / max-ausize-factor=1.0 / no-dynamic-refine / no-single-sei / no-hevc-aq / no-svt / no-field / qp-adaptation-range=1.00
  36. Default                                  : Yes
  37. Forced                                   : No
  38. Color range                              : Limited
  39. Color primaries                          : BT.2020
  40. Transfer characteristics                 : PQ
  41. Matrix coefficients                      : BT.2020 non-constant
  42. Mastering display color primaries        : Display P3
  43. Mastering display luminance              : min: 0.0050 cd/m2, max: 1000 cd/m2
  44. Maximum Content Light Level              : 1000 cd/m2
  45. Maximum Frame-Average Light Level        : 400 cd/m2
  46. Audio #1
  47. ID                                       : 2
  48. Format                                   : DTS XLL X
  49. Format/Info                              : Digital Theater Systems
  50. Commercial name                          : DTS-HD Master Audio
  51. Codec ID                                 : A_DTS
  52. Duration                                 : 2 h 11 min
  53. Bit rate mode                            : Variable
  54. Bit rate                                 : 3 810 kb/s
  55. Channel(s)                               : 8 channels
  56. Channel(s)_Original                      : Object Based
  57. ChannelLayout_Original                   : Object Based
  58. Sampling rate                            : 48.0 kHz
  59. Frame rate                               : 93.750 FPS (512 SPF)
  60. Bit depth                                : 24 bits
  61. Stream size                              : 3.50 GiB (14%)
  62. Language                                 : English
  63. Default                                  : Yes
  64. Forced                                   : No
  65. Audio #2
  66. ID                                       : 3
  67. Format                                   : AC-3
  68. Format/Info                              : Audio Coding 3
  69. Commercial name                          : Dolby Digital
  70. Codec ID                                 : A_AC3
  71. Duration                                 : 2 h 11 min
  72. Bit rate mode                            : Constant
  73. Bit rate                                 : 640 kb/s
  74. Channel(s)                               : 6 channels
  75. Channel layout                           : L R C LFE Ls Rs
  76. Sampling rate                            : 48.0 kHz
  77. Frame rate                               : 31.250 FPS (1536 SPF)
  78. Compression mode                         : Lossy
  79. Stream size                              : 602 MiB (2%)
  80. Language                                 : English
  81. Service kind                             : Complete Main
  82. Default                                  : No
  83. Forced                                   : No
  84. Audio #3
  85. ID                                       : 4
  86. Format                                   : AAC LC SBR
  87. Format/Info                              : Advanced Audio Codec Low Complexity with Spectral Band Replication
  88. Commercial name                          : HE-AAC
  89. Format settings                          : Explicit
  90. Codec ID                                 : A_AAC-2
  91. Duration                                 : 2 h 11 min
  92. Bit rate                                 : 57.8 kb/s
  93. Channel(s)                               : 2 channels
  94. Channel layout                           : L R
  95. Sampling rate                            : 44.1 kHz
  96. Frame rate                               : 21.533 FPS (2048 SPF)
  97. Compression mode                         : Lossy
  98. Delay relative to video                  : 43 ms
  99. Stream size                              : 54.4 MiB (0%)
  100. Title                                    : 央视国配
  101. Language                                 : Chinese
  102. Default                                  : No
  103. Forced                                   : No
  104. Text #1
  105. ID                                       : 5
  106. Format                                   : PGS
  107. Muxing mode                              : zlib
  108. Codec ID                                 : S_HDMV/PGS
  109. Codec ID/Info                            : Picture based subtitle format used on BDs/HD-DVDs
  110. Duration                                 : 1 h 59 min
  111. Bit rate                                 : 19.4 kb/s
  112. Count of elements                        : 2112
  113. Stream size                              : 16.7 MiB (0%)
  114. Language                                 : English
  115. Default                                  : No
  116. Forced                                   : No
  117. Text #2
  118. ID                                       : 6
  119. Format                                   : PGS
  120. Muxing mode                              : zlib
  121. Codec ID                                 : S_HDMV/PGS
  122. Codec ID/Info                            : Picture based subtitle format used on BDs/HD-DVDs
  123. Duration                                 : 2 h 3 min
  124. Bit rate                                 : 13.4 kb/s
  125. Count of elements                        : 2252
  126. Stream size                              : 11.9 MiB (0%)
  127. Title                                    : 国配中字
  128. Language                                 : Chinese
  129. Default                                  : No
  130. Forced                                   : No
  131. Text #3
  132. ID                                       : 7
  133. Format                                   : PGS
  134. Muxing mode                              : zlib
  135. Codec ID                                 : S_HDMV/PGS
  136. Codec ID/Info                            : Picture based subtitle format used on BDs/HD-DVDs
  137. Duration                                 : 2 h 0 min
  138. Bit rate                                 : 9 941 b/s
  139. Count of elements                        : 1829
  140. Stream size                              : 8.55 MiB (0%)
  141. Title                                    : 简体中文
  142. Language                                 : Chinese
  143. Default                                  : No
  144. Forced                                   : No
  145. Text #4
  146. ID                                       : 8
  147. Format                                   : PGS
  148. Muxing mode                              : zlib
  149. Codec ID                                 : S_HDMV/PGS
  150. Codec ID/Info                            : Picture based subtitle format used on BDs/HD-DVDs
  151. Duration                                 : 2 h 0 min
  152. Bit rate                                 : 17.0 kb/s
  153. Count of elements                        : 1829
  154. Stream size                              : 14.6 MiB (0%)
  155. Title                                    : 简英双语
  156. Language                                 : Chinese
  157. Default                                  : Yes
  158. Forced                                   : No
  159. Menu
  160. 00:00:00.000                             : en:Chapter 01
  161. 00:05:05.055                             : en:Chapter 02
  162. 00:10:26.793                             : en:Chapter 03
  163. 00:19:48.854                             : en:Chapter 04
  164. 00:27:46.456                             : en:Chapter 05
  165. 00:32:40.458                             : en:Chapter 06
  166. 00:38:04.490                             : en:Chapter 07
  167. 00:44:02.098                             : en:Chapter 08
  168. 00:51:08.649                             : en:Chapter 09
  169. 00:58:17.869                             : en:Chapter 10
  170. 01:02:08.558                             : en:Chapter 11
  171. 01:08:57.967                             : en:Chapter 12
  172. 01:13:36.537                             : en:Chapter 13
  173. 01:16:59.073                             : en:Chapter 14
  174. 01:26:57.003                             : en:Chapter 15
  175. 01:36:30.993                             : en:Chapter 16
  176. 01:43:37.795                             : en:Chapter 17
  177. 01:49:51.460                             : en:Chapter 18
  178. 01:53:44.734                             : en:Chapter 19
  179. 02:01:50.094                             : en:Chapter 20





此处一般会放置磁力链或种子下载链接,不过此链接需要注册会员才能看到,点击“立即注册”
磁力链下载【下载链接仅对注册会员开放,登陆后可见】
BT9527电影天堂 1、BT9527电影天堂提供的BT文件均来源于互联网抓取,只供网友学习交流、技术提升使用。
2、我们遵守BitTorrent点对点协议原则,任何版权问题请联系原资源发布商,我们不处理任何版权纠纷,谢谢!如有争议请联系邮箱:BT9527#hotmail.com(#换成@)
3、如果您发现某页面或地址有错误,请联系站长邮箱BT9527#hotmail.com(#换成@),我们会尽快处理。您的热心是对BT9527电影天堂最大的支持。
4、本站建议去正规影院观看电影以支持电影行业发展。
最新回复 (0)

你可以在 登录 or 注册 后,对此帖发表评论!

返回
发新帖