百变星君[国语音轨/中英字幕].Sixty.Million.Dollar.Man.1995.BluRay.1080p.x265.10bit.2Audio-MiniHD 5.25GB

版主小s 5月前 199

✔资源类型:暂未分类   ✔电影年份:更 早   ✔电影地区:香港   ✔电影分类:喜剧

◎译  名 百变星君 / 百变金刚 / Sixty Million Dollar Man
◎片  名 百變星君
◎年  代 1995
◎产  地 中国香港
◎类  别 喜剧 / 科幻 / 奇幻
◎语  言 粤语 / 汉语普通话 / 英语
◎上映日期 1995-08-19(中国香港)
◎IMDb链接 https://www.imdb.com/title/tt0112446/
◎豆瓣评分 7.8/10 (276966人评价)
◎豆瓣链接 https://movie.douban.com/subject/1300498/
◎片  长 92 分钟
◎导  演 叶伟民 Raymond Yip Wai-Man (id:1275004)
       王晶 Jing Wong (id:1274331)
◎编  剧 叶伟民 Raymond Yip Wai-Man (id:1275004)
◎演  员 周星驰 Stephen Chow (id:1048026)
       吴孟达 Man Tat Ng (id:1016771)
       梁咏琪 Gigi Leung (id:1000975)
       孙佳君 Paulyn Sun (id:1050664)
       徐锦江 Elvis Tsui (id:1028828)
       黄一飞 Yut Fei Wong (id:1301215)
       江欣燕 Elvina Kong (id:1104138)
       朱咪咪 Mimi Chu (id:1275715)
       李健仁 Kin-Yan Lee (id:1315575)
       郑祖 Joe Cheng (id:1318850)
       文隽 Manfred Wong (id:1274823)
       林迪安 Dion Lam (id:1289289)
       宋本中 Boon-Chung Sung (id:1322129)
       陈志辉 Chi Fai Chan (id:1312869)
       达伦·萨赫拉维 Darren Shahlavi (id:1054717)
       邓兆尊 Siu Juen Dang (id:1345680)
       胡立成 Licheng Hu (id:1331134)
       查尔斯·沈 Charles Shen (id:1345685)
       黎应就 Guy Lai (id:1345936)
       麦克·里德 Mike Leeder (id:1382791)
       罗伟佳 Wai-Kai Law (id:1435881)
       邹义训 Yixun Chow (id:1426899)
       王晶 Jing Wong (id:1274331)
       江玉仪 Ivy Kong (id:1275631)
       馮鳳珍 Rita Fung (id:1441554)
       刘伟强 Andrew Lau (id:1106979)
       麦子善 Marco Mak (id:1280638)
       张世宏 Silver Cheung (id:1318916)
       黄志明 Wong Chi-Ming (id:1398895)

◎简  介
  夏威夷念大学的香港富豪子弟李泽星(周星驰 饰)学业无成挥金如土,是校园一霸,终因搭上黑帮老大情妇遭黑帮追杀,身体被炸成碎片。 在李泽星父亲(吴孟达 饰)的请求下,教授(徐锦江 饰)将李泽星全身人造复原,并把最新研制成功的无敌芯片置入其身,令其摇身一变成为无敌“百变金刚”。黑帮老大得知李泽星复活后,将写有战争程序的芯片植入手下身体,令其变身“铁甲威龙”前来追杀李泽星。为赢得暗恋的女同学虫虫(梁咏琪 饰)的芳心,李泽星决意重塑形象,奋力与“铁甲威龙”展开大战。
  1. ##### MediaInfo ######
  2. General
  3. Unique ID                                : 214187258874563005709667595676913807475 (0xA122F72EC2F2F0A7A37CE772BC1CB073)
  4. Complete name                            : Sixty.Million.Dollar.Man.1995.BluRay.1080p.x265.10bit.2Audio-MiniHD.mkv
  5. Format                                   : Matroska
  6. Format version                           : Version 4
  7. File size                                : 5.25 GiB
  8. Duration                                 : 1 h 30 min
  9. Overall bit rate                         : 8 307 kb/s
  10. Encoded date                             : UTC 2017-06-02 07:29:46
  11. Writing application                      : mkvmerge v11.0.0 ('Alive') 64bit
  12. Writing library                          : libebml v1.3.4 + libmatroska v1.4.5
  13. Video
  14. ID                                       : 1
  15. Format                                   : HEVC
  16. Format/Info                              : High Efficiency Video Coding
  17. Codec ID                                 : V_MPEGH/ISO/HEVC
  18. Duration                                 : 1 h 30 min
  19. Bit rate                                 : 6 862 kb/s
  20. Width                                    : 1 920 pixels
  21. Height                                   : 1 080 pixels
  22. Display aspect ratio                     : 16:9
  23. Frame rate mode                          : Constant
  24. Frame rate                               : 24.000 FPS
  25. Bits/(Pixel*Frame)                       : 0.138
  26. Stream size                              : 4.33 GiB (83%)
  27. Default                                  : Yes
  28. Forced                                   : No
  29. Audio #1
  30. ID                                       : 2
  31. Format                                   : AC-3
  32. Format/Info                              : Audio Coding 3
  33. Commercial name                          : Dolby Digital
  34. Codec ID                                 : A_AC3
  35. Duration                                 : 1 h 30 min
  36. Bit rate mode                            : Constant
  37. Bit rate                                 : 640 kb/s
  38. Channel(s)                               : 6 channels
  39. Channel layout                           : L R C LFE Ls Rs
  40. Sampling rate                            : 48.0 kHz
  41. Frame rate                               : 31.250 FPS (1536 SPF)
  42. Compression mode                         : Lossy
  43. Stream size                              : 414 MiB (8%)
  44. Language                                 : Chinese
  45. Service kind                             : Complete Main
  46. Default                                  : Yes
  47. Forced                                   : No
  48. Audio #2
  49. ID                                       : 3
  50. Format                                   : AC-3
  51. Format/Info                              : Audio Coding 3
  52. Commercial name                          : Dolby Digital
  53. Codec ID                                 : A_AC3
  54. Duration                                 : 1 h 30 min
  55. Bit rate mode                            : Constant
  56. Bit rate                                 : 640 kb/s
  57. Channel(s)                               : 6 channels
  58. Channel layout                           : L R C LFE Ls Rs
  59. Sampling rate                            : 48.0 kHz
  60. Frame rate                               : 31.250 FPS (1536 SPF)
  61. Compression mode                         : Lossy
  62. Stream size                              : 414 MiB (8%)
  63. Language                                 : Chinese
  64. Service kind                             : Complete Main
  65. Default                                  : No
  66. Forced                                   : No
  67. Text #1
  68. ID                                       : 4
  69. Format                                   : PGS
  70. Muxing mode                              : zlib
  71. Codec ID                                 : S_HDMV/PGS
  72. Codec ID/Info                            : Picture based subtitle format used on BDs/HD-DVDs
  73. Language                                 : Chinese
  74. Default                                  : Yes
  75. Forced                                   : No
  76. Text #2
  77. ID                                       : 5
  78. Format                                   : PGS
  79. Muxing mode                              : zlib
  80. Codec ID                                 : S_HDMV/PGS
  81. Codec ID/Info                            : Picture based subtitle format used on BDs/HD-DVDs
  82. Language                                 : English
  83. Default                                  : No
  84. Forced                                   : No
  85. Menu
  86. 00:00:00.000                             : en:Chapter 01
  87. 00:07:22.000                             : en:Chapter 02
  88. 00:12:39.708                             : en:Chapter 03
  89. 00:18:08.625                             : en:Chapter 04
  90. 00:22:56.333                             : en:Chapter 05
  91. 00:28:54.083                             : en:Chapter 06
  92. 00:32:19.291                             : en:Chapter 07
  93. 00:34:13.458                             : en:Chapter 08
  94. 00:38:43.791                             : en:Chapter 09
  95. 00:42:37.416                             : en:Chapter 10
  96. 00:46:53.000                             : en:Chapter 11
  97. 00:50:06.291                             : en:Chapter 12
  98. 00:55:05.583                             : en:Chapter 13
  99. 00:58:11.416                             : en:Chapter 14
  100. 01:04:37.458                             : en:Chapter 15
  101. 01:08:14.708                             : en:Chapter 16
  102. 01:13:24.541                             : en:Chapter 17
  103. 01:17:06.000                             : en:Chapter 18
  104. 01:22:39.166                             : en:Chapter 19
  105. 01:28:31.458                             : en:Chapter 20





此处一般会放置磁力链或种子下载链接,不过此链接需要注册会员才能看到,点击“立即注册”
磁力链下载【下载链接仅对注册会员开放,登陆后可见】
BT9527电影天堂 1、BT9527电影天堂提供的BT文件均来源于互联网抓取,只供网友学习交流、技术提升使用。
2、我们遵守BitTorrent点对点协议原则,任何版权问题请联系原资源发布商,我们不处理任何版权纠纷,谢谢!如有争议请联系邮箱:BT9527#hotmail.com(#换成@)
3、如果您发现某页面或地址有错误,请联系站长邮箱BT9527#hotmail.com(#换成@),我们会尽快处理。您的热心是对BT9527电影天堂最大的支持。
4、本站建议去正规影院观看电影以支持电影行业发展。
最新回复 (0)

你可以在 登录 or 注册 后,对此帖发表评论!

返回
发新帖