天才不能承受之重[中特效字幕].The.Unbearable.Weight.of.Massive.Talent.2022.1080p.AMZN.WEB-DL.DDP5.1.H264-HDBWEB 6.61GB

版主小s 5月前 190

✔资源类型:WEB-1080P   ✔电影年份:2022   ✔电影地区:欧美   ✔电影分类:喜剧

◎译  名 天才不能承受之重 / 超重天才 / 超吉任务(台) / 丧尽癫才(港) / 天才无法承受之重 / 不能承受的天才之重
◎片  名 The Unbearable Weight of Massive Talent
◎年  代 2022
◎产  地 美国
◎类  别 喜剧 / 动作 / 惊悚 / 犯罪
◎语  言 英语
◎上映日期 2022-03-12(西南偏南电影节) / 2022-04-22(美国)
◎IMDb链接 https://www.imdb.com/title/tt11291274/
◎豆瓣评分 7.2/10 (1107人评价)
◎豆瓣链接 https://movie.douban.com/subject/34890458/
◎片  长 107分钟
◎导  演 汤姆·戈米肯 Tom Gormican (id:1337274)
◎编  剧 汤姆·戈米肯 Tom Gormican (id:1337274)
       凯文·埃滕 Kevin Etten  (id:1470955)
◎演  员 尼古拉斯·凯奇 Nicolas Cage (id:1054455)
       佩德罗·帕斯卡 Pedro Pascal (id:1329628)
       蒂凡尼·哈迪斯 Tiffany Haddish (id:1194813)
       莎朗·豪根 Sharon Horgan (id:1305370)
       帕科·莱昂 Paco León (id:1028211)
       尼尔·帕特里克·哈里斯 Neil Patrick Harris (id:1017896)
       莉莉·莫·辛 Lily Mo Sheen (id:1004937)
       亚历桑德拉·马斯特罗纳迪 Alessandra Mastronardi (id:1199222)
       雅各布·西皮奥 Jacob Scipio (id:1426522)
       卡特琳·万科娃 Katrin Vankova  (id:1470956)
       黛米·摩尔 Demi Moore (id:1047988)
       安娜·麦克唐纳 Anna MacDonald  (id:1470957)
       大卫·戈登·格林 David Gordon Green (id:1000217)
       伊克·巴里霍尔兹 Ike Barinholtz (id:1004936)
       卢克·麦昆 Luke McQueen  (id:1470958)
       乔安娜·波宾 Joanna Bobin (id:1449107)
       曼纽尔陶勒 Manuel Tallafé (id:1342635)
       里卡德·巴拉达 Ricard Balada (id:1454965)
       杰米·奥多尼斯 Jaime Ordó?ez (id:1377606)
       丽贝卡·芬奇 Rebecca Finch (id:1465426)
       卡罗琳·博尔顿 Caroline Boulton (id:1367467)
       比约恩·弗赖贝格 Bj?rn Freiberg (id:1409305)
       艾丽·简 Eli Jane (id:1327291)
       哈里·陶乐西 Harry Taurasi (id:1452066)
       András Korcsmáros András Korcsmáros (id:1198072)
       尼克·威特曼 Nick Wittman (id:1415466)
       帕科·德尔加多 Paco Delgado (id:1326166)

◎简  介
  尼古拉斯·凯奇(Nicolas Cage)有新片了,这次他要在电影里演自己。                                       
                                    该片主角就是尼古拉斯·凯奇本人,他疯狂的渴望在昆汀·塔伦蒂诺的下部电影里得到一个角色,他经常会和自己脑海中一个90年代的自己对话,后者不断吐槽他“老是接烂片”、“再也不是当年那个电影明星”了。                                       
                                    讲述破产边缘的凯奇为了100万美元的酬劳去参加一个亿万富翁粉丝(佩德罗·帕斯卡 饰)的生日派对,但这位富豪是一个危险的毒枭。当凯奇被一名CIA特工招募后,事情发生了意想不到的转变,为了拯救自己和亲人,他被迫出演一个终生难忘的角色——尼古拉斯·凯奇,用他最具标志性和最受喜爱的银幕角色来履行自己的传奇人生。                                       
                                    《才华不能承受之重》会有多个桥段向凯奇的代表作致敬,包括《离开拉斯维加斯》(Leaving Las Vegas)、《变脸》(Face-Off)、《极速60秒》(Gone in 60 ...
  1. ##### MediaInfo ######
  2. General
  3. Unique ID                                : 260071700390952815412423306747266379317 (0xC3A7FCCFE267D63DF76BEE54BA26AE35)
  4. Complete name                            : 天才不能承受之重.The.Unbearable.Weight.of.Massive.Talent.2022.1080p.AMZN.WEB-DL.DDP5.1.H264-HDBWEB.mkv
  5. Format                                   : Matroska
  6. Format version                           : Version 4
  7. File size                                : 6.60 GiB
  8. Duration                                 : 1 h 46 min
  9. Overall bit rate                         : 8 848 kb/s
  10. Encoded date                             : UTC 2022-06-09 11:49:18
  11. Writing application                      : mkvmerge v66.0.0 ('Josie') 64-bit
  12. Writing library                          : libebml v1.4.2 + libmatroska v1.6.4
  13. Video
  14. ID                                       : 1
  15. Format                                   : AVC
  16. Format/Info                              : Advanced Video Codec
  17. Format profile                           : High@L4
  18. Format settings                          : CABAC / 4 Ref Frames
  19. Format settings, CABAC                   : Yes
  20. Format settings, Reference frames        : 4 frames
  21. Codec ID                                 : V_MPEG4/ISO/AVC
  22. Duration                                 : 1 h 46 min
  23. Bit rate mode                            : Constant
  24. Bit rate                                 : 8 182 kb/s
  25. Nominal bit rate                         : 10 000 kb/s
  26. Width                                    : 1 920 pixels
  27. Height                                   : 800 pixels
  28. Display aspect ratio                     : 2.40:1
  29. Frame rate mode                          : Constant
  30. Frame rate                               : 23.976 (24000/1001/53354) FPS
  31. Color space                              : YUV
  32. Chroma subsampling                       : 4:2:0
  33. Bit depth                                : 8 bits
  34. Scan type                                : Progressive
  35. Bits/(Pixel*Frame)                       : 0.222
  36. Stream size                              : 6.11 GiB (92%)
  37. Default                                  : Yes
  38. Forced                                   : No
  39. Color range                              : Limited
  40. Color primaries                          : BT.709
  41. Transfer characteristics                 : BT.709
  42. Matrix coefficients                      : BT.709
  43. Audio
  44. ID                                       : 2
  45. Format                                   : E-AC-3
  46. Format/Info                              : Enhanced AC-3
  47. Commercial name                          : Dolby Digital Plus
  48. Codec ID                                 : A_EAC3
  49. Duration                                 : 1 h 46 min
  50. Bit rate mode                            : Constant
  51. Bit rate                                 : 640 kb/s
  52. Channel(s)                               : 6 channels
  53. Channel layout                           : L R C LFE Ls Rs
  54. Sampling rate                            : 48.0 kHz
  55. Frame rate                               : 31.250 FPS (1536 SPF)
  56. Compression mode                         : Lossy
  57. Stream size                              : 489 MiB (7%)
  58. Language                                 : English
  59. Service kind                             : Complete Main
  60. Default                                  : Yes
  61. Forced                                   : No
  62. Text
  63. ID                                       : 3
  64. Format                                   : PGS
  65. Muxing mode                              : zlib
  66. Codec ID                                 : S_HDMV/PGS
  67. Codec ID/Info                            : Picture based subtitle format used on BDs/HD-DVDs
  68. Duration                                 : 1 h 37 min
  69. Bit rate                                 : 50.8 kb/s
  70. Count of elements                        : 2447
  71. Stream size                              : 35.4 MiB (1%)
  72. Title                                    : 中英特效@GTQ
  73. Language                                 : Chinese
  74. Default                                  : Yes
  75. Forced                                   : No





此处一般会放置磁力链或种子下载链接,不过此链接需要注册会员才能看到,点击“立即注册”
磁力链下载【下载链接仅对注册会员开放,登陆后可见】
BT9527电影天堂 1、BT9527电影天堂提供的BT文件均来源于互联网抓取,只供网友学习交流、技术提升使用。
2、我们遵守BitTorrent点对点协议原则,任何版权问题请联系原资源发布商,我们不处理任何版权纠纷,谢谢!如有争议请联系邮箱:BT9527#hotmail.com(#换成@)
3、如果您发现某页面或地址有错误,请联系站长邮箱BT9527#hotmail.com(#换成@),我们会尽快处理。您的热心是对BT9527电影天堂最大的支持。
4、本站建议去正规影院观看电影以支持电影行业发展。
最新回复 (0)

你可以在 登录 or 注册 后,对此帖发表评论!

返回
发新帖