忌日快乐2[国英多音轨/简繁英字幕].Happy.Death.Day.2U.2019.2160p.HDR.UHD.BluRay.DTS-HD.MA.5.1.2Audio.x265-10bit-ENTHD 13.59GB

版主小s 5月前 231

✔资源类型:BD-4K   ✔电影年份:2019   ✔电影地区:欧美   ✔电影分类:悬疑

◎译  名 忌日快乐2 / 死亡无限2次LOOP(港) / 祝你忌日快乐(台) / Happy Death Day 2 / Happy Death Day to You / 生日惊魂2
◎片  名 Happy Death Day 2U
◎年  代 2019
◎产  地 美国
◎类  别 悬疑 / 惊悚 / 恐怖
◎语  言 英语
◎上映日期 2019-02-13(美国)
◎IMDb链接 https://www.imdb.com/title/tt8155288/
◎豆瓣评分 6.6/10 (88805人评价)
◎豆瓣链接 https://movie.douban.com/subject/30209818/
◎片  长 100分钟
◎导  演 克里斯托弗·兰登 Christopher Landon (id:1032310)
◎编  剧 克里斯托弗·兰登 Christopher Landon (id:1032310)
       斯科特·洛布德尔 Scott Lobdell (id:1382495)
◎演  员 杰西卡·罗德 Jessica Rothe (id:1325899)
       伊瑟尔·布罗萨德 Israel Broussard (id:1023036)
       露比·莫迪恩 Ruby Modine (id:1365373)
       苏拉·沙玛 Suraj Sharma (id:1322230)
       史蒂夫·齐西斯 Steve Zissis (id:1171259)
       瑞秋·马休斯 Rachel Matthews (id:1382498)
       查尔斯·艾特肯 Charles Aitken (id:1254553)
       莎拉·亚金 Sarah Yarkin (id:1392141)
       凯莱布·斯比尔亚兹 Caleb Spillyards (id:1382507)
       吉吉·埃内塔 GiGi Erneta (id:1377681)
       劳拉·克利夫顿 Laura Clifton (id:1382496)
       温迪·米克洛维奇 Wendy Miklovic (id:1405783)
       凯勒布·拿奎恩 Kaleb Naquin (id:1405784)
       肯尼斯·以色列 Kenneth Israel (id:1405785)
       泰内娅·因崔亚戈 Tenea Intriago (id:1382502)
       布莱恩·克恩 Blaine Kern III (id:1382503)
       川川 Tran Tran (id:1405786)
       卡瑞尔拉·史密斯 Cariella Smith (id:1382504)
       罗布·梅洛 Rob Mello (id:1344027)
       林赛·G·史密斯 Lindsey G. Smith (id:1382506)
       飞·武 Phi Vu (id:1382501)
       莎拉·贝纳尼 Sarah Bennani (id:1405787)
       杰奎琳·哈里斯·马瑟恩 Jacqueline Harris Matherne (id:1405788)
       西尔维娅·格雷丝·克里姆 Sylvia Grace Crim (id:1400840)
       拉姆齐·安德森 Ramsey Anderson (id:1382499)
       吉奈尔·伊森 Jenelle Eason (id:1414783)
       朱莉娅·霍特 Julia Holt (id:1414787)
       杰弗里·帕特里克 Jeffrey Patrick (id:1414791)
       詹姆斯·W·埃弗莫尔 James W. Evermore (id:1432642)
       伍德罗·爱德华德·麦卡锡 Woodrow Eduard McCarthy (id:1432817)
       伊桑·艾哈特 Ethan Airhart (id:1432824)
       托尼·查普曼·斯蒂尔 Toney Chapman Steele (id:1432828)
       布伦特·菲利普·亨利 Brent Phillip Henry (id:1432829)
       蒂莫西·辛里奇斯 Timothy Hinrichs (id:1432831)
       布伦达·柯林 Brenda Currin (id:1432969)

◎简  介
  停靠在路边的汽车内,黄毛小子瑞恩(飞·武 Phi Vu 饰)被其他汽车的喇叭惊醒,他昏头昏脑走下来,一路晃进校园,进了实验室。由于正在研究的装置耗能巨大,学院院长气急败坏责令瑞恩停掉在研项目。糟糕的事不止于此,事后不久他就被一个带着面具的家伙给杀掉了。然而,他再度醒来, 发现自己还躺在车里,而接下来发生的一切都和“梦境”中的一样。瑞恩惶恐不安,找到了好基友卡特·戴维斯(伊瑟尔·布罗萨德 Israel Broussard 饰)及其女友泰莉·格尔布曼(杰西卡·罗德 Jessica Rothe 饰)。                                    
                                这种生死轮回对于泰莉再熟悉不过了,她首先跟瑞恩讲述自己的经历,随后告诉他想终止轮回的方法只有找到凶手。而接下来,他们不仅发现瑞恩那台装置似乎是造成轮回的一个成因,而且泰莉再次回到了那个可怕的早晨……
  1. ##### MediaInfo ######
  2. General
  3. Unique ID                                : 58634387144653477244495533006793658549 (0x2C1C927B8529D5A9FE616F7934DAD0B5)
  4. Complete name                            : Happy.Death.Day.2U.2019.2160p.HDR.UHD.BluRay.DTS-HD.MA.5.1.2Audio.x265-10bit-ENTHD.mkv
  5. Format                                   : Matroska
  6. Format version                           : Version 4
  7. File size                                : 13.6 GiB
  8. Duration                                 : 1 h 39 min
  9. Overall bit rate mode                    : Variable
  10. Overall bit rate                         : 19.5 Mb/s
  11. Movie name                               : Happy Death Day 2U
  12. Encoded date                             : UTC 2022-06-09 04:38:35
  13. Writing application                      : mkvmerge v67.0.0 ('Under Stars') 64-bit
  14. Writing library                          : libebml v1.4.2 + libmatroska v1.6.4
  15. Cover                                    : Yes
  16. Attachments                              : cover.jpg
  17. Video
  18. ID                                       : 1
  19. Format                                   : HEVC
  20. Format/Info                              : High Efficiency Video Coding
  21. Format profile                           : Main 10@L5.1@High
  22. HDR format                               : SMPTE ST 2086, HDR10 compatible
  23. Codec ID                                 : V_MPEGH/ISO/HEVC
  24. Duration                                 : 1 h 39 min
  25. Bit rate                                 : 11.7 Mb/s
  26. Width                                    : 3 840 pixels
  27. Height                                   : 1 600 pixels
  28. Display aspect ratio                     : 2.40:1
  29. Frame rate mode                          : Constant
  30. Frame rate                               : 23.976 (24000/1001/53354) FPS
  31. Color space                              : YUV
  32. Chroma subsampling                       : 4:2:0
  33. Bit depth                                : 10 bits
  34. Bits/(Pixel*Frame)                       : 0.080
  35. Stream size                              : 8.18 GiB (60%)
  36. Title                                    : @HDSky
  37. Writing library                          : x265 - H.265/HEVC codec
  38. Default                                  : Yes
  39. Forced                                   : No
  40. Color range                              : Limited
  41. Color primaries                          : BT.2020
  42. Transfer characteristics                 : PQ
  43. Matrix coefficients                      : BT.2020 non-constant
  44. Mastering display color primaries        : Display P3
  45. Mastering display luminance              : min: 0.0050 cd/m2, max: 1000 cd/m2
  46. Maximum Content Light Level              : 962 cd/m2
  47. Maximum Frame-Average Light Level        : 491 cd/m2
  48. Audio #1
  49. ID                                       : 2
  50. ID in the original source medium         : 4352 (0x1100)
  51. Format                                   : DTS XLL
  52. Format/Info                              : Digital Theater Systems
  53. Commercial name                          : DTS-HD Master Audio
  54. Codec ID                                 : A_DTS
  55. Duration                                 : 1 h 39 min
  56. Bit rate mode                            : Variable
  57. Bit rate                                 : 3 777 kb/s
  58. Channel(s)                               : 6 channels
  59. Channel layout                           : C L R Ls Rs LFE
  60. Sampling rate                            : 48.0 kHz
  61. Frame rate                               : 93.750 FPS (512 SPF)
  62. Bit depth                                : 24 bits
  63. Compression mode                         : Lossless
  64. Stream size                              : 2.64 GiB (19%)
  65. Title                                    : English
  66. Language                                 : English
  67. Default                                  : Yes
  68. Forced                                   : No
  69. Original source medium                   : Blu-ray
  70. Audio #2
  71. ID                                       : 3
  72. ID in the original source medium         : 4355 (0x1103)
  73. Format                                   : DTS XLL
  74. Format/Info                              : Digital Theater Systems
  75. Commercial name                          : DTS-HD Master Audio
  76. Codec ID                                 : A_DTS
  77. Duration                                 : 1 h 39 min
  78. Bit rate mode                            : Variable
  79. Bit rate                                 : 3 837 kb/s
  80. Channel(s)                               : 6 channels
  81. Channel layout                           : C L R Ls Rs LFE
  82. Sampling rate                            : 48.0 kHz
  83. Frame rate                               : 93.750 FPS (512 SPF)
  84. Bit depth                                : 24 bits
  85. Compression mode                         : Lossless
  86. Stream size                              : 2.68 GiB (20%)
  87. Title                                    : Mandarin
  88. Language                                 : Chinese
  89. Default                                  : Yes
  90. Forced                                   : No
  91. Original source medium                   : Blu-ray
  92. Text #1
  93. ID                                       : 4
  94. ID in the original source medium         : 4768 (0x12A0)
  95. Format                                   : PGS
  96. Muxing mode                              : zlib
  97. Codec ID                                 : S_HDMV/PGS
  98. Codec ID/Info                            : Picture based subtitle format used on BDs/HD-DVDs
  99. Duration                                 : 1 h 37 min
  100. Bit rate                                 : 40.1 kb/s
  101. Count of elements                        : 3326
  102. Stream size                              : 28.0 MiB (0%)
  103. Title                                    : ENG
  104. Language                                 : English
  105. Default                                  : Yes
  106. Forced                                   : No
  107. Original source medium                   : Blu-ray
  108. Text #2
  109. ID                                       : 5
  110. ID in the original source medium         : 4769 (0x12A1)
  111. Format                                   : PGS
  112. Muxing mode                              : zlib
  113. Codec ID                                 : S_HDMV/PGS
  114. Codec ID/Info                            : Picture based subtitle format used on BDs/HD-DVDs
  115. Duration                                 : 1 h 35 min
  116. Bit rate                                 : 23.3 kb/s
  117. Count of elements                        : 2467
  118. Stream size                              : 16.0 MiB (0%)
  119. Title                                    : CHS
  120. Language                                 : Chinese
  121. Default                                  : Yes
  122. Forced                                   : No
  123. Original source medium                   : Blu-ray
  124. Text #3
  125. ID                                       : 6
  126. ID in the original source medium         : 4770 (0x12A2)
  127. Format                                   : PGS
  128. Muxing mode                              : zlib
  129. Codec ID                                 : S_HDMV/PGS
  130. Codec ID/Info                            : Picture based subtitle format used on BDs/HD-DVDs
  131. Duration                                 : 1 h 35 min
  132. Bit rate                                 : 24.0 kb/s
  133. Count of elements                        : 2467
  134. Stream size                              : 16.5 MiB (0%)
  135. Title                                    : CHT
  136. Language                                 : Chinese
  137. Default                                  : Yes
  138. Forced                                   : No
  139. Original source medium                   : Blu-ray
  140. Text #4
  141. ID                                       : 7
  142. ID in the original source medium         : 4771 (0x12A3)
  143. Format                                   : PGS
  144. Muxing mode                              : zlib
  145. Codec ID                                 : S_HDMV/PGS
  146. Codec ID/Info                            : Picture based subtitle format used on BDs/HD-DVDs
  147. Duration                                 : 1 h 35 min
  148. Bit rate                                 : 55.7 kb/s
  149. Count of elements                        : 2765
  150. Stream size                              : 38.2 MiB (0%)
  151. Title                                    : CHS&ENG
  152. Language                                 : Chinese
  153. Default                                  : Yes
  154. Forced                                   : No
  155. Original source medium                   : Blu-ray
  156. Text #5
  157. ID                                       : 8
  158. ID in the original source medium         : 4772 (0x12A4)
  159. Format                                   : PGS
  160. Muxing mode                              : zlib
  161. Codec ID                                 : S_HDMV/PGS
  162. Codec ID/Info                            : Picture based subtitle format used on BDs/HD-DVDs
  163. Duration                                 : 1 h 35 min
  164. Bit rate                                 : 55.9 kb/s
  165. Count of elements                        : 2765
  166. Stream size                              : 38.4 MiB (0%)
  167. Title                                    : CHT&ENG
  168. Language                                 : Chinese
  169. Default                                  : Yes
  170. Forced                                   : No
  171. Original source medium                   : Blu-ray
  172. Text #6
  173. ID                                       : 9
  174. ID in the original source medium         : 4773 (0x12A5)
  175. Format                                   : PGS
  176. Muxing mode                              : zlib
  177. Codec ID                                 : S_HDMV/PGS
  178. Codec ID/Info                            : Picture based subtitle format used on BDs/HD-DVDs
  179. Duration                                 : 1 h 39 min
  180. Bit rate                                 : 19.5 kb/s
  181. Count of elements                        : 2536
  182. Stream size                              : 13.9 MiB (0%)
  183. Title                                    : CHS
  184. Language                                 : Chinese
  185. Default                                  : Yes
  186. Forced                                   : No
  187. Original source medium                   : Blu-ray
  188. Text #7
  189. ID                                       : 10
  190. ID in the original source medium         : 4774 (0x12A6)
  191. Format                                   : PGS
  192. Muxing mode                              : zlib
  193. Codec ID                                 : S_HDMV/PGS
  194. Codec ID/Info                            : Picture based subtitle format used on BDs/HD-DVDs
  195. Duration                                 : 1 h 39 min
  196. Bit rate                                 : 20.0 kb/s
  197. Count of elements                        : 2536
  198. Stream size                              : 14.3 MiB (0%)
  199. Title                                    : CHT
  200. Language                                 : Chinese
  201. Default                                  : Yes
  202. Forced                                   : No
  203. Original source medium                   : Blu-ray
  204. Menu
  205. 00:00:00.000                             : en:Chapter 01
  206. 00:07:57.268                             : en:Chapter 02
  207. 00:16:01.418                             : en:Chapter 03
  208. 00:24:21.668                             : en:Chapter 04
  209. 00:34:01.581                             : en:Chapter 05
  210. 00:42:05.773                             : en:Chapter 06
  211. 00:49:50.237                             : en:Chapter 07
  212. 00:57:19.060                             : en:Chapter 08
  213. 01:06:25.523                             : en:Chapter 09
  214. 01:13:20.479                             : en:Chapter 10
  215. 01:20:57.727                             : en:Chapter 11
  216. 01:27:36.501                             : en:Chapter 12



此处一般会放置磁力链或种子下载链接,不过此链接需要注册会员才能看到,点击“立即注册”
磁力链下载【下载链接仅对注册会员开放,登陆后可见】
BT9527电影天堂 1、BT9527电影天堂提供的BT文件均来源于互联网抓取,只供网友学习交流、技术提升使用。
2、我们遵守BitTorrent点对点协议原则,任何版权问题请联系原资源发布商,我们不处理任何版权纠纷,谢谢!如有争议请联系邮箱:BT9527#hotmail.com(#换成@)
3、如果您发现某页面或地址有错误,请联系站长邮箱BT9527#hotmail.com(#换成@),我们会尽快处理。您的热心是对BT9527电影天堂最大的支持。
4、本站建议去正规影院观看电影以支持电影行业发展。
最新回复 (0)

你可以在 登录 or 注册 后,对此帖发表评论!

返回
发新帖