薄荷糖[中英字幕].Peppermint.Candy.1999.BluRay.1080p.x265.10bit-MiniHD 7.88GB

版主小s 5月前 508

✔资源类型:暂未分类   ✔电影年份:更 早   ✔电影地区:韩国   ✔电影分类:剧情

◎译  名 薄荷糖 / Peppermint Candy
◎片  名 ????
◎年  代 1999
◎产  地 韩国 / 日本
◎类  别 剧情
◎语  言 韩语
◎上映日期 1999-10-14(釜山电影节) / 2000-01-01(韩国)
◎IMDb链接 https://www.imdb.com/title/tt0247613/
◎豆瓣评分 8.5/10 (63314人评价)
◎豆瓣链接 https://movie.douban.com/subject/1303145/
◎片  长 130分钟
◎导  演 李沧东 Chang-dong Lee (id:1103667)
◎编  剧 李沧东 Chang-dong Lee (id:1103667)
◎演  员 薛景求 Kyung-gu Sol (id:1045576)
       文素丽 So-ri Moon (id:1010047)
       金汝珍 Yeo-jin Kim (id:1011005)
       徐情 Jung Suh (id:1018740)
       高瑞熙 Seo-hie Ko (id:1213408)
       李代延 Dae-yeon Lee (id:1042754)
       金敬益 Kyung-ik Kim (id:1382166)
       金仁权 In-kwon Kim (id:1006493)
       孔炯轸 Hyeong-jin Kong (id:1191201)
       刘承睦 Yoo Seung-Mok (id:1331784)
       朴成妍 Seong-yeon Park (id:1394090)
       赵汉哲 Han-chul Jo (id:1386180)
       池大汉 Dae-han Ji (id:1351122)
       姜善淑 Seon-sook Kang (id:1391222)
       裴长秀 Jang-su Bae (id:1424325)
       张浚浩 Joon-ho Jang (id:1383983)
       徐进元 Jin-won Seo (id:1437870)
       刘延洙 Yeon-soo Yoo (id:1401422)
       孙钟焕 Jong-hwan Son (id:1459523)
       杨姬瓊 Hee-kyung Yang (id:1464555)
       上田诚 Makoto Ueda (id:1299717)
       明桂南 Gye-nam Myeong (id:1134600)
       金炯求 Hyung-ku Kim (id:1288539)
       李江山 Kang-sang Lee (id:1434665)
       崔铉基 Hyun-Ki Choi (id:1434573)
       金玄 Hyun Kim (id:1393478)

◎简  介
  1999年春天,对生活绝望的中年男子金永浩(薛景求饰),落魄地参与了同学会,他神经质般哭叫,并在高架桥上面对迎面而来的火车嘶喊:我要回去!                                    
                                火车带着记忆倒走,三天前的金永浩已然崩溃,欲寻了断,但是被神秘人物叫去见一个人;再之后是1994年,他生活放荡,对妻子(金丽珍饰)冷若冰霜又出手大打;1987年身为警察的他,手段凶悍;1984年、1980年一直到1978年,直到第7个片段通过初恋情人(文素利饰)以及“薄荷糖”这一点题信物,影片才给出是什么碾压过主人公的生命,粉碎其美好的答案。
  1. ##### MediaInfo ######
  2. General
  3. Unique ID                                : 226040317682140023211739548100225379061 (0xAA0DC819F8898EA3ABE98EE5840BAAF5)
  4. Complete name                            : Peppermint.Candy.1999.BluRay.1080p.x265.10bit-MiniHD.mkv
  5. Format                                   : Matroska
  6. Format version                           : Version 4
  7. File size                                : 7.88 GiB
  8. Duration                                 : 2 h 10 min
  9. Overall bit rate                         : 8 657 kb/s
  10. Encoded date                             : UTC 2017-06-01 14:20:36
  11. Writing application                      : mkvmerge v11.0.0 ('Alive') 64bit
  12. Writing library                          : libebml v1.3.4 + libmatroska v1.4.5
  13. Video
  14. ID                                       : 1
  15. Format                                   : HEVC
  16. Format/Info                              : High Efficiency Video Coding
  17. Codec ID                                 : V_MPEGH/ISO/HEVC
  18. Duration                                 : 2 h 10 min
  19. Bit rate                                 : 7 845 kb/s
  20. Width                                    : 1 920 pixels
  21. Height                                   : 1 080 pixels
  22. Display aspect ratio                     : 16:9
  23. Frame rate mode                          : Constant
  24. Frame rate                               : 23.976 (24000/1001/53354) FPS
  25. Bits/(Pixel*Frame)                       : 0.158
  26. Stream size                              : 7.14 GiB (91%)
  27. Default                                  : Yes
  28. Forced                                   : No
  29. Audio
  30. ID                                       : 2
  31. Format                                   : AC-3
  32. Format/Info                              : Audio Coding 3
  33. Commercial name                          : Dolby Digital
  34. Codec ID                                 : A_AC3
  35. Duration                                 : 2 h 10 min
  36. Bit rate mode                            : Constant
  37. Bit rate                                 : 640 kb/s
  38. Channel(s)                               : 6 channels
  39. Channel layout                           : L R C LFE Ls Rs
  40. Sampling rate                            : 48.0 kHz
  41. Frame rate                               : 31.250 FPS (1536 SPF)
  42. Compression mode                         : Lossy
  43. Stream size                              : 596 MiB (7%)
  44. Language                                 : Korean
  45. Service kind                             : Complete Main
  46. Default                                  : Yes
  47. Forced                                   : No
  48. Text #1
  49. ID                                       : 3
  50. Format                                   : PGS
  51. Muxing mode                              : zlib
  52. Codec ID                                 : S_HDMV/PGS
  53. Codec ID/Info                            : Picture based subtitle format used on BDs/HD-DVDs
  54. Language                                 : Korean
  55. Default                                  : Yes
  56. Forced                                   : No
  57. Text #2
  58. ID                                       : 4
  59. Format                                   : PGS
  60. Muxing mode                              : zlib
  61. Codec ID                                 : S_HDMV/PGS
  62. Codec ID/Info                            : Picture based subtitle format used on BDs/HD-DVDs
  63. Language                                 : English
  64. Default                                  : No
  65. Forced                                   : No
  66. Text #3
  67. ID                                       : 5
  68. Format                                   : PGS
  69. Muxing mode                              : zlib
  70. Codec ID                                 : S_HDMV/PGS
  71. Codec ID/Info                            : Picture based subtitle format used on BDs/HD-DVDs
  72. Language                                 : Chinese
  73. Default                                  : No
  74. Forced                                   : No
  75. Text #4
  76. ID                                       : 6
  77. Format                                   : PGS
  78. Muxing mode                              : zlib
  79. Codec ID                                 : S_HDMV/PGS
  80. Codec ID/Info                            : Picture based subtitle format used on BDs/HD-DVDs
  81. Language                                 : Chinese
  82. Default                                  : No
  83. Forced                                   : No
  84. Menu
  85. 00:00:00.000                             : en:Chapter 01
  86. 00:12:13.023                             : en:Chapter 02
  87. 00:21:35.752                             : en:Chapter 03
  88. 00:30:51.641                             : en:Chapter 04
  89. 00:38:47.158                             : en:Chapter 05
  90. 00:47:04.238                             : en:Chapter 06
  91. 00:56:23.129                             : en:Chapter 07
  92. 01:05:13.993                             : en:Chapter 08
  93. 01:13:05.506                             : en:Chapter 09
  94. 01:24:01.036                             : en:Chapter 10
  95. 01:30:51.696                             : en:Chapter 11
  96. 01:35:58.002                             : en:Chapter 12
  97. 01:43:14.438                             : en:Chapter 13
  98. 01:49:55.755                             : en:Chapter 14
  99. 01:59:48.181                             : en:Chapter 15





此处一般会放置磁力链或种子下载链接,不过此链接需要注册会员才能看到,点击“立即注册”
磁力链下载【下载链接仅对注册会员开放,登陆后可见】
BT9527电影天堂 1、BT9527电影天堂提供的BT文件均来源于互联网抓取,只供网友学习交流、技术提升使用。
2、我们遵守BitTorrent点对点协议原则,任何版权问题请联系原资源发布商,我们不处理任何版权纠纷,谢谢!如有争议请联系邮箱:BT9527#hotmail.com(#换成@)
3、如果您发现某页面或地址有错误,请联系站长邮箱BT9527#hotmail.com(#换成@),我们会尽快处理。您的热心是对BT9527电影天堂最大的支持。
4、本站建议去正规影院观看电影以支持电影行业发展。
最新回复 (0)

你可以在 登录 or 注册 后,对此帖发表评论!

返回
发新帖