窗台上的男人[国英多音轨/简英特效字幕].Man.on.a.Ledge.2012.BluRay.2160p.x265.10bit.HDR.4Audios-MiniHD 25.08GB

版主小s 5月前 198

✔资源类型:BD-4K   ✔电影年份:2012   ✔电影地区:欧美   ✔电影分类:惊悚

◎译  名 窗台上的男人 / 惊天换日(台) / 天际100分钟(港) / 顶楼救援
◎片  名 Man on a Ledge
◎年  代 2012
◎产  地 美国
◎类  别 惊悚 / 犯罪
◎语  言 英语 / 西班牙语
◎上映日期 2012-01-27(美国)
◎IMDb链接 https://www.imdb.com/title/tt1568338/
◎豆瓣评分 7.2/10 (25720人评价)
◎豆瓣链接 https://movie.douban.com/subject/4206477/
◎片  长 102分钟
◎导  演 阿斯各·莱斯 Asger Leth (id:1305596)
◎编  剧 埃里希·霍贝尔 Erich Hoeber (id:1319518)
       乔·霍贝尔 Jon Hoeber (id:1319517)
       Pablo F. Fenjves Pablo F. Fenjves (id:1024071)
       克里斯·格拉克 Chris Gorak (id:1285166)
◎演  员 萨姆·沃辛顿 Sam Worthington (id:1000147)
       伊丽莎白·班克斯 Elizabeth Banks (id:1004571)
       杰米·贝尔 Jamie Bell (id:1053616)
       艾德·哈里斯 Ed Harris (id:1048024)
       安东尼·麦凯 Anthony Mackie (id:1027217)
       爱德华·伯恩斯 Edward Burns (id:1075587)
       提图斯·维里沃 Titus Welliver (id:1165630)
       珍尼希斯·罗德里格兹 Genesis Rodriguez (id:1171207)
       凯拉·塞吉维克 Kyra Sedgwick (id:1025201)
       利兹·霍坦 Liz Holtan (id:1323313)
       亨利·杰克曼 Henry Jackman (id:1315635)

◎简  介
  尼克·卡西迪(萨姆·沃辛顿 Sam Worthington 饰)曾经是一名正直负责的警察,却因涉嫌盗窃4000万美元的钻石而获刑25年监禁。他唯一一个离开监狱的机会就是参加父亲葬礼,并在葬礼上趁机逃跑。然而令人不解的是,他并没有出境,而是到曼哈顿酒店开了个24楼的房间,精心擦洗一番后,只为在最繁华的纽约的注视中坠楼。他的举动很快引来了大批警察和媒体,一名年轻的谈判专家莉迪亚(伊丽莎白·班克斯 Elizabeth Banks 饰)试图将其劝回屋内,然而在循序渐进的劝说中,莉迪亚意识到尼克是被钻石的拥有者大卫(艾德·哈里斯 Ed Harris 饰)陷害入狱的,目的则是为了高额保险金。然而更令莉迪亚想不到的是,尼克的自杀只是一个声东击西的幌子,他的弟弟和女友正在街对面的珠宝库大楼中实施复仇计划……
  1. ##### MediaInfo ######
  2. General
  3. Unique ID                                : 67929153923124700888089808755088843702 (0x331AADDDACD3316DE371C8FC552A63B6)
  4. Complete name                            : Man.on.a.Ledge.2012.BluRay.2160p.x265.10bit.HDR.4Audios-MiniHD.mkv
  5. Format                                   : Matroska
  6. Format version                           : Version 4
  7. File size                                : 25.1 GiB
  8. Duration                                 : 1 h 42 min
  9. Overall bit rate mode                    : Variable
  10. Overall bit rate                         : 35.1 Mb/s
  11. Encoded date                             : UTC 2019-05-20 01:12:54
  12. Writing application                      : mkvmerge v27.0.0 ('Metropolis') 64-bit
  13. Writing library                          : libebml v1.3.6 + libmatroska v1.4.9
  14. Video
  15. ID                                       : 1
  16. Format                                   : HEVC
  17. Format/Info                              : High Efficiency Video Coding
  18. Format profile                           : Main 10@L5.1@High
  19. HDR format                               : SMPTE ST 2086, HDR10 compatible
  20. Codec ID                                 : V_MPEGH/ISO/HEVC
  21. Duration                                 : 1 h 42 min
  22. Bit rate                                 : 29.4 Mb/s
  23. Width                                    : 3 840 pixels
  24. Height                                   : 1 600 pixels
  25. Display aspect ratio                     : 2.40:1
  26. Frame rate mode                          : Constant
  27. Frame rate                               : 23.976 (24000/1001/53354) FPS
  28. Color space                              : YUV
  29. Chroma subsampling                       : 4:2:0
  30. Bit depth                                : 10 bits
  31. Bits/(Pixel*Frame)                       : 0.200
  32. Stream size                              : 21.0 GiB (84%)
  33. Title                                    : mUHD-FRDS
  34. Writing library                          : x265 3.0+2-ge71f790de+23:[Windows][GCC 8.2.1][64 bit] Yuuki 10bit
  35. Encoding settings                        : rc=crf / crf=21.0000 / qcomp=0.70 / qpstep=4 / stats-write=0 / stats-read=0 / vbv-maxrate=160000 / vbv-bufsize=160000 / vbv-init=0.9 / crf-max=0.0 / crf-min=0.0 / no-lossless / no-cu-lossless / aq-mode=1 / aq-strength=0.80 / cbqpoffs=-3 / crqpoffs=-3 / ipratio=1.40 / pbratio=1.30 / psy-rd=2.00 / psy-rdoq=3.00 / deblock=-1:-1 / ref=5 / limit-refs=1 / limit-modes / bframes=8 / b-adapt=2 / bframe-bias=0 / b-pyramid / b-intra / weightp / weightb / min-keyint=23 / max-keyint=240 / rc-lookahead=60 / gop-lookahead=0 / NTMzNTQ=uuDQuD2mJt9fsCf / scenecut=40 / radl=0 / max-cu-size=32 / min-cu-size=8 / me=3 / subme=4 / merange=25 / rdoq-level=2 / rd=4 / rdpenalty=1 / dynamic-rd=0.00 / no-rd-refine / ----- / no-cutree / no-sao / no-rect / no-amp / no-open-gop / wpp / pmode / pme / no-psnr / no-ssim / nr-intra=0 / nr-inter=0 / no-constrained-intra / no-strong-intra-smoothing / max-tu-size=32 / tu-inter-depth=2 / tu-intra-depth=2 / limit-tu=0 / qg-size=32 / qpmax=69 / qpmin=0 / ----- / cpuid=533541111039 / frame-threads=6 / numa-pools=54,- / log-level=2 / input-csp=1 / input-res=3840x1600 / interlace=0 / level-idc=0 / high-tier=1 / uhd-bd=0 / no-allow-non-conformance / no-repeat-headers / no-aud / hrd / info / hash=0 / no-temporal-layers / lookahead-slices=0 / no-splice / no-intra-refresh / no-ssim-rd / signhide / no-tskip / max-merge=3 / temporal-mvp / no-analyze-src-pics / no-sao-non-deblock / no-early-skip / no-rskip / no-fast-intra / no-tskip-fast / no-splitrd-skip / zone-count=0 / no-strict-cbr / no-rc-grain / no-const-vbv / sar=0 / overscan=0 / videoformat=5 / range=0 / colorprim=9 / transfer=16 / colormatrix=9 / chromaloc=0 / display-window=0 / master-display=G(13250,34500)B(7500,3000)R(34000,16000)WP(15635,16450)L(10000000,1) / max-cll=1000,327 / min-luma=0 / max-luma=1023 / log2-max-poc-lsb=8 / vui-timing-info / vui-hrd-info / slices=1 / no-opt-qp-pps / no-opt-ref-list-length-pps / no-multi-pass-opt-rps / scenecut-bias=0.05 / no-opt-cu-delta-qp / no-aq-motion / hdr / hdr-opt / no-dhdr10-opt / no-idr-recovery-sei / analysis-reuse-level=5 / scale-factor=0 / refine-intra=0 / refine-inter=0 / refine-mv=0 / refine-ctu-distortion=0 / no-limit-sao / ctu-info=0 / no-lowpass-dct / refine-analysis-type=0 / copy-pic=1 / max-ausize-factor=1.0 / no-dynamic-refine / no-single-sei / no-hevc-aq / qp-adaptation-range=1.00
  36. Default                                  : Yes
  37. Forced                                   : No
  38. Color range                              : Limited
  39. Color primaries                          : BT.2020
  40. Transfer characteristics                 : PQ
  41. Matrix coefficients                      : BT.2020 non-constant
  42. Mastering display color primaries        : Display P3
  43. Mastering display luminance              : min: 0.0001 cd/m2, max: 1000 cd/m2
  44. Maximum Content Light Level              : 1000 cd/m2
  45. Maximum Frame-Average Light Level        : 327 cd/m2
  46. Audio #1
  47. ID                                       : 2
  48. Format                                   : MLP FBA 16-ch
  49. Format/Info                              : Meridian Lossless Packing FBA with 16-channel presentation
  50. Commercial name                          : Dolby TrueHD with Dolby Atmos
  51. Codec ID                                 : A_TRUEHD
  52. Duration                                 : 1 h 42 min
  53. Bit rate mode                            : Variable
  54. Bit rate                                 : 4 148 kb/s
  55. Maximum bit rate                         : 6 540 kb/s
  56. Channel(s)                               : 8 channels
  57. Channel layout                           : L R C LFE Ls Rs Lb Rb
  58. Sampling rate                            : 48.0 kHz
  59. Frame rate                               : 1 200.000 FPS (40 SPF)
  60. Compression mode                         : Lossless
  61. Delay relative to video                  : 18 ms
  62. Stream size                              : 2.97 GiB (12%)
  63. Language                                 : English
  64. Default                                  : Yes
  65. Forced                                   : No
  66. Number of dynamic objects                : 11
  67. Bed channel count                        : 1 channel
  68. Bed channel configuration                : LFE
  69. Audio #2
  70. ID                                       : 3
  71. Format                                   : AC-3
  72. Format/Info                              : Audio Coding 3
  73. Commercial name                          : Dolby Digital
  74. Codec ID                                 : A_AC3
  75. Duration                                 : 1 h 42 min
  76. Bit rate mode                            : Constant
  77. Bit rate                                 : 640 kb/s
  78. Channel(s)                               : 6 channels
  79. Channel layout                           : L R C LFE Ls Rs
  80. Sampling rate                            : 48.0 kHz
  81. Frame rate                               : 31.250 FPS (1536 SPF)
  82. Compression mode                         : Lossy
  83. Stream size                              : 469 MiB (2%)
  84. Language                                 : English
  85. Service kind                             : Complete Main
  86. Default                                  : No
  87. Forced                                   : No
  88. Audio #3
  89. ID                                       : 4
  90. Format                                   : AC-3
  91. Format/Info                              : Audio Coding 3
  92. Commercial name                          : Dolby Digital
  93. Codec ID                                 : A_AC3
  94. Duration                                 : 1 h 42 min
  95. Bit rate mode                            : Constant
  96. Bit rate                                 : 448 kb/s
  97. Channel(s)                               : 2 channels
  98. Channel layout                           : L R
  99. Sampling rate                            : 48.0 kHz
  100. Frame rate                               : 31.250 FPS (1536 SPF)
  101. Compression mode                         : Lossy
  102. Stream size                              : 328 MiB (1%)
  103. Title                                    : 东影上译
  104. Language                                 : Chinese
  105. Service kind                             : Complete Main
  106. Default                                  : No
  107. Forced                                   : No
  108. Audio #4
  109. ID                                       : 5
  110. Format                                   : AC-3
  111. Format/Info                              : Audio Coding 3
  112. Commercial name                          : Dolby Digital
  113. Codec ID                                 : A_AC3
  114. Duration                                 : 1 h 42 min
  115. Bit rate mode                            : Constant
  116. Bit rate                                 : 256 kb/s
  117. Channel(s)                               : 2 channels
  118. Channel layout                           : L R
  119. Sampling rate                            : 48.0 kHz
  120. Frame rate                               : 31.250 FPS (1536 SPF)
  121. Compression mode                         : Lossy
  122. Stream size                              : 187 MiB (1%)
  123. Title                                    : 央视国配
  124. Language                                 : Chinese
  125. Service kind                             : Complete Main
  126. Default                                  : No
  127. Forced                                   : No
  128. Text #1
  129. ID                                       : 6
  130. Format                                   : PGS
  131. Muxing mode                              : zlib
  132. Codec ID                                 : S_HDMV/PGS
  133. Codec ID/Info                            : Picture based subtitle format used on BDs/HD-DVDs
  134. Duration                                 : 1 h 34 min
  135. Bit rate                                 : 41.7 kb/s
  136. Count of elements                        : 2682
  137. Stream size                              : 28.1 MiB (0%)
  138. Language                                 : English
  139. Default                                  : Yes
  140. Forced                                   : No
  141. Text #2
  142. ID                                       : 7
  143. Format                                   : PGS
  144. Muxing mode                              : zlib
  145. Codec ID                                 : S_HDMV/PGS
  146. Codec ID/Info                            : Picture based subtitle format used on BDs/HD-DVDs
  147. Duration                                 : 1 h 37 min
  148. Bit rate                                 : 36.7 kb/s
  149. Count of elements                        : 3341
  150. Stream size                              : 25.6 MiB (0%)
  151. Title                                    : 东影上译简中特效
  152. Language                                 : Chinese
  153. Default                                  : No
  154. Forced                                   : No
  155. Text #3
  156. ID                                       : 8
  157. Format                                   : PGS
  158. Muxing mode                              : zlib
  159. Codec ID                                 : S_HDMV/PGS
  160. Codec ID/Info                            : Picture based subtitle format used on BDs/HD-DVDs
  161. Duration                                 : 1 h 37 min
  162. Bit rate                                 : 38.3 kb/s
  163. Count of elements                        : 3369
  164. Stream size                              : 26.6 MiB (0%)
  165. Title                                    : 央视国配简中特效
  166. Language                                 : Chinese
  167. Default                                  : No
  168. Forced                                   : No
  169. Text #4
  170. ID                                       : 9
  171. Format                                   : PGS
  172. Muxing mode                              : zlib
  173. Codec ID                                 : S_HDMV/PGS
  174. Codec ID/Info                            : Picture based subtitle format used on BDs/HD-DVDs
  175. Duration                                 : 1 h 35 min
  176. Bit rate                                 : 36.3 kb/s
  177. Count of elements                        : 2585
  178. Stream size                              : 24.9 MiB (0%)
  179. Title                                    : 简英双语
  180. Language                                 : Chinese
  181. Default                                  : No
  182. Forced                                   : No
  183. Menu
  184. 00:00:00.000                             : :Chapter 1
  185. 00:04:04.744                             : :Chapter 2
  186. 00:12:41.135                             : :Chapter 3
  187. 00:18:51.421                             : :Chapter 4
  188. 00:24:20.333                             : :Chapter 5
  189. 00:29:47.118                             : :Chapter 6
  190. 00:36:09.000                             : :Chapter 7
  191. 00:43:01.662                             : :Chapter 8
  192. 00:49:07.736                             : :Chapter 9
  193. 00:55:50.013                             : :Chapter 10
  194. 01:02:57.815                             : :Chapter 11
  195. 01:09:22.241                             : :Chapter 12
  196. 01:15:50.963                             : :Chapter 13
  197. 01:21:27.757                             : :Chapter 14
  198. 01:26:16.254                             : :Chapter 15
  199. 01:32:40.304                             : :Chapter 16
  200. 01:42:22.678                             : :Chapter 17





此处一般会放置磁力链或种子下载链接,不过此链接需要注册会员才能看到,点击“立即注册”
磁力链下载【下载链接仅对注册会员开放,登陆后可见】
BT9527电影天堂 1、BT9527电影天堂提供的BT文件均来源于互联网抓取,只供网友学习交流、技术提升使用。
2、我们遵守BitTorrent点对点协议原则,任何版权问题请联系原资源发布商,我们不处理任何版权纠纷,谢谢!如有争议请联系邮箱:BT9527#hotmail.com(#换成@)
3、如果您发现某页面或地址有错误,请联系站长邮箱BT9527#hotmail.com(#换成@),我们会尽快处理。您的热心是对BT9527电影天堂最大的支持。
4、本站建议去正规影院观看电影以支持电影行业发展。
最新回复 (0)

你可以在 登录 or 注册 后,对此帖发表评论!

返回
发新帖