追击者[中英字幕].The.Chaser.2008.BluRay.1080p.x265.10bit-MiniHD 4.93GB

版主小s 5月前 378

✔资源类型:暂未分类   ✔电影年份:2008   ✔电影地区:韩国   ✔电影分类:剧情

◎译  名 追击者 / The Chaser
◎片  名 ???
◎年  代 2008
◎产  地 韩国
◎类  别 剧情 / 惊悚 / 犯罪
◎语  言 韩语
◎上映日期 2008-02-14(韩国)
◎IMDb链接 https://www.imdb.com/title/tt1190539/
◎豆瓣评分 8.4/10 (215418人评价)
◎豆瓣链接 https://movie.douban.com/subject/3006309/
◎片  长 125分钟
◎导  演 罗泓轸 Hong-jin Na (id:1274385)
◎编  剧 罗泓轸 Hong-jin Na (id:1274385)
       洪元灿 Won-Chan Hong (id:1349036)
◎演  员 河正宇 Jung-woo Ha (id:1032680)
       金允石 Yoon-suk Kim (id:1310942)
       徐英姬 Yeong-hie Seo (id:1018688)
       金裕贞 Yoo-Jeong Kim (id:1313572)
       郑仁基 In-gi Jeong (id:1320459)
       朴孝朱 Hyo-ju Park (id:1029817)
       夏成光 Seong-gwang Ha (id:1410232)
       郑西仁 Seo-In Jeong (id:1423713)
         (id:1399902)
       朴镇宇 Park Jin-woo (id:1376719)
       张宥 Sang-hee Lee (id:1448121)
       金都炫 Do-Hyeon Kim (id:1458411)
       吕茂英 Moo-yeong Yeo (id:1397112)
       俞智妍 ??? (id:1382612)
       具本雄 Bon-woong Koo (id:1391810)
       李仁喆 Lee In-chul (id:1380176)
       郑基燮 Gi-seop Jeong (id:1381664)
       闵庆珍 Kyoung-jin Min (id:1373552)
       宋永世 Song Yo-sep (id:1356071)
       赵德济 Jo Duk-je (id:1386557)
       李钟求 Jong-goo Lee (id:1387369)
       林亨泰 Im Hyung Tae (id:1464741)
       郑升求 Seung-koo Jhung (id:1432555)
       金鲜珉 Sun-min Kim (id:1302605)
       李民复 Min-bok Lee (id:1306144)
       蔡京华 Kyung-hwa Chae (id:1312176)

◎简  介
  深夜的首尔街头,出租车上频频被插上写有电话的应召女郎的卡片。前刑警忠浩(金允石 Yun-seok Kim 饰)手下就有着一批应召女郎,表面粗暴野蛮的他,对姐妹们貌似毫不讲理。最近忠浩手下的姐妹频频发生失踪事件,他认为是有人故意把她们拐卖。暴跳如雷的他猛翻登记簿寻找蛛丝 马迹,最后确定了一个嫌疑电话尾数为4885。正好这个电话这时呼入需要应召女郎。忠浩让美珍(徐英姬 Yeong-hie Seo 饰)前去。                                       
                                    正在家里发烧卧床的美珍想拒绝,无奈拗不过忠浩,留下七岁女儿在家后还是出门了。忠浩让她记住对方的地址并且用短信告诉他,叮嘱她别搞砸。忠浩亦同时尾随而去,想揪出这个拐卖贩子。美珍跟着4885池英民(河正宇 Jung-woo Ha 饰)进入房间时发觉一切已经太迟,在这个毫无信号的地方,池英民要将她残忍杀害……                                       
                                    失去美珍联系的忠浩开始四处寻找,偶遇到池英民后...

◎获奖情况 (共3项)
  第3届亚洲电影大奖 (2009)
  最佳男主角(提名)
   └──河正宇 (id:1032680)
  最佳编剧(提名)
   └──罗泓轸 (id:1274385)
  最佳剪接
   └──金鲜珉 (id:1302605)

  1. ##### MediaInfo ######
  2. General
  3. Unique ID                                : 207533922736674995220302170550082713766 (0x9C21946277478A4693EE31212F13B8A6)
  4. Complete name                            : The.Chaser.2008.BluRay.1080p.x265.10bit-MiniHD.mkv
  5. Format                                   : Matroska
  6. Format version                           : Version 4
  7. File size                                : 4.93 GiB
  8. Duration                                 : 2 h 4 min
  9. Overall bit rate                         : 5 649 kb/s
  10. Encoded date                             : UTC 2017-09-04 11:19:09
  11. Writing application                      : mkvmerge v11.0.0 ('Alive') 64bit
  12. Writing library                          : libebml v1.3.4 + libmatroska v1.4.5
  13. Video
  14. ID                                       : 1
  15. Format                                   : HEVC
  16. Format/Info                              : High Efficiency Video Coding
  17. Codec ID                                 : V_MPEGH/ISO/HEVC
  18. Duration                                 : 2 h 4 min
  19. Bit rate                                 : 4 957 kb/s
  20. Width                                    : 1 920 pixels
  21. Height                                   : 816 pixels
  22. Display aspect ratio                     : 2.35:1
  23. Frame rate mode                          : Constant
  24. Frame rate                               : 23.976 (24000/1001/53354) FPS
  25. Bits/(Pixel*Frame)                       : 0.132
  26. Stream size                              : 4.33 GiB (88%)
  27. Default                                  : Yes
  28. Forced                                   : No
  29. Audio
  30. ID                                       : 2
  31. Format                                   : AC-3
  32. Format/Info                              : Audio Coding 3
  33. Commercial name                          : Dolby Digital
  34. Codec ID                                 : A_AC3
  35. Duration                                 : 2 h 4 min
  36. Bit rate mode                            : Constant
  37. Bit rate                                 : 640 kb/s
  38. Channel(s)                               : 6 channels
  39. Channel layout                           : L R C LFE Ls Rs
  40. Sampling rate                            : 48.0 kHz
  41. Frame rate                               : 31.250 FPS (1536 SPF)
  42. Compression mode                         : Lossy
  43. Stream size                              : 572 MiB (11%)
  44. Language                                 : Korean
  45. Service kind                             : Complete Main
  46. Default                                  : Yes
  47. Forced                                   : No
  48. Text #1
  49. ID                                       : 3
  50. Format                                   : PGS
  51. Muxing mode                              : zlib
  52. Codec ID                                 : S_HDMV/PGS
  53. Codec ID/Info                            : Picture based subtitle format used on BDs/HD-DVDs
  54. Duration                                 : 1 h 57 min
  55. Bit rate                                 : 7 642 b/s
  56. Count of elements                        : 2611
  57. Stream size                              : 6.41 MiB (0%)
  58. Language                                 : Korean
  59. Default                                  : Yes
  60. Forced                                   : No
  61. Text #2
  62. ID                                       : 4
  63. Format                                   : PGS
  64. Muxing mode                              : zlib
  65. Codec ID                                 : S_HDMV/PGS
  66. Codec ID/Info                            : Picture based subtitle format used on BDs/HD-DVDs
  67. Duration                                 : 1 h 58 min
  68. Bit rate                                 : 7 112 b/s
  69. Count of elements                        : 2682
  70. Stream size                              : 6.05 MiB (0%)
  71. Language                                 : English
  72. Default                                  : No
  73. Forced                                   : No
  74. Text #3
  75. ID                                       : 5
  76. Format                                   : PGS
  77. Muxing mode                              : zlib
  78. Codec ID                                 : S_HDMV/PGS
  79. Codec ID/Info                            : Picture based subtitle format used on BDs/HD-DVDs
  80. Duration                                 : 2 h 1 min
  81. Bit rate                                 : 8 970 b/s
  82. Count of elements                        : 2738
  83. Stream size                              : 7.80 MiB (0%)
  84. Language                                 : Chinese
  85. Default                                  : No
  86. Forced                                   : No
  87. Text #4
  88. ID                                       : 6
  89. Format                                   : PGS
  90. Muxing mode                              : zlib
  91. Codec ID                                 : S_HDMV/PGS
  92. Codec ID/Info                            : Picture based subtitle format used on BDs/HD-DVDs
  93. Duration                                 : 2 h 1 min
  94. Bit rate                                 : 9 322 b/s
  95. Count of elements                        : 2738
  96. Stream size                              : 8.11 MiB (0%)
  97. Language                                 : Chinese
  98. Default                                  : No
  99. Forced                                   : No
  100. Text #5
  101. ID                                       : 7
  102. Format                                   : PGS
  103. Muxing mode                              : zlib
  104. Codec ID                                 : S_HDMV/PGS
  105. Codec ID/Info                            : Picture based subtitle format used on BDs/HD-DVDs
  106. Duration                                 : 2 h 1 min
  107. Bit rate                                 : 8 969 b/s
  108. Count of elements                        : 2738
  109. Stream size                              : 7.80 MiB (0%)
  110. Language                                 : Chinese
  111. Default                                  : No
  112. Forced                                   : No
  113. Text #6
  114. ID                                       : 8
  115. Format                                   : PGS
  116. Muxing mode                              : zlib
  117. Codec ID                                 : S_HDMV/PGS
  118. Codec ID/Info                            : Picture based subtitle format used on BDs/HD-DVDs
  119. Duration                                 : 2 h 1 min
  120. Bit rate                                 : 9 322 b/s
  121. Count of elements                        : 2738
  122. Stream size                              : 8.11 MiB (0%)
  123. Language                                 : Chinese
  124. Default                                  : No
  125. Forced                                   : No
  126. Menu
  127. 00:00:00.000                             : en:Chapter 01
  128. 00:04:05.828                             : en:Chapter 02
  129. 00:16:17.977                             : en:Chapter 03
  130. 00:28:38.758                             : en:Chapter 04
  131. 00:42:49.191                             : en:Chapter 05
  132. 00:54:58.920                             : en:Chapter 06
  133. 01:06:12.426                             : en:Chapter 07
  134. 01:21:17.289                             : en:Chapter 08
  135. 01:33:34.609                             : en:Chapter 09
  136. 01:45:05.674                             : en:Chapter 10
  137. 01:50:15.025                             : en:Chapter 11
  138. 02:01:22.483                             : en:Chapter 12





此处一般会放置磁力链或种子下载链接,不过此链接需要注册会员才能看到,点击“立即注册”
磁力链下载【下载链接仅对注册会员开放,登陆后可见】
BT9527电影天堂 1、BT9527电影天堂提供的BT文件均来源于互联网抓取,只供网友学习交流、技术提升使用。
2、我们遵守BitTorrent点对点协议原则,任何版权问题请联系原资源发布商,我们不处理任何版权纠纷,谢谢!如有争议请联系邮箱:BT9527#hotmail.com(#换成@)
3、如果您发现某页面或地址有错误,请联系站长邮箱BT9527#hotmail.com(#换成@),我们会尽快处理。您的热心是对BT9527电影天堂最大的支持。
4、本站建议去正规影院观看电影以支持电影行业发展。
最新回复 (0)

你可以在 登录 or 注册 后,对此帖发表评论!

返回
发新帖