纸月亮[中英字幕].Paper.Moon.1973.BluRay.1080p.x265.10bit-MiniHD 9.09GB

版主小s 5月前 178

✔资源类型:暂未分类   ✔电影年份:更 早   ✔电影地区:欧美   ✔电影分类:剧情

◎译  名 纸月亮
◎片  名 Paper Moon
◎年  代 1973
◎产  地 美国
◎类  别 剧情 / 喜剧 / 犯罪
◎语  言 英语
◎上映日期 1973-05-09
◎IMDb链接 https://www.imdb.com/title/tt0070510/
◎豆瓣评分 8.6/10 (10708人评价)
◎豆瓣链接 https://movie.douban.com/subject/1303357/
◎片  长 102 分钟
◎导  演 彼得·博格丹诺维奇 Peter Bogdanovich (id:1022754)
◎编  剧 乔·大卫·布朗 Joe David Brown (id:1046148)
       阿尔文·萨金特 Alvin Sargent (id:1000667)
       P.J.乔森 P.J. Johnson (id:1382238)
◎演  员 瑞安·奥尼尔 Ryan O'Neal (id:1000153)
       塔图姆·奥尼尔 Tatum O'Neal (id:1040556)
       玛德莲·卡恩 Madeline Kahn (id:1027251)
       P.J.乔森 P.J. Johnson (id:1382238)
       诺布尔·威林厄姆 Noble Willingham (id:1167853)
       伯顿·吉列姆 Burton Gilliam (id:1100416)
       Hugh Gillin Hugh Gillin (id:1099174)
       兰迪·奎德 Randy Quaid (id:1027846)
       Art Ellison Art Ellison (id:1079748)
       Jessie Lee Fulton Jessie Lee Fulton (id:1083667)
       Desmond Dhooge Desmond Dhooge (id:1087651)
       James N. Harrell James N. Harrell (id:1096609)
       约翰·席勒曼 John Hillerman (id:1098125)
       弗兰克·马歇尔 Frank Marshall (id:1049939)
       威廉·弗莱德金 William Friedkin (id:1049822)
       弗朗西斯·福特·科波拉 Francis Ford Coppola (id:1054419)
       彼得·博格丹诺维奇 Peter Bogdanovich (id:1022754)
       拉兹洛·科瓦奇 László Kovács (id:1048332)
       弗娜·菲尔兹 Verna Fields (id:1000909)
       Gary Chason Gary Chason (id:1280525)
       约翰·P·奥斯汀 John P. Austin (id:1277589)
       波莉·普拉特 Polly Platt (id:1005348)
       波莉·普拉特 Polly Platt (id:1005348)
       Rolf Miller Rolf Miller (id:1292107)
       Ray Gosnell Jr. Ray Gosnell Jr. (id:1091089)
       Gary Daigler Gary Daigler (id:1281736)

◎简  介
  莫塞斯(瑞安·奥尼尔 Ryan O'Neal 饰)并不是一个本分的商人,即使干的是推销圣经的行当,也并不能阻止他使用一些上不了台面的手段。一场车祸夺取了莫塞斯的情人的性命,情人留下的一个小女儿埃迪(塔图姆·奥尼尔 Tatum O'Neal 饰)成了莫塞斯的负担。在向肇事者要得200美元后,莫塞斯决定将埃迪送往她的姨妈家去。                                    
                                在路上,埃迪展现了她天才般的口才和推销才能,让莫塞斯大赚了一笔,这对假父女之间也产生了真感情。然而,得意忘形的两人不慎掉入了一个圈套之中。一番波折之后,有惊无险的二人终于抵达了终点,但看着即将离自己而去的埃迪,一种名叫“不舍”的情感充满了莫塞斯的内心。

◎获奖情况 (共4项)
  第46届奥斯卡金像奖 (1974)
  最佳女配角
   └──塔图姆·奥尼尔 (id:1040556)
  最佳女配角(提名)
   └──玛德莲·卡恩 (id:1027251)
  最佳改编剧本(提名)
   └──阿尔文·萨金特 (id:1000667)
  最佳音响(提名)

  1. ##### MediaInfo ######
  2. General
  3. Unique ID                                : 255138003516496158946631697001953661098 (0xBFF1CAC6909BD25B887D7651D56890AA)
  4. Complete name                            : Paper.Moon.1973.BluRay.1080p.x265.10bit-MiniHD.mkv
  5. Format                                   : Matroska
  6. Format version                           : Version 4
  7. File size                                : 9.08 GiB
  8. Duration                                 : 1 h 48 min
  9. Overall bit rate                         : 12.0 Mb/s
  10. Encoded date                             : UTC 2017-09-01 04:57:04
  11. Writing application                      : mkvmerge v11.0.0 ('Alive') 64bit
  12. Writing library                          : libebml v1.3.4 + libmatroska v1.4.5
  13. Video
  14. ID                                       : 1
  15. Format                                   : HEVC
  16. Format/Info                              : High Efficiency Video Coding
  17. Codec ID                                 : V_MPEGH/ISO/HEVC
  18. Duration                                 : 1 h 48 min
  19. Bit rate                                 : 11.4 Mb/s
  20. Width                                    : 1 920 pixels
  21. Height                                   : 1 080 pixels
  22. Display aspect ratio                     : 16:9
  23. Frame rate mode                          : Constant
  24. Frame rate                               : 23.976 (24000/1001/53354) FPS
  25. Bits/(Pixel*Frame)                       : 0.230
  26. Stream size                              : 8.66 GiB (95%)
  27. Default                                  : Yes
  28. Forced                                   : No
  29. Audio
  30. ID                                       : 2
  31. Format                                   : AC-3
  32. Format/Info                              : Audio Coding 3
  33. Commercial name                          : Dolby Digital
  34. Codec ID                                 : A_AC3
  35. Duration                                 : 1 h 48 min
  36. Bit rate mode                            : Constant
  37. Bit rate                                 : 320 kb/s
  38. Channel(s)                               : 2 channels
  39. Channel layout                           : L R
  40. Sampling rate                            : 48.0 kHz
  41. Frame rate                               : 31.250 FPS (1536 SPF)
  42. Compression mode                         : Lossy
  43. Stream size                              : 249 MiB (3%)
  44. Language                                 : English
  45. Service kind                             : Complete Main
  46. Default                                  : Yes
  47. Forced                                   : No
  48. Text #1
  49. ID                                       : 3
  50. Format                                   : PGS
  51. Muxing mode                              : zlib
  52. Codec ID                                 : S_HDMV/PGS
  53. Codec ID/Info                            : Picture based subtitle format used on BDs/HD-DVDs
  54. Language                                 : English
  55. Default                                  : Yes
  56. Forced                                   : No
  57. Text #2
  58. ID                                       : 4
  59. Format                                   : PGS
  60. Muxing mode                              : zlib
  61. Codec ID                                 : S_HDMV/PGS
  62. Codec ID/Info                            : Picture based subtitle format used on BDs/HD-DVDs
  63. Language                                 : Chinese
  64. Default                                  : No
  65. Forced                                   : No
  66. Text #3
  67. ID                                       : 5
  68. Format                                   : PGS
  69. Muxing mode                              : zlib
  70. Codec ID                                 : S_HDMV/PGS
  71. Codec ID/Info                            : Picture based subtitle format used on BDs/HD-DVDs
  72. Language                                 : Chinese
  73. Default                                  : No
  74. Forced                                   : No
  75. Menu
  76. 00:00:00.000                             : en:Chapter 01
  77. 00:09:18.182                             : en:Chapter 02
  78. 00:19:07.688                             : en:Chapter 03
  79. 00:29:25.722                             : en:Chapter 04
  80. 00:39:16.771                             : en:Chapter 05
  81. 00:49:30.759                             : en:Chapter 06
  82. 00:59:03.623                             : en:Chapter 07
  83. 01:09:51.979                             : en:Chapter 08
  84. 01:20:41.920                             : en:Chapter 09
  85. 01:30:04.607                             : en:Chapter 10





此处一般会放置磁力链或种子下载链接,不过此链接需要注册会员才能看到,点击“立即注册”
磁力链下载【下载链接仅对注册会员开放,登陆后可见】
BT9527电影天堂 1、BT9527电影天堂提供的BT文件均来源于互联网抓取,只供网友学习交流、技术提升使用。
2、我们遵守BitTorrent点对点协议原则,任何版权问题请联系原资源发布商,我们不处理任何版权纠纷,谢谢!如有争议请联系邮箱:BT9527#hotmail.com(#换成@)
3、如果您发现某页面或地址有错误,请联系站长邮箱BT9527#hotmail.com(#换成@),我们会尽快处理。您的热心是对BT9527电影天堂最大的支持。
4、本站建议去正规影院观看电影以支持电影行业发展。
最新回复 (0)

你可以在 登录 or 注册 后,对此帖发表评论!

返回
发新帖