纽伦堡的审判[中英字幕].Judgment.at.Nuremberg.1961.BluRay.1080p.x265.10bit-MiniHD 9.38GB

版主小s 5月前 193

✔资源类型:暂未分类   ✔电影年份:更 早   ✔电影地区:欧美   ✔电影分类:剧情

◎译  名 纽伦堡的审判 / 纽伦堡大审判 / 劫后升平
◎片  名 Judgment at Nuremberg
◎年  代 1961
◎产  地 美国
◎类  别 剧情 / 历史
◎语  言 英语 / 德语
◎上映日期 1961-12-14
◎IMDb链接 https://www.imdb.com/title/tt0055031/
◎豆瓣评分 9.1/10 (7171人评价)
◎豆瓣链接 https://movie.douban.com/subject/1292589/
◎片  长 179分钟
◎导  演 斯坦利·克雷默 Stanley Kramer (id:1027460)
◎编  剧 阿比·曼 Abby Mann (id:1036997)
◎演  员 斯宾塞·屈塞 Spencer Tracy (id:1002743)
       伯特·兰卡斯特 Burt Lancaster (id:1041141)
       理查德·威德马克 Richard Widmark (id:1013946)
       玛琳·黛德丽 Marlene Dietrich (id:1013957)
       马克西米连·谢尔 Maximilian Schell (id:1036431)
       朱迪·加兰 Judy Garland (id:1017889)
       蒙哥马利·克利夫特 Montgomery Clift (id:1027230)
       维尔纳·克伦佩雷尔 Werner Klemperer (id:1106929)
       雷·蒂尔 Ray Teal (id:1151164)
       卡尔·斯温森 Karl Swenson (id:1156735)
       肯尼斯·麦克纳 Kenneth MacKenna (id:1023450)
       嘉娜·泰勒 Jana Taylor (id:1455446)
       威廉·夏特纳 William Shatner (id:1002704)
       儒道夫·斯特纳德 Rudolph Sternad (id:1298411)
       乔治·米洛 George Milo (id:1292140)
       让·路易 Jean Louis (id:1028414)

◎简  介
  讲述二战后在纽伦堡提审德国纳粹计划的法律关系者,三个被告提审的原因是给犹太人施行断种手术。担任主审判长的是美国人赫鲁特,他主张其中两个被告无罪;而德国司法部长亚林克竟对此事保持沉默,但检查官罗森上校却激烈的指责被告,因此三个人展开激烈的辩论。审讯继续进行下去。而美国的高级官员们希望能在审判中获提德国所犯罪行的良好证明,因此对审判施以极大的压力,但赫鲁特坚守法律的正义立场,给予了最公正的判决。在宣布判决结果时,只有亚林对赫鲁特审判长的态度表示赞赏。

◎获奖情况 (共17项)
  第34届奥斯卡金像奖 (1962)
  最佳影片(提名)
   └──斯坦利·克雷默 (id:1027460)
  最佳导演(提名)
   └──斯坦利·克雷默 (id:1027460)
  最佳男主角
   └──马克西米连·谢尔 (id:1036431)
  最佳男主角(提名)
   └──斯宾塞·屈塞 (id:1002743)
  最佳男配角(提名)
   └──蒙哥马利·克利夫特 (id:1027230)
  最佳女配角(提名)
   └──朱迪·加兰 (id:1017889)
  最佳改编剧本
   └──阿比·曼 (id:1036997)
  黑白片最佳摄影(提名)
   └──厄内斯特`拉斯洛 (id:1048432)
  最佳剪辑(提名)
   └──弗雷德里克·努德森 (id:1003773)
  黑白片最佳艺术指导和布景(提名)
  黑白片最佳服装设计(提名)
   └──让·路易 (id:1028414)

  第19届金球奖 (1962)
  电影类 最佳剧情片(提名)
  电影类 最佳导演
   └──斯坦利·克雷默 (id:1027460)
  电影类 剧情片最佳男主角
   └──马克西米连·谢尔 (id:1036431)
  电影类 最佳男配角(提名)
   └──蒙哥马利·克利夫特 (id:1027230)
  电影类 最佳女配角(提名)
   └──朱迪·加兰 (id:1017889)
  电影类 最佳促进国际了解电影(提名)

  1. ##### MediaInfo ######
  2. General
  3. Unique ID                                : 253671798601143855914695131270240260835 (0xBED7694AC6D2718F888E416E5557D2E3)
  4. Complete name                            : Judgment.at.Nuremberg.1961.BluRay.1080p.x265.10bit-MiniHD.mkv
  5. Format                                   : Matroska
  6. Format version                           : Version 4
  7. File size                                : 9.38 GiB
  8. Duration                                 : 2 h 59 min
  9. Overall bit rate                         : 7 492 kb/s
  10. Encoded date                             : UTC 2017-07-25 06:35:58
  11. Writing application                      : mkvmerge v11.0.0 ('Alive') 64bit
  12. Writing library                          : libebml v1.3.4 + libmatroska v1.4.5
  13. Video
  14. ID                                       : 1
  15. Format                                   : HEVC
  16. Format/Info                              : High Efficiency Video Coding
  17. Codec ID                                 : V_MPEGH/ISO/HEVC
  18. Duration                                 : 2 h 59 min
  19. Bit rate                                 : 6 703 kb/s
  20. Width                                    : 1 790 pixels
  21. Height                                   : 1 080 pixels
  22. Display aspect ratio                     : 5:3
  23. Frame rate mode                          : Constant
  24. Frame rate                               : 23.976 (24000/1001/53354) FPS
  25. Bits/(Pixel*Frame)                       : 0.145
  26. Stream size                              : 8.39 GiB (89%)
  27. Default                                  : Yes
  28. Forced                                   : No
  29. Audio
  30. ID                                       : 2
  31. Format                                   : AC-3
  32. Format/Info                              : Audio Coding 3
  33. Commercial name                          : Dolby Digital
  34. Codec ID                                 : A_AC3
  35. Duration                                 : 2 h 59 min
  36. Bit rate mode                            : Constant
  37. Bit rate                                 : 640 kb/s
  38. Channel(s)                               : 6 channels
  39. Channel layout                           : L R C LFE Ls Rs
  40. Sampling rate                            : 48.0 kHz
  41. Frame rate                               : 31.250 FPS (1536 SPF)
  42. Compression mode                         : Lossy
  43. Stream size                              : 820 MiB (9%)
  44. Language                                 : English
  45. Service kind                             : Complete Main
  46. Default                                  : Yes
  47. Forced                                   : No
  48. Text #1
  49. ID                                       : 3
  50. Format                                   : PGS
  51. Muxing mode                              : zlib
  52. Codec ID                                 : S_HDMV/PGS
  53. Codec ID/Info                            : Picture based subtitle format used on BDs/HD-DVDs
  54. Language                                 : English
  55. Default                                  : Yes
  56. Forced                                   : No
  57. Text #2
  58. ID                                       : 4
  59. Format                                   : PGS
  60. Muxing mode                              : zlib
  61. Codec ID                                 : S_HDMV/PGS
  62. Codec ID/Info                            : Picture based subtitle format used on BDs/HD-DVDs
  63. Language                                 : Chinese
  64. Default                                  : No
  65. Forced                                   : No
  66. Text #3
  67. ID                                       : 5
  68. Format                                   : PGS
  69. Muxing mode                              : zlib
  70. Codec ID                                 : S_HDMV/PGS
  71. Codec ID/Info                            : Picture based subtitle format used on BDs/HD-DVDs
  72. Language                                 : Chinese
  73. Default                                  : No
  74. Forced                                   : No
  75. Menu
  76. 00:00:00.000                             : en:Chapter 01
  77. 00:15:59.166                             : en:Chapter 02
  78. 00:31:58.916                             : en:Chapter 03
  79. 00:49:10.739                             : en:Chapter 04
  80. 01:07:53.152                             : en:Chapter 05
  81. 01:19:44.571                             : en:Chapter 06
  82. 01:32:16.447                             : en:Chapter 07
  83. 01:53:18.666                             : en:Chapter 08
  84. 02:08:00.923                             : en:Chapter 09
  85. 02:24:21.027                             : en:Chapter 10
  86. 02:28:59.472                             : en:Chapter 11
  87. 02:52:06.649                             : en:Chapter 12





此处一般会放置磁力链或种子下载链接,不过此链接需要注册会员才能看到,点击“立即注册”
磁力链下载【下载链接仅对注册会员开放,登陆后可见】
BT9527电影天堂 1、BT9527电影天堂提供的BT文件均来源于互联网抓取,只供网友学习交流、技术提升使用。
2、我们遵守BitTorrent点对点协议原则,任何版权问题请联系原资源发布商,我们不处理任何版权纠纷,谢谢!如有争议请联系邮箱:BT9527#hotmail.com(#换成@)
3、如果您发现某页面或地址有错误,请联系站长邮箱BT9527#hotmail.com(#换成@),我们会尽快处理。您的热心是对BT9527电影天堂最大的支持。
4、本站建议去正规影院观看电影以支持电影行业发展。
最新回复 (0)

你可以在 登录 or 注册 后,对此帖发表评论!

返回
发新帖