瞬息全宇宙[简繁英字幕].Everything.Everywhere.All.At.Once.2022.2160p.WEB-DL.HDR10.HEVC.Atmos.DDP5.1-OPT 14.72GB

版主小s 5月前 244

✔资源类型:BD-4K   ✔电影年份:2022   ✔电影地区:欧美   ✔电影分类:喜剧

◎译  名 瞬息全宇宙 / 妈的多重宇宙(台) / 奇异女侠玩救宇宙(港) / 天马行空(新加坡) / 瞬息各处所有 / 全部世界同时一切
◎片  名 Everything Everywhere All at Once
◎年  代 2022
◎产  地 美国
◎类  别 喜剧 / 奇幻 / 冒险
◎语  言 英语 / 汉语普通话 / 粤语
◎上映日期 2022-03-11(西南偏南电影节) / 2022-03-25(美国)
◎IMDb链接 https://www.imdb.com/title/tt6710474/
◎豆瓣评分 7.7/10 (275010人评价)
◎豆瓣链接 https://movie.douban.com/subject/30314848/
◎片  长 139分钟
◎导  演 丹·关 Dan Kwan (id:1356396)
       丹尼尔·施纳特 Daniel Scheinert (id:1356397)
◎编  剧 丹·关 Dan Kwan (id:1356396)
       丹尼尔·施纳特 Daniel Scheinert (id:1356397)
◎演  员 杨紫琼 Michelle Yeoh (id:1022664)
       斯蒂芬妮·许 Stephanie Hsu (id:1356993)
       关继威 Jonathan Ke Quan (id:1022565)
       吴汉章 James Hong (id:1031824)
       杰米·李·柯蒂斯 Jamie Lee Curtis (id:1041127)
       珍妮·斯蕾特 Jenny Slate (id:1230973)
       塔丽·梅德尔 Tallie Medel (id:1353816)
       岑勇康 Harry Shum Jr. (id:1044718)
       比夫·威夫 Biff Wiff (id:1469370)
       苏妮特·玛尼 Sunita Mani (id:1366880)
       阿隆·拉扎尔 Aaron Lazar (id:1343713)
       布莱恩·勒 Brian Le (id:1456759)
       安迪·黎 Andy Le (id:1456768)
       切尔西·戈德史密斯 Chelsey Goldsmith (id:1469371)
       克雷格·亨宁森 Craig Henningsen (id:1229199)
       安东尼·莫利纳利 Anthony Molinari (id:1045545)
       丹·布朗 Dan Brown (id:1181319)
       帕努瓦特·安东尼·纳纳肯帕诺姆 Panuvat Anthony Nanakornpanom (id:1309119)
       卡拉·玛丽·乔尔简 Cara Marie Chooljian (id:1469372)
       兰达尔·阿切尔 Randall Archer (id:1351135)
       埃夫卡·科瓦拉西尤斯 Efka Kvaraciejus (id:1331229)
       奥德丽·瓦西莱夫斯基 Audrey Wasilewski (id:1328955)
       布恩·平考 Boon Pin Koh (id:1377199)
       蒂莫西·尤里齐 Timothy Eulich (id:1356398)
       西协美智子 Michiko Nishiwaki (id:1041987)
       蒂莫西·斯科特·拉尔斯顿 Timothy Scott Ralston (id:1148643)
       D.Y. Sao D.Y. Sao (id:1239718)
       安东尼·罗素 Anthony Russo (id:1321812)
       乔·罗素 Joe Russo (id:1320870)
       丹尼尔·施纳特 Daniel Scheinert (id:1356397)
       丹·关 Dan Kwan (id:1356396)
       杨紫琼 Michelle Yeoh (id:1022664)
       萨拉·芬兰 Sarah Finn (id:1283741)
       迈克·拉罗卡 Mike Larocca (id:1452625)
       托德·马库拉思 Todd Makurath (id:1452633)
       萨拉·芬兰 Sarah Finn (id:1283741)

◎简  介
  55岁的美国华裔移民伊芙琳(杨紫琼 饰)家庭事业两崩溃。在老父亲生日大寿这天,除了要阻止女儿(许玮伦 饰)暴走出柜、替无用丈夫(关继威 饰)擦屁股,还得去税务局向古板大婶(杰米·李·柯蒂斯 饰)解释不太妙的税务问题。才踏进大楼电梯,软烂丈夫竟摇身一变演起黑客帝国,声称自己是另一个宇宙的版本,而秀莲也是千万宇宙里的其中一个。还来不及理解,邪恶势力已在多元宇宙中蔓延,世界即将毁灭,只有在这个宇宙里,“一无是处”的伊芙琳才能拯救世界……
  1. ##### MediaInfo ######
  2. General
  3. Unique ID                                : 252165914869433745796411080334406092945 (0xBDB5637DEAA4D5E4DC6CDB0B8DFC8891)
  4. Complete name                            : Everything.Everywhere.All.At.Once.2022.2160p.WEB-DL.HDR10.HEVC.Atmos.DDP5.1-OPT.mkv
  5. Format                                   : Matroska
  6. Format version                           : Version 4
  7. File size                                : 14.7 GiB
  8. Duration                                 : 2 h 19 min
  9. Overall bit rate                         : 15.1 Mb/s
  10. Movie name                               : Everything Everywhere All At Once 2022
  11. Encoded date                             : UTC 2022-06-07 09:23:10
  12. Writing application                      : mkvmerge v61.0.0 ('So') 64-bit
  13. Writing library                          : libebml v1.4.2 + libmatroska v1.6.4
  14. Video
  15. ID                                       : 1
  16. Format                                   : HEVC
  17. Format/Info                              : High Efficiency Video Coding
  18. Format profile                           : Main 10@L5@High
  19. HDR format                               : SMPTE ST 2086, HDR10 compatible
  20. Codec ID                                 : V_MPEGH/ISO/HEVC
  21. Duration                                 : 2 h 19 min
  22. Bit rate                                 : 14.3 Mb/s
  23. Width                                    : 3 836 pixels
  24. Height                                   : 2 068 pixels
  25. Display aspect ratio                     : 1.85:1
  26. Frame rate mode                          : Constant
  27. Frame rate                               : 23.976 FPS
  28. Color space                              : YUV
  29. Chroma subsampling                       : 4:2:0 (Type 2)
  30. Bit depth                                : 10 bits
  31. Bits/(Pixel*Frame)                       : 0.075
  32. Stream size                              : 14.0 GiB (95%)
  33. Default                                  : Yes
  34. Forced                                   : No
  35. Color range                              : Limited
  36. Color primaries                          : BT.2020
  37. Transfer characteristics                 : PQ
  38. Matrix coefficients                      : BT.2020 non-constant
  39. Mastering display color primaries        : BT.2020
  40. Mastering display luminance              : min: 0.0050 cd/m2, max: 1000 cd/m2
  41. Maximum Content Light Level              : 1225 cd/m2
  42. Maximum Frame-Average Light Level        : 204 cd/m2
  43. Audio
  44. ID                                       : 2
  45. Format                                   : E-AC-3 JOC
  46. Format/Info                              : Enhanced AC-3 with Joint Object Coding
  47. Commercial name                          : Dolby Digital Plus with Dolby Atmos
  48. Codec ID                                 : A_EAC3
  49. Duration                                 : 2 h 19 min
  50. Bit rate mode                            : Constant
  51. Bit rate                                 : 768 kb/s
  52. Channel(s)                               : 6 channels
  53. Channel layout                           : L R C LFE Ls Rs
  54. Sampling rate                            : 48.0 kHz
  55. Frame rate                               : 31.250 FPS (1536 SPF)
  56. Compression mode                         : Lossy
  57. Stream size                              : 765 MiB (5%)
  58. Language                                 : English
  59. Service kind                             : Complete Main
  60. Default                                  : Yes
  61. Forced                                   : No
  62. Complexity index                         : 16
  63. Number of dynamic objects                : 15
  64. Bed channel count                        : 1 channel
  65. Bed channel configuration                : LFE
  66. Text #1
  67. ID                                       : 3
  68. Format                                   : UTF-8
  69. Codec ID                                 : S_TEXT/UTF8
  70. Codec ID/Info                            : UTF-8 Plain Text
  71. Duration                                 : 2 h 10 min
  72. Bit rate                                 : 42 b/s
  73. Count of elements                        : 1616
  74. Stream size                              : 40.7 KiB (0%)
  75. Language                                 : English
  76. Default                                  : Yes
  77. Forced                                   : No
  78. Text #2
  79. ID                                       : 4
  80. Format                                   : UTF-8
  81. Codec ID                                 : S_TEXT/UTF8
  82. Codec ID/Info                            : UTF-8 Plain Text
  83. Duration                                 : 2 h 17 min
  84. Bit rate                                 : 47 b/s
  85. Count of elements                        : 1722
  86. Stream size                              : 48.1 KiB (0%)
  87. Title                                    : Traditional
  88. Language                                 : Chinese
  89. Default                                  : No
  90. Forced                                   : No
  91. Text #3
  92. ID                                       : 5
  93. Format                                   : UTF-8
  94. Codec ID                                 : S_TEXT/UTF8
  95. Codec ID/Info                            : UTF-8 Plain Text
  96. Duration                                 : 2 h 17 min
  97. Bit rate                                 : 48 b/s
  98. Count of elements                        : 1721
  99. Stream size                              : 49.2 KiB (0%)
  100. Title                                    : 简体中字
  101. Language                                 : Chinese
  102. Default                                  : Yes
  103. Forced                                   : No
  104. Text #4
  105. ID                                       : 6
  106. Format                                   : UTF-8
  107. Codec ID                                 : S_TEXT/UTF8
  108. Codec ID/Info                            : UTF-8 Plain Text
  109. Duration                                 : 2 h 17 min
  110. Bit rate                                 : 48 b/s
  111. Count of elements                        : 1721
  112. Stream size                              : 49.2 KiB (0%)
  113. Title                                    : 繁体中字
  114. Language                                 : Chinese
  115. Default                                  : Yes
  116. Forced                                   : No
  117. Text #5
  118. ID                                       : 7
  119. Format                                   : ASS
  120. Codec ID                                 : S_TEXT/ASS
  121. Codec ID/Info                            : Advanced Sub Station Alpha
  122. Duration                                 : 2 h 17 min
  123. Bit rate                                 : 101 b/s
  124. Count of elements                        : 1721
  125. Compression mode                         : Lossless
  126. Stream size                              : 102 KiB (0%)
  127. Title                                    : 简体中字
  128. Language                                 : Chinese
  129. Default                                  : Yes
  130. Forced                                   : No
  131. Text #6
  132. ID                                       : 8
  133. Format                                   : ASS
  134. Codec ID                                 : S_TEXT/ASS
  135. Codec ID/Info                            : Advanced Sub Station Alpha
  136. Duration                                 : 2 h 17 min
  137. Bit rate                                 : 101 b/s
  138. Count of elements                        : 1721
  139. Compression mode                         : Lossless
  140. Stream size                              : 102 KiB (0%)
  141. Title                                    : 繁体中字
  142. Language                                 : Chinese
  143. Default                                  : Yes
  144. Forced                                   : No





此处一般会放置磁力链或种子下载链接,不过此链接需要注册会员才能看到,点击“立即注册”
磁力链下载【下载链接仅对注册会员开放,登陆后可见】
BT9527电影天堂 1、BT9527电影天堂提供的BT文件均来源于互联网抓取,只供网友学习交流、技术提升使用。
2、我们遵守BitTorrent点对点协议原则,任何版权问题请联系原资源发布商,我们不处理任何版权纠纷,谢谢!如有争议请联系邮箱:BT9527#hotmail.com(#换成@)
3、如果您发现某页面或地址有错误,请联系站长邮箱BT9527#hotmail.com(#换成@),我们会尽快处理。您的热心是对BT9527电影天堂最大的支持。
4、本站建议去正规影院观看电影以支持电影行业发展。
最新回复 (0)

你可以在 登录 or 注册 后,对此帖发表评论!

返回
发新帖