仲夏之恋[中文字幕].A.Summer.Story.1988.BluRay.1080p.DTS-HD.MA.2.0.x265.10bit-CTRLHD 6.75GB

版主小s 5月前 263

✔资源类型:暂未分类   ✔电影年份:更 早   ✔电影地区:欧美   ✔电影分类:剧情

◎译  名 仲夏之恋 / 夏日挽歌
◎片  名 A Summer Story
◎年  代 1988
◎产  地 英国
◎类  别 剧情 / 爱情
◎语  言 英语
◎上映日期 1988-08-11(美国)
◎IMDb链接 https://www.imdb.com/title/tt0096189/
◎豆瓣评分 7.8/10 (737人评价)
◎豆瓣链接 https://movie.douban.com/subject/1295778/
◎片  长 95 分钟
◎导  演 皮尔斯·哈格德 Piers Haggard (id:1032495)
◎编  剧 约翰·高尔斯华绥 John Galsworthy (id:1023899)
       佩内洛普·莫蒂默 Penelope Mortimer (id:1051286)
◎演  员 詹姆斯·维尔比 James Wilby (id:1032304)
       伊莫金·斯塔布斯 Imogen Stubbs (id:1149239)
       苏珊娜·约克 Susannah York (id:1014097)
       约翰·萨维登特 John Savident (id:1296775)
       Ralph Sheldon Ralph Sheldon (id:1297398)
       珍妮·碧万 Jenny Beavan (id:1278169)
       Christine Allsopp Christine Allsopp (id:1277057)
       Stephen Rose Stephen Rose (id:1296050)
       Stevie Hall Stevie Hall (id:1285865)

◎简  介
  律师弗兰克(詹姆斯·维尔拜 James Wilby 饰)因为脚踝受伤而来到了一处偏远的小山村里修养,在那里,他邂逅了名为梅根(伊莫金·斯塔布斯 Imogen Stubbs 饰)的美丽女子。弗兰克的风趣和健谈吸引了梅根的注意,可是梅根此时已经有了未婚夫乔(杰罗姆·弗林 Jerome Flynn 饰)。                                    
                                在一场剪羊毛大会上,弗兰克亦爱上了能歌善舞的梅根,然而两人的这段感情遭到了梅根家人和乔的强烈反对。虽然饱受非议,但这对爱侣还是决定尊重他们内心的选择,两人相约在镇上的火车站碰头,踏上私奔的旅途。然而,当梅根赶往火车站之时,却并没有看到弗兰克的身影,与此同时,弗兰克遇见了大学同学的妹妹,两人度过了甜蜜的三天。
  1. ##### MediaInfo ######
  2. General
  3. Unique ID                                : 216332944415871152251250908183789211260 (0xA2C035A5C6C86331EFE66CCA1B0A8E7C)
  4. Complete name                            : A.Summer.Story.1988.BluRay.1080p.DTS-HD.MA.2.0.x265.10bit-CTRLHD.mkv
  5. Format                                   : Matroska
  6. Format version                           : Version 4
  7. File size                                : 6.74 GiB
  8. Duration                                 : 1 h 36 min
  9. Overall bit rate mode                    : Variable
  10. Overall bit rate                         : 9 984 kb/s
  11. Encoded date                             : UTC 2022-05-11 14:50:09
  12. Writing application                      : mkvmerge v67.0.0 ('Under Stars') 64-bit
  13. Writing library                          : libebml v1.4.2 + libmatroska v1.6.4
  14. Video
  15. ID                                       : 1
  16. Format                                   : HEVC
  17. Format/Info                              : High Efficiency Video Coding
  18. Format profile                           : Main 10@L5@Main
  19. Codec ID                                 : V_MPEGH/ISO/HEVC
  20. Duration                                 : 1 h 36 min
  21. Bit rate                                 : 7 944 kb/s
  22. Width                                    : 1 920 pixels
  23. Height                                   : 1 080 pixels
  24. Display aspect ratio                     : 16:9
  25. Frame rate mode                          : Constant
  26. Frame rate                               : 23.976 (23976/1000/53354) FPS
  27. Color space                              : YUV
  28. Chroma subsampling                       : 4:2:0
  29. Bit depth                                : 10 bits
  30. Bits/(Pixel*Frame)                       : 0.160
  31. Stream size                              : 5.37 GiB (80%)
  32. Writing library                          : x265 2.7+15-b9f5b5d7bf95:[Windows][MSVC 1800][64 bit] 10bit
  33. Encoding settings                        : cpuid=533541173503 / frame-threads=4 / numa-pools=16 / wpp / no-pmode / no-pme / no-psnr / no-ssim / log-level=2 / input-csp=1 / input-res=1920x1080 / interlace=0 / total-frames=0 / level-idc=0 / high-tier=1 / uhd-bd=0 / ref=6 / no-allow-non-conformance / repeat-headers / annexb / no-aud / no-hrd / info / hash=0 / no-temporal-layers / no-open-gop / min-keyint=23 / keyint=250 / gop-lookahead=0 / bframes=8 / b-adapt=2 / b-pyramid / bframe-bias=0 / rc-lookahead=24 / lookahead-slices=6 / NTMzNTQ=uuDQuD2mJt9fsCf / scenecut=40 / radl=0 / no-intra-refresh / ctu=64 / min-cu-size=8 / no-rect / no-amp / max-tu-size=32 / tu-inter-depth=1 / tu-intra-depth=1 / limit-tu=0 / rdoq-level=0 / dynamic-rd=0.00 / no-ssim-rd / signhide / no-tskip / nr-intra=0 / nr-inter=0 / no-constrained-intra / no-strong-intra-smoothing / max-merge=2 / limit-refs=3 / no-limit-modes / me=2 / subme=7 / merange=48 / temporal-mvp / weightp / weightb / no-analyze-src-pics / deblock=0:0 / sao / no-sao-non-deblock / rd=4 / no-early-skip / rskip / no-fast-intra / no-tskip-fast / no-cu-lossless / no-b-intra / no-splitrd-skip / rdpenalty=0 / psy-rd=2.00 / psy-rdoq=0.00 / no-rd-refine / no-lossless / cbqpoffs=0 / crqpoffs=0 / rc=crf / crf=21.0 / qcomp=0.60 / qpstep=4 / stats-write=0 / stats-read=0 / ipratio=1.40 / pbratio=1.30 / aq-mode=3 / aq-strength=1.00 / cutree / zone-count=0 / no-strict-cbr / qg-size=32 / no-rc-grain / qpmax=69 / qpmin=0 / no-const-vbv / sar=0 / overscan=0 / videoformat=5 / range=0 / colorprim=2 / transfer=2 / colormatrix=2 / chromaloc=0 / display-window=0 / max-cll=0,0 / min-luma=0 / max-luma=1023 / log2-max-poc-lsb=8 / vui-timing-info / vui-hrd-info / slices=1 / no-opt-qp-pps / no-opt-ref-list-length-pps / no-multi-pass-opt-rps / scenecut-bias=0.05 / no-opt-cu-delta-qp / aq-motion / no-hdr / no-hdr-opt / no-dhdr10-opt / no-idr-recovery-sei / analysis-reuse-level=5 / scale-factor=0 / refine-intra=0 / refine-inter=0 / refine-mv=0 / no-limit-sao / ctu-info=0 / no-lowpass-dct / refine-mv-type=0 / copy-pic=1 / max-ausize-factor=1.0 / no-dynamic-refine
  34. Default                                  : Yes
  35. Forced                                   : No
  36. Audio
  37. ID                                       : 2
  38. Format                                   : DTS XLL
  39. Format/Info                              : Digital Theater Systems
  40. Commercial name                          : DTS-HD Master Audio
  41. Codec ID                                 : A_DTS
  42. Duration                                 : 1 h 36 min
  43. Bit rate mode                            : Variable
  44. Bit rate                                 : 2 007 kb/s
  45. Channel(s)                               : 2 channels
  46. Channel layout                           : L R
  47. Sampling rate                            : 48.0 kHz
  48. Frame rate                               : 93.750 FPS (512 SPF)
  49. Bit depth                                : 24 bits
  50. Compression mode                         : Lossless
  51. Stream size                              : 1.36 GiB (20%)
  52. Language                                 : English
  53. Default                                  : Yes
  54. Forced                                   : No
  55. Text #1
  56. ID                                       : 3
  57. Format                                   : PGS
  58. Muxing mode                              : zlib
  59. Codec ID                                 : S_HDMV/PGS
  60. Codec ID/Info                            : Picture based subtitle format used on BDs/HD-DVDs
  61. Duration                                 : 1 h 30 min
  62. Bit rate                                 : 24.8 kb/s
  63. Count of elements                        : 1959
  64. Stream size                              : 16.1 MiB (0%)
  65. Title                                    : CHS
  66. Language                                 : Chinese
  67. Default                                  : Yes
  68. Forced                                   : No
  69. Text #2
  70. ID                                       : 4
  71. Format                                   : PGS
  72. Muxing mode                              : zlib
  73. Codec ID                                 : S_HDMV/PGS
  74. Codec ID/Info                            : Picture based subtitle format used on BDs/HD-DVDs
  75. Duration                                 : 1 h 30 min
  76. Bit rate                                 : 25.7 kb/s
  77. Count of elements                        : 1959
  78. Stream size                              : 16.6 MiB (0%)
  79. Title                                    : CHT
  80. Language                                 : Chinese
  81. Default                                  : Yes
  82. Forced                                   : No
  83. Menu
  84. 00:00:00.000                             : en:第 01 章
  85. 00:08:24.254                             : en:第 02 章
  86. 00:14:03.217                             : en:第 03 章
  87. 00:22:50.452                             : en:第 04 章
  88. 00:28:45.933                             : en:第 05 章
  89. 00:39:27.615                             : en:第 06 章
  90. 00:46:12.812                             : en:第 07 章
  91. 00:53:43.053                             : en:第 08 章
  92. 01:04:55.892                             : en:第 09 章
  93. 01:13:02.378                             : en:第 10 章
  94. 01:18:04.930                             : en:第 11 章
  95. 01:26:08.163                             : en:第 12 章
  96. 01:34:30.665                             : en:第 13 章





此处一般会放置磁力链或种子下载链接,不过此链接需要注册会员才能看到,点击“立即注册”
磁力链下载【下载链接仅对注册会员开放,登陆后可见】
BT9527电影天堂 1、BT9527电影天堂提供的BT文件均来源于互联网抓取,只供网友学习交流、技术提升使用。
2、我们遵守BitTorrent点对点协议原则,任何版权问题请联系原资源发布商,我们不处理任何版权纠纷,谢谢!如有争议请联系邮箱:BT9527#hotmail.com(#换成@)
3、如果您发现某页面或地址有错误,请联系站长邮箱BT9527#hotmail.com(#换成@),我们会尽快处理。您的热心是对BT9527电影天堂最大的支持。
4、本站建议去正规影院观看电影以支持电影行业发展。
最新回复 (0)

你可以在 登录 or 注册 后,对此帖发表评论!

返回
发新帖