电话谋杀案[国英多音轨/中英字幕].Dial.M.for.Murder.1954.BluRay.1080p.x265.10bit.2Audio-MiniHD 7.97GB

版主小s 5月前 224

✔资源类型:暂未分类   ✔电影年份:更 早   ✔电影地区:欧美   ✔电影分类:悬疑

◎译  名 电话谋杀案 / 电话情杀案
◎片  名 Dial M for Murder
◎年  代 1954
◎产  地 美国
◎类  别 悬疑 / 惊悚 / 犯罪
◎语  言 英语
◎上映日期 1954-05-29(美国)
◎IMDb链接 https://www.imdb.com/title/tt0046912/
◎豆瓣评分 8.9/10 (93465人评价)
◎豆瓣链接 https://movie.douban.com/subject/1301231/
◎片  长 105分钟
◎导  演 阿尔弗雷德·希区柯克 Alfred Hitchcock (id:1025185)
◎编  剧 弗雷德里克·诺特 Frederick Knott (id:1050930)
◎演  员 雷·米兰德 Ray Milland (id:1014042)
       格蕾丝·凯利 Grace Kelly (id:1041083)
       罗伯特·卡明斯 Robert Cummings (id:1075738)
       约翰·威廉姆斯 John Williams (id:1055580)
       安东尼·道森 Anthony Dawson (id:1090459)
       利奥·布里特 Leo Britt (id:1069567)
       帕特里克·艾伦 Patrick Allen (id:1057774)
       乔治·利 George Leigh (id:1120779)
       罗温·休斯 Robin Hughes (id:1103209)
       盖·唐尔曼 Guy Doleman (id:1088531)
       贝丝·弗劳尔斯 Bess Flowers (id:1084601)
       山姆·哈里斯 Sam Harris (id:1100419)
       哈罗德·米勒 Harold Miller (id:1123300)
       威廉·H·奥布莱恩 William H. O'Brien (id:1134700)
       Forbes Murray Forbes Murray (id:1127047)
       Monty O'Grady Monty O'Grady (id:1132002)
       Thayer Roberts Thayer Roberts (id:1145094)
       伯纳德·赛尔 Bernard Sell (id:1142292)
       Ray Spiker Ray Spiker (id:1159546)
       诺尔曼·斯蒂凡斯 Norman Stevans (id:1158266)
       阿尔弗雷德·希区柯克 Alfred Hitchcock (id:1025185)
       马丁·米尔纳 Martin Milner (id:1120886)
       阿尔弗雷德·希区柯克 Alfred Hitchcock (id:1025185)
       迪米特里·迪奥姆金 Dimitri Tiomkin (id:1048339)
       罗伯特·伯克斯 Robert Burks (id:1010111)
       鲁迪·菲尔 Rudi Fehr (id:1012966)
       乔治·詹姆斯·霍普金斯 George James Hopkins (id:1003631)
       爱德华·卡雷尔 Edward Carrere (id:1029845)
       Otis Malcolm Otis Malcolm (id:1124026)
       Gordon Bau Gordon Bau (id:1065372)
       Mel Dellar Mel Dellar (id:1013298)

◎简  介
  汤尼(雷·米兰德 Ray Milland饰)和玛戈(格蕾丝·凯利 Grace Kelly 饰)是貌合神离的一对夫妻。汤尼常常为了他的事业和爱好,把娇妻忘在一边,二人感情亮出红灯。而生活寂寥的玛戈和作家马克不可避免的擦出爱之火花,他们约会、通信,不料竟被汤尼发现。汤尼没有 声张,只是写了一封匿名信给妻子以示警告。然而现在马克竟然造访家中,为了一雪耻辱,加之图谋得到妻子玛戈的丰厚财产,汤尼暗生毒计。 汤尼向旧时同学列斯开出了一千英镑的价钱,让其参与他布下的一整套严密杀人计划。这套计划有设计精妙的凶手不在场证据,电话、钥匙,窗帘,统统成为这个阴谋的道具设置。然而计划终究赶不上变化,列斯不但得不到赏金,还要赔上自己的性命。而汤尼却也急中生了智……
  1. ##### MediaInfo ######
  2. General
  3. Unique ID                                : 201497253054678627775758247393585761676 (0x9796F5971BB17E7FBDC218294A278D8C)
  4. Complete name                            : Dial.M.for.Murder.1954.BluRay.1080p.x265.10bit.2Audio-MiniHD.mkv
  5. Format                                   : Matroska
  6. Format version                           : Version 4
  7. File size                                : 7.97 GiB
  8. Duration                                 : 1 h 45 min
  9. Overall bit rate                         : 10.8 Mb/s
  10. Encoded date                             : UTC 2017-08-25 09:04:00
  11. Writing application                      : mkvmerge v11.0.0 ('Alive') 64bit
  12. Writing library                          : libebml v1.3.4 + libmatroska v1.4.5
  13. Attachments                              : 华文楷体.ttf / Cronos_Pro_Subhead.otf
  14. Video
  15. ID                                       : 1
  16. Format                                   : HEVC
  17. Format/Info                              : High Efficiency Video Coding
  18. Codec ID                                 : V_MPEGH/ISO/HEVC
  19. Duration                                 : 1 h 45 min
  20. Bit rate                                 : 10.1 Mb/s
  21. Width                                    : 1 920 pixels
  22. Height                                   : 1 080 pixels
  23. Display aspect ratio                     : 16:9
  24. Frame rate mode                          : Constant
  25. Frame rate                               : 23.976 (24000/1001/53354) FPS
  26. Bits/(Pixel*Frame)                       : 0.203
  27. Stream size                              : 7.43 GiB (93%)
  28. Default                                  : Yes
  29. Forced                                   : No
  30. Audio #1
  31. ID                                       : 2
  32. Format                                   : AC-3
  33. Format/Info                              : Audio Coding 3
  34. Commercial name                          : Dolby Digital
  35. Codec ID                                 : A_AC3
  36. Duration                                 : 1 h 45 min
  37. Bit rate mode                            : Constant
  38. Bit rate                                 : 320 kb/s
  39. Channel(s)                               : 1 channel
  40. Channel layout                           : C
  41. Sampling rate                            : 48.0 kHz
  42. Frame rate                               : 31.250 FPS (1536 SPF)
  43. Compression mode                         : Lossy
  44. Stream size                              : 241 MiB (3%)
  45. Language                                 : English
  46. Service kind                             : Complete Main
  47. Default                                  : Yes
  48. Forced                                   : No
  49. Audio #2
  50. ID                                       : 3
  51. Format                                   : AC-3
  52. Format/Info                              : Audio Coding 3
  53. Commercial name                          : Dolby Digital
  54. Codec ID                                 : A_AC3
  55. Duration                                 : 1 h 45 min
  56. Bit rate mode                            : Constant
  57. Bit rate                                 : 192 kb/s
  58. Channel(s)                               : 2 channels
  59. Channel layout                           : L R
  60. Sampling rate                            : 48.0 kHz
  61. Frame rate                               : 31.250 FPS (1536 SPF)
  62. Compression mode                         : Lossy
  63. Stream size                              : 145 MiB (2%)
  64. Language                                 : Chinese
  65. Service kind                             : Complete Main
  66. Default                                  : No
  67. Forced                                   : No
  68. Text #1
  69. ID                                       : 4
  70. Format                                   : PGS
  71. Muxing mode                              : zlib
  72. Codec ID                                 : S_HDMV/PGS
  73. Codec ID/Info                            : Picture based subtitle format used on BDs/HD-DVDs
  74. Language                                 : English
  75. Default                                  : Yes
  76. Forced                                   : No
  77. Text #2
  78. ID                                       : 5
  79. Format                                   : PGS
  80. Muxing mode                              : zlib
  81. Codec ID                                 : S_HDMV/PGS
  82. Codec ID/Info                            : Picture based subtitle format used on BDs/HD-DVDs
  83. Language                                 : Chinese
  84. Default                                  : No
  85. Forced                                   : No
  86. Text #3
  87. ID                                       : 6
  88. Format                                   : VobSub
  89. Muxing mode                              : zlib
  90. Codec ID                                 : S_VOBSUB
  91. Codec ID/Info                            : Picture based subtitle format used on DVDs
  92. Language                                 : Chinese
  93. Default                                  : No
  94. Forced                                   : No
  95. Menu
  96. 00:00:00.000                             : en:Chapter 01
  97. 00:05:00.000                             : en:Chapter 02
  98. 00:10:00.000                             : en:Chapter 03
  99. 00:15:00.000                             : en:Chapter 04
  100. 00:20:00.000                             : en:Chapter 05
  101. 00:25:00.000                             : en:Chapter 06
  102. 00:30:00.000                             : en:Chapter 07
  103. 00:35:00.000                             : en:Chapter 08
  104. 00:40:00.000                             : en:Chapter 09
  105. 00:45:00.000                             : en:Chapter 10
  106. 00:50:00.000                             : en:Chapter 11
  107. 00:55:00.000                             : en:Chapter 12
  108. 01:00:00.000                             : en:Chapter 13
  109. 01:05:00.000                             : en:Chapter 14
  110. 01:10:00.000                             : en:Chapter 15
  111. 01:15:00.000                             : en:Chapter 16
  112. 01:20:00.000                             : en:Chapter 17
  113. 01:25:00.000                             : en:Chapter 18
  114. 01:30:00.000                             : en:Chapter 19
  115. 01:35:00.000                             : en:Chapter 20
  116. 01:40:00.000                             : en:Chapter 21
  117. 01:45:00.000                             : en:Chapter 22





此处一般会放置磁力链或种子下载链接,不过此链接需要注册会员才能看到,点击“立即注册”
磁力链下载【下载链接仅对注册会员开放,登陆后可见】
BT9527电影天堂 1、BT9527电影天堂提供的BT文件均来源于互联网抓取,只供网友学习交流、技术提升使用。
2、我们遵守BitTorrent点对点协议原则,任何版权问题请联系原资源发布商,我们不处理任何版权纠纷,谢谢!如有争议请联系邮箱:BT9527#hotmail.com(#换成@)
3、如果您发现某页面或地址有错误,请联系站长邮箱BT9527#hotmail.com(#换成@),我们会尽快处理。您的热心是对BT9527电影天堂最大的支持。
4、本站建议去正规影院观看电影以支持电影行业发展。
最新回复 (0)

你可以在 登录 or 注册 后,对此帖发表评论!

返回
发新帖