怦然心动[中文字幕].Kuch.Kuch.Hota.Hai.1998.1080p.BluRay.DTS.x265-10bit-ENTHD 14.67GB

版主小s 5月前 317

✔资源类型:暂未分类   ✔电影年份:更 早   ✔电影地区:印度   ✔电影分类:喜剧

◎译  名 怦然心动 / 缘来是你
◎片  名 Kuch Kuch Hota Hai
◎年  代 1998
◎产  地 印度
◎类  别 喜剧 / 爱情 / 歌舞 / 家庭
◎语  言 北印度语 / 乌尔都语 / 英语
◎上映日期 1998-10-16
◎IMDb链接 https://www.imdb.com/title/tt0172684/
◎豆瓣评分 7.7/10 (1098人评价)
◎豆瓣链接 https://movie.douban.com/subject/1807600/
◎片  长 177 分钟
◎导  演 卡伦·乔哈尔 Karan Johar (id:1018224)
◎编  剧 卡伦·乔哈尔 Karan Johar (id:1018224)
◎演  员 沙鲁克·汗 Shah Rukh Khan (id:1041117)
       拉妮·玛克赫吉 Rani Mukherjee (id:1000191)
       Archana Puran Singh Archana Puran Singh (id:1144116)
       Sana Saeed Sana Saeed (id:1141492)
       妮琳·葛塔利 Neelam (id:1136478)
       乔尼·里沃 Johnny Lever (id:1117403)
       法丽达·贾拉尔 Farida Jalal (id:1106416)
       阿努潘·凯尔 Anupam Kher (id:1054303)
       卡卓儿 Kajol (id:1022723)
       萨尔曼·汗 Salman Khan (id:1017831)
       法拉·可汗 Farah Khan (id:1014285)
       Yash Johar Yash Johar (id:1050943)
       Jatin Pandit Jatin Pandit (id:1305259)
       Lalit Pandit Lalit Pandit (id:1305263)
       Santosh Thundiiayil Santosh Thundiiayil (id:1299244)
       Sanjay Sankla Sanjay Sankla (id:1296653)
       Sharmishta Roy Sharmishta Roy (id:1296248)
       Mickey Contractor Mickey Contractor (id:1303352)
       尼基尔·阿德瓦尼 Nikhil Advani (id:1045522)
       Tarun Mansukhani Tarun Mansukhani (id:1304096)

◎简  介
  拉鲁(沙鲁克·罕 Shahrukh Khan 饰)、安佳丽(卡卓尔 Kajol 饰)和缇娜(拉妮·玛克赫吉 Rani Mukherjee 饰)是大学时代的好友,安佳丽是典型的温婉美人,贤淑而又善良,缇娜则恰恰相反,一头利落短发的她个性大大咧咧,十分活泼好动。拉鲁和安佳丽两情相悦,携手步入了婚姻的殿堂,然而,安佳丽却因为难产死在了手术台上,留下了一个小女儿和丈夫相依为命,安佳丽给女儿取名缇娜。                                    
                                一晃眼七年过去,拉鲁渐渐走出了妻子去世的阴影,就在此时,缇娜再度出现在了他的面前。曾经,缇娜就将芳心暗许给了拉鲁,然而拉鲁却选择了安佳丽,如今,这命中注定的重逢是否会带给缇娜第二次机会呢?
  1. ##### MediaInfo ######
  2. General
  3. Unique ID                                : 324389771086265904732939323365832156171 (0xF40B32876AB1DB52808B976EFD96640B)
  4. Complete name                            : Kuch.Kuch.Hota.Hai.1998.1080p.BluRay.DTS.x265-10bit-ENTHD.mkv
  5. Format                                   : Matroska
  6. Format version                           : Version 4
  7. File size                                : 14.7 GiB
  8. Duration                                 : 3 h 5 min
  9. Overall bit rate                         : 11.3 Mb/s
  10. Movie name                               : Kuch Kuch Hota Hai 1998 1080p BluRay DTS x265-10bit-HDS
  11. Encoded date                             : UTC 2022-06-12 17:06:50
  12. Writing application                      : mkvmerge v67.0.0 ('Under Stars') 64-bit
  13. Writing library                          : libebml v1.4.2 + libmatroska v1.6.4
  14. Video
  15. ID                                       : 1
  16. Format                                   : HEVC
  17. Format/Info                              : High Efficiency Video Coding
  18. Format profile                           : Main 10@L5.1@High
  19. Codec ID                                 : V_MPEGH/ISO/HEVC
  20. Duration                                 : 3 h 5 min
  21. Bit rate                                 : 9 819 kb/s
  22. Width                                    : 1 920 pixels
  23. Height                                   : 816 pixels
  24. Display aspect ratio                     : 2.35:1
  25. Frame rate mode                          : Constant
  26. Frame rate                               : 24.000 FPS
  27. Color space                              : YUV
  28. Chroma subsampling                       : 4:2:0
  29. Bit depth                                : 10 bits
  30. Bits/(Pixel*Frame)                       : 0.261
  31. Stream size                              : 12.7 GiB (87%)
  32. Title                                    : meyu@HDSky
  33. Writing library                          : x265 - H.265/HEVC codec
  34. Default                                  : Yes
  35. Forced                                   : No
  36. Audio
  37. ID                                       : 2
  38. Format                                   : DTS
  39. Format/Info                              : Digital Theater Systems
  40. Codec ID                                 : A_DTS
  41. Duration                                 : 3 h 5 min
  42. Bit rate mode                            : Constant
  43. Bit rate                                 : 1 509 kb/s
  44. Channel(s)                               : 6 channels
  45. Channel layout                           : C L R Ls Rs LFE
  46. Sampling rate                            : 48.0 kHz
  47. Frame rate                               : 93.750 FPS (512 SPF)
  48. Bit depth                                : 24 bits
  49. Compression mode                         : Lossy
  50. Stream size                              : 1.95 GiB (13%)
  51. Title                                    : Hindi
  52. Language                                 : Hindi
  53. Default                                  : Yes
  54. Forced                                   : No
  55. Text
  56. ID                                       : 3
  57. Format                                   : PGS
  58. Muxing mode                              : zlib
  59. Codec ID                                 : S_HDMV/PGS
  60. Codec ID/Info                            : Picture based subtitle format used on BDs/HD-DVDs
  61. Duration                                 : 2 h 59 min
  62. Bit rate                                 : 34.0 kb/s
  63. Count of elements                        : 2860
  64. Stream size                              : 43.5 MiB (0%)
  65. Title                                    : CHS&ENG
  66. Language                                 : Chinese
  67. Default                                  : Yes
  68. Forced                                   : No
  69. Menu
  70. 00:00:00.000                             : en:第 01 章
  71. 00:03:16.375                             : en:第 02 章
  72. 00:08:12.708                             : en:第 03 章
  73. 00:11:06.750                             : en:第 04 章
  74. 00:19:07.042                             : en:第 05 章
  75. 00:20:22.333                             : en:第 06 章
  76. 00:23:43.875                             : en:第 07 章
  77. 00:36:56.167                             : en:第 08 章
  78. 00:43:47.042                             : en:第 09 章
  79. 00:50:12.333                             : en:第 10 章
  80. 00:53:24.208                             : en:第 11 章
  81. 01:03:23.917                             : en:第 12 章
  82. 01:09:24.625                             : en:第 13 章
  83. 01:18:49.458                             : en:第 14 章
  84. 01:21:06.125                             : en:第 15 章
  85. 01:24:33.208                             : en:第 16 章
  86. 01:29:54.542                             : en:第 17 章
  87. 01:34:51.833                             : en:第 18 章
  88. 01:42:01.375                             : en:第 19 章
  89. 01:45:09.750                             : en:第 20 章
  90. 01:47:23.667                             : en:第 21 章
  91. 01:52:50.917                             : en:第 22 章
  92. 01:55:30.958                             : en:第 23 章
  93. 02:01:26.667                             : en:第 24 章
  94. 02:05:13.167                             : en:第 25 章
  95. 02:07:25.042                             : en:第 26 章
  96. 02:08:28.750                             : en:第 27 章
  97. 02:12:03.500                             : en:第 28 章
  98. 02:17:54.292                             : en:第 29 章
  99. 02:35:18.708                             : en:第 30 章
  100. 02:45:38.250                             : en:第 31 章
  101. 02:48:54.167                             : en:第 32 章
  102. 02:51:06.417                             : en:第 33 章
  103. 02:54:28.875                             : en:第 34 章
  104. 02:55:47.708                             : en:第 35 章
  105. 03:01:17.958                             : en:第 36 章
  106. 03:02:41.083                             : en:第 37 章





此处一般会放置磁力链或种子下载链接,不过此链接需要注册会员才能看到,点击“立即注册”
磁力链下载【下载链接仅对注册会员开放,登陆后可见】
BT9527电影天堂 1、BT9527电影天堂提供的BT文件均来源于互联网抓取,只供网友学习交流、技术提升使用。
2、我们遵守BitTorrent点对点协议原则,任何版权问题请联系原资源发布商,我们不处理任何版权纠纷,谢谢!如有争议请联系邮箱:BT9527#hotmail.com(#换成@)
3、如果您发现某页面或地址有错误,请联系站长邮箱BT9527#hotmail.com(#换成@),我们会尽快处理。您的热心是对BT9527电影天堂最大的支持。
4、本站建议去正规影院观看电影以支持电影行业发展。
最新回复 (0)

你可以在 登录 or 注册 后,对此帖发表评论!

返回
发新帖