逃学威龙3之龙过鸡年[国语音轨/中英字幕].Fight.Back.to.School.3.1993.BluRay.1080p.x265.10bit.2Audio-MiniHD 6.26GB

版主小s 5月前 272

✔资源类型:暂未分类   ✔电影年份:更 早   ✔电影地区:香港   ✔电影分类:喜剧

◎译  名 逃学威龙3之龙过鸡年 / 逃学威龙3第七感抓财神 / Fight Back to School III
◎片  名 逃學威龍III之龍過雞年
◎年  代 1993
◎产  地 中国香港
◎类  别 喜剧
◎语  言 粤语
◎上映日期 1993-01-14
◎IMDb链接 https://www.imdb.com/title/tt0108293/
◎豆瓣评分 7.6/10 (119160人评价)
◎豆瓣链接 https://movie.douban.com/subject/1302678/
◎片  长 89 分钟
◎导  演 王晶 Jing Wong (id:1274331)
◎编  剧 王晶 Jing Wong (id:1274331)
       黄炳耀 Barry Wong (id:1014964)
◎演  员 周星驰 Stephen Chow (id:1048026)
       梅艳芳 Anita Mui (id:1047976)
       陈百祥 Pak-cheung Chan (id:1070608)
       周海媚 Kathy Chow (id:1037908)
       梁家仁 Ka-Yan Leung (id:1008125)
       黄秋生 Anthony Wong Chau-Sang (id:1050076)
       陈欣健 Philip Chan (id:1007245)
       朱咪咪 Mimi Chu (id:1275715)
       秦沛 Paul Chun (id:1048476)
       张敏 Sharla Cheung (id:1005297)
       黄伟辉 Wong Wai-Fai (id:1275163)
       秦贵宝 Kwai Po Chun (id:1417957)
       曾近荣 Kan-Wing Tsang (id:1329878)
       程东 John Ching Tung (id:1316720)
       萧若元 Stephen Siu (id:1297721)
       周锦祥 Gam Cheung Chow (id:1315803)
       卢冠廷 Lowell Lo (id:1290255)
       李子衡 Gigo Lee (id:1289673)

◎简  介
  百万富翁王百万(周星驰 饰)被人用冰锥插死,由于他与妻子汤茱蒂(梅艳芳 饰)的感情破裂,汤茱蒂便有最大的嫌疑。刚好周星星(周星驰 饰)的相貌与王百万几乎一模一样,警方便让周星星假扮王百万让汤茱蒂带回家,好让周星星能够从中寻找证据。当周星星进入王家后,发觉王百万的好友林大岳(黄秋生 饰)也有重大嫌疑。怎料林大岳也同样被杀害。案情疑点重重,周星星后来发现汤茱蒂跟王百万的女秘书有暧昧的关系。
  1. ##### MediaInfo ######
  2. General
  3. Unique ID                                : 200656109720700596412691734967012202955 (0x96F4F605A36CA6749F00030348EA99CB)
  4. Complete name                            : Fight.Back.to.School.3.1993.BluRay.1080p.x265.10bit.2Audio-MiniHD.mkv
  5. Format                                   : Matroska
  6. Format version                           : Version 4
  7. File size                                : 6.26 GiB
  8. Duration                                 : 1 h 29 min
  9. Overall bit rate                         : 9 997 kb/s
  10. Encoded date                             : UTC 2017-05-25 13:08:09
  11. Writing application                      : mkvmerge v11.0.0 ('Alive') 64bit
  12. Writing library                          : libebml v1.3.4 + libmatroska v1.4.5
  13. Video
  14. ID                                       : 1
  15. Format                                   : HEVC
  16. Format/Info                              : High Efficiency Video Coding
  17. Codec ID                                 : V_MPEGH/ISO/HEVC
  18. Duration                                 : 1 h 29 min
  19. Bit rate                                 : 8 838 kb/s
  20. Width                                    : 1 920 pixels
  21. Height                                   : 1 080 pixels
  22. Display aspect ratio                     : 16:9
  23. Frame rate mode                          : Constant
  24. Frame rate                               : 24.000 FPS
  25. Bits/(Pixel*Frame)                       : 0.178
  26. Stream size                              : 5.54 GiB (88%)
  27. Default                                  : Yes
  28. Forced                                   : No
  29. Audio #1
  30. ID                                       : 2
  31. Format                                   : AC-3
  32. Format/Info                              : Audio Coding 3
  33. Commercial name                          : Dolby Digital
  34. Codec ID                                 : A_AC3
  35. Duration                                 : 1 h 29 min
  36. Bit rate mode                            : Constant
  37. Bit rate                                 : 320 kb/s
  38. Channel(s)                               : 2 channels
  39. Channel layout                           : L R
  40. Sampling rate                            : 48.0 kHz
  41. Frame rate                               : 31.250 FPS (1536 SPF)
  42. Compression mode                         : Lossy
  43. Stream size                              : 205 MiB (3%)
  44. Language                                 : Chinese
  45. Service kind                             : Complete Main
  46. Default                                  : Yes
  47. Forced                                   : No
  48. Audio #2
  49. ID                                       : 3
  50. Format                                   : AC-3
  51. Format/Info                              : Audio Coding 3
  52. Commercial name                          : Dolby Digital
  53. Codec ID                                 : A_AC3
  54. Duration                                 : 1 h 29 min
  55. Bit rate mode                            : Constant
  56. Bit rate                                 : 640 kb/s
  57. Channel(s)                               : 6 channels
  58. Channel layout                           : L R C LFE Ls Rs
  59. Sampling rate                            : 48.0 kHz
  60. Frame rate                               : 31.250 FPS (1536 SPF)
  61. Compression mode                         : Lossy
  62. Stream size                              : 410 MiB (6%)
  63. Language                                 : Chinese
  64. Service kind                             : Complete Main
  65. Default                                  : No
  66. Forced                                   : No
  67. Text #1
  68. ID                                       : 4
  69. Format                                   : PGS
  70. Muxing mode                              : zlib
  71. Codec ID                                 : S_HDMV/PGS
  72. Codec ID/Info                            : Picture based subtitle format used on BDs/HD-DVDs
  73. Language                                 : Chinese
  74. Default                                  : Yes
  75. Forced                                   : No
  76. Text #2
  77. ID                                       : 5
  78. Format                                   : PGS
  79. Muxing mode                              : zlib
  80. Codec ID                                 : S_HDMV/PGS
  81. Codec ID/Info                            : Picture based subtitle format used on BDs/HD-DVDs
  82. Language                                 : Chinese
  83. Default                                  : No
  84. Forced                                   : No
  85. Text #3
  86. ID                                       : 6
  87. Format                                   : PGS
  88. Muxing mode                              : zlib
  89. Codec ID                                 : S_HDMV/PGS
  90. Codec ID/Info                            : Picture based subtitle format used on BDs/HD-DVDs
  91. Language                                 : English
  92. Default                                  : No
  93. Forced                                   : No
  94. Menu
  95. 00:00:00.000                             : en:Chapter 01
  96. 00:05:26.208                             : en:Chapter 02
  97. 00:14:46.791                             : en:Chapter 03
  98. 00:23:03.958                             : en:Chapter 04
  99. 00:31:47.458                             : en:Chapter 05
  100. 00:37:12.416                             : en:Chapter 06
  101. 00:46:35.500                             : en:Chapter 07
  102. 00:52:56.250                             : en:Chapter 08
  103. 01:00:20.458                             : en:Chapter 09
  104. 01:07:33.333                             : en:Chapter 10
  105. 01:15:47.583                             : en:Chapter 11
  106. 01:22:29.125                             : en:Chapter 12





此处一般会放置磁力链或种子下载链接,不过此链接需要注册会员才能看到,点击“立即注册”
磁力链下载【下载链接仅对注册会员开放,登陆后可见】
BT9527电影天堂 1、BT9527电影天堂提供的BT文件均来源于互联网抓取,只供网友学习交流、技术提升使用。
2、我们遵守BitTorrent点对点协议原则,任何版权问题请联系原资源发布商,我们不处理任何版权纠纷,谢谢!如有争议请联系邮箱:BT9527#hotmail.com(#换成@)
3、如果您发现某页面或地址有错误,请联系站长邮箱BT9527#hotmail.com(#换成@),我们会尽快处理。您的热心是对BT9527电影天堂最大的支持。
4、本站建议去正规影院观看电影以支持电影行业发展。
最新回复 (0)

你可以在 登录 or 注册 后,对此帖发表评论!

返回
发新帖