飞向宇宙:巴斯的浩瀚无垠之旅[国英多音轨/简繁英字幕].Beyond.Infinity.Buzz.and.the.Journey.to.Lightyear.2022.1080p.DSNP.WEB-DL.DDP.5.1.H.264-CTRLWEB 1.73G

版主小s 5月前 618

✔资源类型:WEB-1080P   ✔电影年份:2022   ✔电影地区:欧美   ✔电影分类:其他

◎译  名 飞向宇宙:巴斯的浩瀚无垠之旅
◎片  名 Beyond Infinity: Buzz and the Journey to Lightyear
◎年  代 2022
◎产  地 美国
◎类  别 纪录片 / 短片
◎语  言 英语 / 西班牙语
◎上映日期 2022-06-10(美国网络)
◎IMDb链接 https://www.imdb.com/title/tt16026684/
◎豆瓣链接 https://movie.douban.com/subject/35926861/
◎片  长 35分钟

◎简  介
  Follows the making of the Pixar "Lightyear".
  1. ##### MediaInfo ######
  2. General
  3. Unique ID                                : 76721273570915410698715918196497954253 (0x39B7FAD51A0E38EC75BC3C36B467B5CD)
  4. Complete name                            : Beyond.Infinity.Buzz.and.the.Journey.to.Lightyear.2022.1080p.DSNP.WEB-DL.DDP.5.1.H.264-CTRLWEB.mkv
  5. Format                                   : Matroska
  6. Format version                           : Version 4
  7. File size                                : 1.73 GiB
  8. Duration                                 : 34 min 8 s
  9. Overall bit rate mode                    : Variable
  10. Overall bit rate                         : 7 252 kb/s
  11. Encoded date                             : UTC 2022-06-13 10:28:37
  12. Writing application                      : mkvmerge v68.0.0 ('The Curtain') 64-bit
  13. Writing library                          : libebml v1.4.2 + libmatroska v1.6.4
  14. Video
  15. ID                                       : 1
  16. Format                                   : AVC
  17. Format/Info                              : Advanced Video Codec
  18. Format profile                           : High@L4
  19. Format settings                          : CABAC / 4 Ref Frames
  20. Format settings, CABAC                   : Yes
  21. Format settings, Reference frames        : 4 frames
  22. Codec ID                                 : V_MPEG4/ISO/AVC
  23. Duration                                 : 34 min 8 s
  24. Bit rate mode                            : Variable
  25. Bit rate                                 : 6 733 kb/s
  26. Maximum bit rate                         : 12.7 Mb/s
  27. Width                                    : 1 920 pixels
  28. Height                                   : 1 080 pixels
  29. Display aspect ratio                     : 16:9
  30. Frame rate mode                          : Constant
  31. Frame rate                               : 23.976 (24000/1001/53354) FPS
  32. Color space                              : YUV
  33. Chroma subsampling                       : 4:2:0
  34. Bit depth                                : 8 bits
  35. Scan type                                : Progressive
  36. Bits/(Pixel*Frame)                       : 0.135
  37. Stream size                              : 1.61 GiB (93%)
  38. Default                                  : Yes
  39. Forced                                   : No
  40. Color range                              : Limited
  41. Color primaries                          : BT.709
  42. Transfer characteristics                 : BT.709
  43. Matrix coefficients                      : BT.709
  44. Audio #1
  45. ID                                       : 2
  46. Format                                   : E-AC-3
  47. Format/Info                              : Enhanced AC-3
  48. Commercial name                          : Dolby Digital Plus
  49. Codec ID                                 : A_EAC3
  50. Duration                                 : 34 min 8 s
  51. Bit rate mode                            : Constant
  52. Bit rate                                 : 256 kb/s
  53. Channel(s)                               : 6 channels
  54. Channel layout                           : L R C LFE Ls Rs
  55. Sampling rate                            : 48.0 kHz
  56. Frame rate                               : 31.250 FPS (1536 SPF)
  57. Compression mode                         : Lossy
  58. Stream size                              : 62.5 MiB (4%)
  59. Language                                 : English
  60. Service kind                             : Complete Main
  61. Default                                  : Yes
  62. Forced                                   : No
  63. Audio #2
  64. ID                                       : 3
  65. Format                                   : E-AC-3
  66. Format/Info                              : Enhanced AC-3
  67. Commercial name                          : Dolby Digital Plus
  68. Codec ID                                 : A_EAC3
  69. Duration                                 : 34 min 8 s
  70. Bit rate mode                            : Constant
  71. Bit rate                                 : 256 kb/s
  72. Channel(s)                               : 6 channels
  73. Channel layout                           : L R C LFE Ls Rs
  74. Sampling rate                            : 48.0 kHz
  75. Frame rate                               : 31.250 FPS (1536 SPF)
  76. Compression mode                         : Lossy
  77. Stream size                              : 62.5 MiB (4%)
  78. Language                                 : Chinese
  79. Service kind                             : Complete Main
  80. Default                                  : No
  81. Forced                                   : No
  82. Text #1
  83. ID                                       : 4
  84. Format                                   : UTF-8
  85. Codec ID                                 : S_TEXT/UTF8
  86. Codec ID/Info                            : UTF-8 Plain Text
  87. Duration                                 : 34 min 4 s
  88. Bit rate                                 : 103 b/s
  89. Count of elements                        : 588
  90. Stream size                              : 25.9 KiB (0%)
  91. Title                                    : SDH
  92. Language                                 : English
  93. Default                                  : No
  94. Forced                                   : No
  95. Text #2
  96. ID                                       : 5
  97. Format                                   : UTF-8
  98. Codec ID                                 : S_TEXT/UTF8
  99. Codec ID/Info                            : UTF-8 Plain Text
  100. Duration                                 : 34 min 6 s
  101. Bit rate                                 : 93 b/s
  102. Count of elements                        : 657
  103. Stream size                              : 23.5 KiB (0%)
  104. Title                                    : Simplified
  105. Language                                 : Chinese
  106. Default                                  : No
  107. Forced                                   : No
  108. Text #3
  109. ID                                       : 6
  110. Format                                   : UTF-8
  111. Codec ID                                 : S_TEXT/UTF8
  112. Codec ID/Info                            : UTF-8 Plain Text
  113. Duration                                 : 34 min 6 s
  114. Bit rate                                 : 90 b/s
  115. Count of elements                        : 656
  116. Stream size                              : 22.6 KiB (0%)
  117. Title                                    : Traditional
  118. Language                                 : Chinese
  119. Default                                  : No
  120. Forced                                   : No
  121. Text #4
  122. ID                                       : 7
  123. Format                                   : UTF-8
  124. Codec ID                                 : S_TEXT/UTF8
  125. Codec ID/Info                            : UTF-8 Plain Text
  126. Duration                                 : 34 min 6 s
  127. Bit rate                                 : 100 b/s
  128. Count of elements                        : 643
  129. Stream size                              : 25.2 KiB (0%)
  130. Language                                 : Czech
  131. Default                                  : No
  132. Forced                                   : No
  133. Text #5
  134. ID                                       : 8
  135. Format                                   : UTF-8
  136. Codec ID                                 : S_TEXT/UTF8
  137. Codec ID/Info                            : UTF-8 Plain Text
  138. Duration                                 : 34 min 6 s
  139. Bit rate                                 : 104 b/s
  140. Count of elements                        : 628
  141. Stream size                              : 26.0 KiB (0%)
  142. Language                                 : Danish
  143. Default                                  : No
  144. Forced                                   : No
  145. Text #6
  146. ID                                       : 9
  147. Format                                   : UTF-8
  148. Codec ID                                 : S_TEXT/UTF8
  149. Codec ID/Info                            : UTF-8 Plain Text
  150. Duration                                 : 34 min 6 s
  151. Bit rate                                 : 96 b/s
  152. Count of elements                        : 597
  153. Stream size                              : 24.2 KiB (0%)
  154. Language                                 : German
  155. Default                                  : No
  156. Forced                                   : No
  157. Text #7
  158. ID                                       : 10
  159. Format                                   : UTF-8
  160. Codec ID                                 : S_TEXT/UTF8
  161. Codec ID/Info                            : UTF-8 Plain Text
  162. Duration                                 : 34 min 6 s
  163. Bit rate                                 : 182 b/s
  164. Count of elements                        : 642
  165. Stream size                              : 45.5 KiB (0%)
  166. Language                                 : Greek
  167. Default                                  : No
  168. Forced                                   : No
  169. Text #8
  170. ID                                       : 11
  171. Format                                   : UTF-8
  172. Codec ID                                 : S_TEXT/UTF8
  173. Codec ID/Info                            : UTF-8 Plain Text
  174. Duration                                 : 34 min 6 s
  175. Bit rate                                 : 111 b/s
  176. Count of elements                        : 637
  177. Stream size                              : 27.9 KiB (0%)
  178. Title                                    : Latin America
  179. Language                                 : Spanish
  180. Default                                  : No
  181. Forced                                   : No
  182. Text #9
  183. ID                                       : 12
  184. Format                                   : UTF-8
  185. Codec ID                                 : S_TEXT/UTF8
  186. Codec ID/Info                            : UTF-8 Plain Text
  187. Duration                                 : 34 min 6 s
  188. Bit rate                                 : 107 b/s
  189. Count of elements                        : 636
  190. Stream size                              : 26.8 KiB (0%)
  191. Language                                 : Spanish
  192. Default                                  : No
  193. Forced                                   : No
  194. Text #10
  195. ID                                       : 13
  196. Format                                   : UTF-8
  197. Codec ID                                 : S_TEXT/UTF8
  198. Codec ID/Info                            : UTF-8 Plain Text
  199. Duration                                 : 34 min 6 s
  200. Bit rate                                 : 97 b/s
  201. Count of elements                        : 644
  202. Stream size                              : 24.3 KiB (0%)
  203. Language                                 : Finnish
  204. Default                                  : No
  205. Forced                                   : No
  206. Text #11
  207. ID                                       : 14
  208. Format                                   : UTF-8
  209. Codec ID                                 : S_TEXT/UTF8
  210. Codec ID/Info                            : UTF-8 Plain Text
  211. Duration                                 : 34 min 6 s
  212. Bit rate                                 : 93 b/s
  213. Count of elements                        : 623
  214. Stream size                              : 23.3 KiB (0%)
  215. Language                                 : French
  216. Default                                  : No
  217. Forced                                   : No
  218. Text #12
  219. ID                                       : 15
  220. Format                                   : UTF-8
  221. Codec ID                                 : S_TEXT/UTF8
  222. Codec ID/Info                            : UTF-8 Plain Text
  223. Duration                                 : 34 min 4 s
  224. Bit rate                                 : 101 b/s
  225. Count of elements                        : 642
  226. Stream size                              : 25.3 KiB (0%)
  227. Language                                 : Hungarian
  228. Default                                  : No
  229. Forced                                   : No
  230. Text #13
  231. ID                                       : 16
  232. Format                                   : UTF-8
  233. Codec ID                                 : S_TEXT/UTF8
  234. Codec ID/Info                            : UTF-8 Plain Text
  235. Duration                                 : 34 min 6 s
  236. Bit rate                                 : 103 b/s
  237. Count of elements                        : 647
  238. Stream size                              : 25.8 KiB (0%)
  239. Language                                 : Italian
  240. Default                                  : No
  241. Forced                                   : No
  242. Text #14
  243. ID                                       : 17
  244. Format                                   : UTF-8
  245. Codec ID                                 : S_TEXT/UTF8
  246. Codec ID/Info                            : UTF-8 Plain Text
  247. Duration                                 : 34 min 6 s
  248. Bit rate                                 : 95 b/s
  249. Count of elements                        : 552
  250. Stream size                              : 23.8 KiB (0%)
  251. Language                                 : Japanese
  252. Default                                  : No
  253. Forced                                   : No
  254. Text #15
  255. ID                                       : 18
  256. Format                                   : UTF-8
  257. Codec ID                                 : S_TEXT/UTF8
  258. Codec ID/Info                            : UTF-8 Plain Text
  259. Duration                                 : 34 min 6 s
  260. Bit rate                                 : 115 b/s
  261. Count of elements                        : 647
  262. Stream size                              : 28.8 KiB (0%)
  263. Language                                 : Korean
  264. Default                                  : No
  265. Forced                                   : No
  266. Text #16
  267. ID                                       : 19
  268. Format                                   : UTF-8
  269. Codec ID                                 : S_TEXT/UTF8
  270. Codec ID/Info                            : UTF-8 Plain Text
  271. Duration                                 : 34 min 6 s
  272. Bit rate                                 : 83 b/s
  273. Count of elements                        : 518
  274. Stream size                              : 20.9 KiB (0%)
  275. Language                                 : Dutch
  276. Default                                  : No
  277. Forced                                   : No
  278. Text #17
  279. ID                                       : 20
  280. Format                                   : UTF-8
  281. Codec ID                                 : S_TEXT/UTF8
  282. Codec ID/Info                            : UTF-8 Plain Text
  283. Duration                                 : 34 min 6 s
  284. Bit rate                                 : 104 b/s
  285. Count of elements                        : 637
  286. Stream size                              : 26.1 KiB (0%)
  287. Language                                 : Norwegian
  288. Default                                  : No
  289. Forced                                   : No
  290. Text #18
  291. ID                                       : 21
  292. Format                                   : UTF-8
  293. Codec ID                                 : S_TEXT/UTF8
  294. Codec ID/Info                            : UTF-8 Plain Text
  295. Duration                                 : 34 min 6 s
  296. Bit rate                                 : 106 b/s
  297. Count of elements                        : 644
  298. Stream size                              : 26.5 KiB (0%)
  299. Language                                 : Polish
  300. Default                                  : No
  301. Forced                                   : No
  302. Text #19
  303. ID                                       : 22
  304. Format                                   : UTF-8
  305. Codec ID                                 : S_TEXT/UTF8
  306. Codec ID/Info                            : UTF-8 Plain Text
  307. Duration                                 : 34 min 6 s
  308. Bit rate                                 : 110 b/s
  309. Count of elements                        : 639
  310. Stream size                              : 27.5 KiB (0%)
  311. Title                                    : Brazil
  312. Language                                 : Portuguese
  313. Default                                  : No
  314. Forced                                   : No
  315. Text #20
  316. ID                                       : 23
  317. Format                                   : UTF-8
  318. Codec ID                                 : S_TEXT/UTF8
  319. Codec ID/Info                            : UTF-8 Plain Text
  320. Duration                                 : 34 min 6 s
  321. Bit rate                                 : 108 b/s
  322. Count of elements                        : 642
  323. Stream size                              : 27.1 KiB (0%)
  324. Language                                 : Portuguese
  325. Default                                  : No
  326. Forced                                   : No
  327. Text #21
  328. ID                                       : 24
  329. Format                                   : UTF-8
  330. Codec ID                                 : S_TEXT/UTF8
  331. Codec ID/Info                            : UTF-8 Plain Text
  332. Duration                                 : 34 min 6 s
  333. Bit rate                                 : 109 b/s
  334. Count of elements                        : 647
  335. Stream size                              : 27.3 KiB (0%)
  336. Language                                 : Romanian
  337. Default                                  : No
  338. Forced                                   : No
  339. Text #22
  340. ID                                       : 25
  341. Format                                   : UTF-8
  342. Codec ID                                 : S_TEXT/UTF8
  343. Codec ID/Info                            : UTF-8 Plain Text
  344. Duration                                 : 34 min 6 s
  345. Bit rate                                 : 109 b/s
  346. Count of elements                        : 651
  347. Stream size                              : 27.4 KiB (0%)
  348. Language                                 : Slovak
  349. Default                                  : No
  350. Forced                                   : No
  351. Text #23
  352. ID                                       : 26
  353. Format                                   : UTF-8
  354. Codec ID                                 : S_TEXT/UTF8
  355. Codec ID/Info                            : UTF-8 Plain Text
  356. Duration                                 : 34 min 6 s
  357. Bit rate                                 : 101 b/s
  358. Count of elements                        : 634
  359. Stream size                              : 25.4 KiB (0%)
  360. Language                                 : Swedish
  361. Default                                  : No
  362. Forced                                   : No
  363. Text #24
  364. ID                                       : 27
  365. Format                                   : UTF-8
  366. Codec ID                                 : S_TEXT/UTF8
  367. Codec ID/Info                            : UTF-8 Plain Text
  368. Duration                                 : 34 min 6 s
  369. Bit rate                                 : 105 b/s
  370. Count of elements                        : 655
  371. Stream size                              : 26.4 KiB (0%)
  372. Language                                 : Turkish
  373. Default                                  : No
  374. Forced                                   : No
  375. Text #25
  376. ID                                       : 28
  377. Format                                   : UTF-8
  378. Codec ID                                 : S_TEXT/UTF8
  379. Codec ID/Info                            : UTF-8 Plain Text
  380. Duration                                 : 32 min 27 s
  381. Bit rate                                 : 11 b/s
  382. Count of elements                        : 76
  383. Stream size                              : 2.65 KiB (0%)
  384. Title                                    : Forced
  385. Language                                 : Chinese
  386. Default                                  : No
  387. Forced                                   : Yes
  388. Text #26
  389. ID                                       : 29
  390. Format                                   : UTF-8
  391. Codec ID                                 : S_TEXT/UTF8
  392. Codec ID/Info                            : UTF-8 Plain Text
  393. Duration                                 : 34 min 6 s
  394. Bit rate                                 : 94 b/s
  395. Count of elements                        : 658
  396. Stream size                              : 23.5 KiB (0%)
  397. Title                                    : Hong Kong
  398. Language                                 : Chinese
  399. Default                                  : No
  400. Forced                                   : No





此处一般会放置磁力链或种子下载链接,不过此链接需要注册会员才能看到,点击“立即注册”
磁力链下载【下载链接仅对注册会员开放,登陆后可见】
BT9527电影天堂 1、BT9527电影天堂提供的BT文件均来源于互联网抓取,只供网友学习交流、技术提升使用。
2、我们遵守BitTorrent点对点协议原则,任何版权问题请联系原资源发布商,我们不处理任何版权纠纷,谢谢!如有争议请联系邮箱:BT9527#hotmail.com(#换成@)
3、如果您发现某页面或地址有错误,请联系站长邮箱BT9527#hotmail.com(#换成@),我们会尽快处理。您的热心是对BT9527电影天堂最大的支持。
4、本站建议去正规影院观看电影以支持电影行业发展。
最新回复 (0)

你可以在 登录 or 注册 后,对此帖发表评论!

返回
发新帖