独家新闻[中文字幕].Scoop.2006.BluRay.1080p.AC3.x265.10bit-CTRLHD 5.78GB

版主小s 5月前 314

✔资源类型:暂未分类   ✔电影年份:2006   ✔电影地区:欧美   ✔电影分类:喜剧

◎译  名 独家新闻 / 遇上塔罗牌杀手(港) / 遇上塔罗牌情人(台) / 塔罗牌杀人事件 / 独家头条
◎片  名 Scoop
◎年  代 2006
◎产  地 英国 / 美国
◎类  别 喜剧 / 爱情 / 悬疑 / 奇幻
◎语  言 英语
◎上映日期 2006-07-28(美国)
◎IMDb链接 https://www.imdb.com/title/tt0457513/
◎豆瓣评分 7.3/10 (53538人评价)
◎豆瓣链接 https://movie.douban.com/subject/1451911/
◎片  长 96分钟
◎导  演 伍迪·艾伦 Woody Allen (id:1054430)
◎编  剧 伍迪·艾伦 Woody Allen (id:1054430)
◎演  员 斯嘉丽·约翰逊 Scarlett Johansson (id:1054453)
       休·杰克曼 Hugh Jackman (id:1010508)
       伍迪·艾伦 Woody Allen (id:1054430)
       伊恩·麦柯肖恩 Ian McShane (id:1027143)
       萝玛拉·嘉瑞 Romola Garai (id:1022633)
       约翰·斯坦丁 John Standing (id:1159827)
       保拉·威尔科克斯 Paula Wilcox (id:1161490)
       玛格丽特·提扎克 Margaret Tyzack (id:1156265)
       费奈拉·伍尔加 Fenella Woolgar (id:1166854)
       罗宾克尔 Robyn Kerr (id:1209648)
       萝西·凯弗利洛 Rosie Cavaliero (id:1313172)
       桑吉夫·巴哈斯卡 Sanjeev Bhaskar (id:1012562)
       凯文·麦克纳利 Kevin McNally (id:1123046)
       理查德·约翰逊 Richard Johnson (id:1113223)
       马特丹 Matt Day (id:1027595)
       查尔斯·丹斯 Charles Dance (id:1027299)
       大卫·施奈德 David Schneider (id:1019257)
       梅拉·沙尔 Meera Syal (id:1009511)
       卡罗琳·布莱奇斯顿 Caroline Blakiston (id:1007206)
       朱利安·格洛弗 Julian Glover (id:1002790)
       约翰·莱特 John Light (id:1027916)
       菲尔·康韦尔 Phil Cornwell (id:1028260)
       克里斯托弗戈德温 Christopher Godwin (id:1101537)
       鲁珀特·弗雷泽 Rupert Frazer (id:1083144)
       莫亚布雷迪 Moya Brady (id:1070640)
       琳达·巴伦 Lynda Baron (id:1065472)
       伊丽莎白·贝林顿 Elizabeth Berrington (id:1065032)
       亚历山大·阿姆斯特朗 Alexander Armstrong (id:1057911)
       马克·希普 Mark Heap (id:1045125)
       安东尼·海德 Anthony Head (id:1031891)
       维多利亚·汉密尔顿 Victoria Hamilton (id:1000494)
       杰克·罗林斯 Jack Rollins (id:1140848)
       查尔斯·H·约菲 Charles H. Joffe (id:1010164)
       Gareth Wiley Gareth Wiley (id:1033272)
       大卫·汤普森 David M. Thompson (id:1012677)
       莱米·阿德法拉希恩 Remi Adefarasin (id:1276188)
       Alisa Lepselter Alisa Lepselter (id:1289822)
       茱莉叶·泰勒 Juliet Taylor (id:1299000)
       帕特丽夏·迪塞尔托 Patricia DiCerto (id:1408139)
       玛丽亚·朱科维克 Maria Djurkovic (id:1282498)
       Nick Palmer Nick Palmer (id:1293861)
       吉尔·泰勒 Jill Taylor (id:1298993)
       Sallie Jaye Sallie Jaye (id:1287636)
       波莉·恩肖 Polly Earnshaw (id:1282946)
       Chris Croucher Chris Croucher (id:1201896)
       马丁·德雷克 Martyn Drake (id:1223541)

◎简  介
  一个美国女大学生桑德拉(斯嘉丽·约翰逊 Scarlett Johansson 饰),为了替学校报纸寻找独家新闻,来到英国伦敦采访一个电影导演。在调查和采访的过程中,她参加了魔术师希德(伍迪·艾伦 Woody Allen 饰)一次魔术戏法表演,在密闭的箱中她遇见了一个离世 的资深记者鬼魂。记者生前是一个为了拿到独家新闻无所不尽其用的人。他在去往阴间的船上从一个被害的前任秘书口中得知“塔罗牌杀手”竟然是英俊多金的贵族彼得(休·杰克曼 Hugh Jackman 饰)。他不想让这有爆炸性的新闻埋葬,于是找上桑德拉希望她帮他完成心愿。                                    
                                面对这个千载难逢的机会,桑德拉决定深入虎穴,拉上魔术师希德假扮父女混进上流社会,接近彼得。事情顺利得令人惊讶,桑德拉与彼得成了甜蜜的一对。然而塔罗牌杀手又继续行动……
  1. ##### MediaInfo ######
  2. General
  3. Unique ID                                : 60090394316947983464224603350669616571 (0x2D34FD2DB1FE018840DB2DFB64A665BB)
  4. Complete name                            : Scoop.2006.BluRay.1080p.AC3.x265.10bit-CTRLHD.mkv
  5. Format                                   : Matroska
  6. Format version                           : Version 4
  7. File size                                : 5.78 GiB
  8. Duration                                 : 1 h 35 min
  9. Overall bit rate                         : 8 659 kb/s
  10. Encoded date                             : UTC 2022-06-14 02:33:05
  11. Writing application                      : mkvmerge v64.0.0 ('Willows') 64-bit
  12. Writing library                          : libebml v1.4.2 + libmatroska v1.6.4
  13. Video
  14. ID                                       : 1
  15. Format                                   : HEVC
  16. Format/Info                              : High Efficiency Video Coding
  17. Format profile                           : Main 10@L5.1@High
  18. Codec ID                                 : V_MPEGH/ISO/HEVC
  19. Duration                                 : 1 h 35 min
  20. Bit rate                                 : 7 966 kb/s
  21. Width                                    : 1 920 pixels
  22. Height                                   : 1 040 pixels
  23. Display aspect ratio                     : 1.85:1
  24. Frame rate mode                          : Constant
  25. Frame rate                               : 24.000 FPS
  26. Color space                              : YUV
  27. Chroma subsampling                       : 4:2:0
  28. Bit depth                                : 10 bits
  29. Bits/(Pixel*Frame)                       : 0.166
  30. Stream size                              : 5.32 GiB (92%)
  31. Writing library                          : x265 3.5+20-17839cc0d:[Windows][MSVC 1930][64 bit] 10bit
  32. Encoding settings                        : cpuid=533541111039 / frame-threads=4 / numa-pools=24 / wpp / no-pmode / no-pme / no-psnr / no-ssim / log-level=2 / input-csp=1 / input-res=1920x1040 / interlace=0 / total-frames=0 / level-idc=51 / high-tier=1 / uhd-bd=0 / ref=6 / no-allow-non-conformance / repeat-headers / annexb / no-aud / no-eob / no-eos / no-hrd / info / hash=0 / no-temporal-layers / no-open-gop / min-keyint=24 / keyint=250 / gop-lookahead=0 / bframes=8 / b-adapt=2 / b-pyramid / bframe-bias=0 / rc-lookahead=24 / lookahead-slices=6 / NTMzNTQ=uuDQuD2mJt9fsCf / scenecut=40 / no-hist-scenecut / radl=0 / no-splice / no-intra-refresh / ctu=64 / min-cu-size=8 / no-rect / no-amp / max-tu-size=32 / tu-inter-depth=1 / tu-intra-depth=1 / limit-tu=0 / rdoq-level=0 / dynamic-rd=0.00 / no-ssim-rd / signhide / no-tskip / nr-intra=0 / nr-inter=0 / no-constrained-intra / no-strong-intra-smoothing / max-merge=3 / limit-refs=1 / no-limit-modes / me=2 / subme=7 / merange=48 / temporal-mvp / no-frame-dup / no-hme / weightp / weightb / no-analyze-src-pics / deblock=0:0 / sao / no-sao-non-deblock / rd=4 / selective-sao=4 / early-skip / rskip / no-fast-intra / no-tskip-fast / no-cu-lossless / b-intra / no-splitrd-skip / rdpenalty=0 / psy-rd=2.00 / psy-rdoq=0.00 / no-rd-refine / no-lossless / cbqpoffs=0 / crqpoffs=0 / rc=crf / crf=17.0 / qcomp=0.60 / qpstep=4 / stats-write=0 / stats-read=0 / vbv-maxrate=160000 / vbv-bufsize=160000 / vbv-init=0.9 / min-vbv-fullness=50.0 / max-vbv-fullness=80.0 / crf-max=0.0 / crf-min=0.0 / ipratio=1.40 / pbratio=1.30 / aq-mode=3 / aq-strength=1.00 / cutree / zone-count=0 / no-strict-cbr / qg-size=32 / no-rc-grain / qpmax=69 / qpmin=0 / no-const-vbv / sar=0 / overscan=0 / videoformat=5 / range=0 / colorprim=2 / transfer=2 / colormatrix=2 / chromaloc=0 / display-window=0 / cll=0,0 / min-luma=0 / max-luma=1023 / log2-max-poc-lsb=8 / vui-timing-info / vui-hrd-info / slices=1 / no-opt-qp-pps / no-opt-ref-list-length-pps / no-multi-pass-opt-rps / scenecut-bias=0.05 / hist-threshold=0.03 / no-opt-cu-delta-qp / aq-motion / no-hdr10 / no-hdr10-opt / no-dhdr10-opt / no-idr-recovery-sei / analysis-reuse-level=0 / analysis-save-reuse-level=0 / analysis-load-reuse-level=0 / scale-factor=0 / refine-intra=0 / refine-inter=0 / refine-mv=1 / refine-ctu-distortion=0 / no-limit-sao / ctu-info=0 / no-lowpass-dct / refine-analysis-type=0 / copy-pic=1 / max-ausize-factor=1.0 / no-dynamic-refine / no-single-sei / no-hevc-aq / no-svt / no-field / qp-adaptation-range=1.00 / scenecut-aware-qp=0conformance-window-offsets / right=0 / bottom=0 / NTMzNTQ= / decoder-max-rate=0 / no-vbv-live-multi-pass
  33. Language                                 : English
  34. Default                                  : Yes
  35. Forced                                   : No
  36. Audio
  37. ID                                       : 2
  38. Format                                   : AC-3
  39. Format/Info                              : Audio Coding 3
  40. Commercial name                          : Dolby Digital
  41. Codec ID                                 : A_AC3
  42. Duration                                 : 1 h 35 min
  43. Bit rate mode                            : Constant
  44. Bit rate                                 : 640 kb/s
  45. Channel(s)                               : 1 channel
  46. Channel layout                           : C
  47. Sampling rate                            : 48.0 kHz
  48. Frame rate                               : 31.250 FPS (1536 SPF)
  49. Compression mode                         : Lossy
  50. Stream size                              : 437 MiB (7%)
  51. Language                                 : English
  52. Service kind                             : Complete Main
  53. Default                                  : Yes
  54. Forced                                   : No
  55. Text #1
  56. ID                                       : 3
  57. Format                                   : PGS
  58. Muxing mode                              : zlib
  59. Codec ID                                 : S_HDMV/PGS
  60. Codec ID/Info                            : Picture based subtitle format used on BDs/HD-DVDs
  61. Duration                                 : 1 h 33 min
  62. Bit rate                                 : 37.4 kb/s
  63. Count of elements                        : 3219
  64. Stream size                              : 25.1 MiB (0%)
  65. Language                                 : Chinese
  66. Default                                  : Yes
  67. Forced                                   : No
  68. Text #2
  69. ID                                       : 4
  70. Format                                   : PGS
  71. Muxing mode                              : zlib
  72. Codec ID                                 : S_HDMV/PGS
  73. Codec ID/Info                            : Picture based subtitle format used on BDs/HD-DVDs
  74. Duration                                 : 1 h 33 min
  75. Bit rate                                 : 66.1 kb/s
  76. Count of elements                        : 3219
  77. Stream size                              : 44.3 MiB (1%)
  78. Language                                 : Chinese
  79. Default                                  : Yes
  80. Forced                                   : No
  81. Menu
  82. 00:00:00.000                             : en:Chapter 01
  83. 00:06:12.042                             : en:Chapter 02
  84. 00:09:27.917                             : en:Chapter 03
  85. 00:21:00.875                             : en:Chapter 04
  86. 00:40:09.958                             : en:Chapter 05
  87. 00:49:12.167                             : en:Chapter 06
  88. 00:59:05.042                             : en:Chapter 07
  89. 01:03:27.667                             : en:Chapter 08
  90. 01:09:27.583                             : en:Chapter 09
  91. 01:16:36.167                             : en:Chapter 10
  92. 01:25:07.667                             : en:Chapter 11
  93. 01:30:32.208                             : en:Chapter 12
  94. 01:32:46.875                             : en:Chapter 13





此处一般会放置磁力链或种子下载链接,不过此链接需要注册会员才能看到,点击“立即注册”
磁力链下载【下载链接仅对注册会员开放,登陆后可见】
BT9527电影天堂 1、BT9527电影天堂提供的BT文件均来源于互联网抓取,只供网友学习交流、技术提升使用。
2、我们遵守BitTorrent点对点协议原则,任何版权问题请联系原资源发布商,我们不处理任何版权纠纷,谢谢!如有争议请联系邮箱:BT9527#hotmail.com(#换成@)
3、如果您发现某页面或地址有错误,请联系站长邮箱BT9527#hotmail.com(#换成@),我们会尽快处理。您的热心是对BT9527电影天堂最大的支持。
4、本站建议去正规影院观看电影以支持电影行业发展。
最新回复 (0)

你可以在 登录 or 注册 后,对此帖发表评论!

返回
发新帖