桂河大桥[中文字幕].The.Bridge.on.the.River.Kwai.1957.2160p.US.BluRay.x264.8bit.SDR.DTS-HD.MA.TrueHD.7.1.Atmos-SWTYBLZ 68.72GB

版主小s 5月前 294

桂河大桥[中文字幕].The.Bridge.on.the.River.Kwai.1957.2160p.US.BluRay.x264.8bit.SDR.DTS-HD.MA.TrueHD.7.1.Atmos-SWTYBLZ 68.72GB



◎译  名 桂河大桥 / 桂河桥
◎片  名 The Bridge on the River Kwai
◎年  代 1957
◎产  地 英国 / 美国
◎类  别 剧情 / 历史 / 战争
◎语  言 英语 / 日语 / 泰语
◎上映日期 1957-10-02(英国)
◎IMDb链接 https://www.imdb.com/title/tt0050212/
◎豆瓣评分 8.4/10 (23007人评价)
◎豆瓣链接 https://movie.douban.com/subject/1294958/
◎片  长 161分钟
◎导  演 大卫·里恩 David Lean (id:1002783)
◎编  剧 迈克尔·威尔逊 Michael Wilson (id:1160972)
       卡尔·福尔曼 Carl Foreman (id:1023370)
◎演  员 威廉·霍尔登 William Holden (id:1002737)
       亚历克·吉尼斯 Alec Guinness (id:1000109)
       杰克·霍金斯 Jack Hawkins (id:1049902)
       早川雪洲 Sessue Hayakawa (id:1019196)
       詹姆斯·唐纳德 James Donald (id:1089546)
       杰弗里·霍尔内 Geoffrey Horne (id:1100732)
       特德·斯特吉斯 Ted Sturgis (id:1298585)
       Gus Agosti Gus Agosti (id:1276854)

◎简  介
  二战期间,日军占领了缅甸边境的一个战俘营。出于战略需要,日军将在缅甸与泰国交界修建一条大桥,同时希望战俘营里战俘出力,但英军战俘代表尼科森上校(亚利克·基尼斯 Alec Guinness 饰)认为这违反日内瓦公约拒不执行。于是尼科森等人被关了禁闭,但是没了尼科森的带领, 战俘们表现消极,而且因日本设计方面的不足,建桥工作陷入了停滞。日军无奈只好放出了尼科森等人,获释后尼科森感到在破坏一切的战争里何不做点建设,于是开始投入到建桥的工作。与此同时,逃出去的美军俘虏希尔兹(威廉?霍尔登 William Holden 饰)接受盟军一个特别任务,就是大桥建成之日将它炸毁。

◎获奖情况 (共12项)
  第30届奥斯卡金像奖 (1958)
  最佳影片
   └──萨姆·斯皮格尔 (id:1041774)
  最佳导演
   └──大卫·里恩 (id:1002783)
  最佳男主角
   └──亚历克·吉尼斯 (id:1000109)
  最佳男配角(提名)
   └──早川雪洲 (id:1019196)
  最佳改编剧本
  最佳摄影
   └──杰克·希尔德亚德 (id:1033673)
  最佳剪辑
   └──彼得·泰勒 (id:1153387)
  最佳配乐
   └──马尔科姆·阿诺德 (id:1028893)

  第15届金球奖 (1958)
  电影类 最佳剧情片
  电影类 最佳导演
   └──大卫·里恩 (id:1002783)
  电影类 剧情片最佳男主角
   └──亚历克·吉尼斯 (id:1000109)
  电影类 最佳男配角(提名)
   └──早川雪洲 (id:1019196)

  1. Video
  2. ID                                       : 1
  3. Format                                   : AVC
  4. Format/Info                              : Advanced Video Codec
  5. Format profile                           : High@L5.1
  6. Format settings                          : CABAC / 5 Ref Frames
  7. Format settings, CABAC                   : Yes
  8. Format settings, Reference frames        : 5 frames
  9. Codec ID                                 : V_MPEG4/ISO/AVC
  10. Duration                                 : 2 h 41 min
  11. Bit rate                                 : 51.3 Mb/s
  12. Width                                    : 3 840 pixels
  13. Height                                   : 1 506 pixels
  14. Display aspect ratio                     : 2.550
  15. Frame rate mode                          : Constant
  16. Frame rate                               : 23.976 (24000/1001/53354) FPS
  17. Color space                              : YUV
  18. Chroma subsampling                       : 4:2:0
  19. Bit depth                                : 8 bits
  20. Scan type                                : Progressive
  21. Bits/(Pixel*Frame)                       : 0.370
  22. Stream size                              : 57.9 GiB (85%)
  23. Writing library                          : x264 core 157 r2935 545de2f
  24. Encoding settings                        : cabac=1 / ref=5 / deblock=1:-1:-1 / analyse=0x3:0x113 / me=umh / subme=10 / psy=1 / psy_rd=1.00:0.15 / mixed_ref=1 / me_range=48 / chroma_me=1 / trellis=2 / 8x8dct=1 / cqm=0 / deadzone=21,11 / fast_pskip=1 / chroma_qp_offset=-3 / threads=47 / lookahead_threads=3 / sliced_threads=0 / nr=0 / decimate=0 / interlaced=0 / NTMzNTQ= / bluray_compat=0 / constrained_intra=0 / bframes=3 / b_pyramid=2 / b_adapt=2 / b_bias=0 / direct=3 / weightb=1 / open_gop=0 / weightp=2 / keyint=250 / keyint_min=23 / NTMzNTQ=uuDQuD2mJt9fsCf / scenecut=40 / intra_refresh=0 / rc_lookahead=50 / rc=crf / mbtree=1 / crf=22.0 / qcomp=0.60 / qpmin=0 / qpmax=69 / qpstep=4 / NTMzNTQ=LmsMAP37EqsCpk / ip_ratio=1.40 / aq=1:1.00
  25. Default                                  : Yes
  26. Forced                                   : No

  27. Audio #1
  28. ID                                       : 2
  29. ID in the original source medium         : 4361 (0x1109)
  30. Format                                   : MLP FBA 16-ch
  31. Format/Info                              : Meridian Lossless Packing FBA with 16-channel presentation
  32. Commercial name                          : Dolby TrueHD with Dolby Atmos
  33. Codec ID                                 : A_TRUEHD
  34. Duration                                 : 2 h 41 min
  35. Bit rate mode                            : Variable
  36. Bit rate                                 : 4 091 kb/s
  37. Maximum bit rate                         : 6 336 kb/s
  38. Channel(s)                               : 8 channels
  39. Channel layout                           : L R C LFE Ls Rs Lb Rb
  40. Sampling rate                            : 48.0 kHz
  41. Frame rate                               : 1 200.000 FPS (40 SPF)
  42. Bit depth                                : 24 bits
  43. Compression mode                         : Lossless
  44. Stream size                              : 4.61 GiB (7%)
  45. Title                                    : TrueHD 7.1 Atmos
  46. Language                                 : English
  47. Default                                  : Yes
  48. Forced                                   : No
  49. Original source medium                   : Blu-ray
  50. Number of dynamic objects                : 11
  51. Bed channel count                        : 1 channel
  52. Bed channel configuration                : LFE

  53. Audio #2
  54. ID                                       : 3
  55. Format                                   : DTS XLL
  56. Format/Info                              : Digital Theater Systems
  57. Commercial name                          : DTS-HD Master Audio
  58. Codec ID                                 : A_DTS
  59. Duration                                 : 2 h 41 min
  60. Bit rate mode                            : Variable
  61. Bit rate                                 : 4 310 kb/s
  62. Channel(s)                               : 8 channels
  63. Channel layout                           : C L R LFE Lb Rb Lss Rss
  64. Sampling rate                            : 48.0 kHz
  65. Frame rate                               : 93.750 FPS (512 SPF)
  66. Bit depth                                : 24 bits
  67. Compression mode                         : Lossless
  68. Stream size                              : 4.86 GiB (7%)
  69. Title                                    : DTS-HD MA 7.1
  70. Language                                 : English
  71. Default                                  : No
  72. Forced                                   : No

  73. Audio #3
  74. ID                                       : 4
  75. ID in the original source medium         : 4361 (0x1109)
  76. Format                                   : AC-3
  77. Format/Info                              : Audio Coding 3
  78. Commercial name                          : Dolby Digital
  79. Codec ID                                 : A_AC3
  80. Duration                                 : 2 h 41 min
  81. Bit rate mode                            : Constant
  82. Bit rate                                 : 640 kb/s
  83. Channel(s)                               : 6 channels
  84. Channel layout                           : L R C LFE Ls Rs
  85. Sampling rate                            : 48.0 kHz
  86. Frame rate                               : 31.250 FPS (1536 SPF)
  87. Compression mode                         : Lossy
  88. Stream size                              : 739 MiB (1%)
  89. Title                                    : DD 5.1
  90. Language                                 : English
  91. Service kind                             : Complete Main
  92. Default                                  : No
  93. Forced                                   : No
  94. Original source medium                   : Blu-ray

  95. Text #1
  96. ID                                       : 5
  97. Format                                   : UTF-8
  98. Codec ID                                 : S_TEXT/UTF8
  99. Codec ID/Info                            : UTF-8 Plain Text
  100. Duration                                 : 2 h 34 min
  101. Bit rate                                 : 47 b/s
  102. Count of elements                        : 1349
  103. Stream size                              : 54.1 KiB (0%)
  104. Language                                 : English
  105. Default                                  : Yes
  106. Forced                                   : No

  107. Text #2
  108. ID                                       : 6
  109. Format                                   : UTF-8
  110. Codec ID                                 : S_TEXT/UTF8
  111. Codec ID/Info                            : UTF-8 Plain Text
  112. Duration                                 : 2 h 40 min
  113. Bit rate                                 : 48 b/s
  114. Count of elements                        : 1531
  115. Stream size                              : 57.4 KiB (0%)
  116. Title                                    : SDH
  117. Language                                 : English
  118. Default                                  : No
  119. Forced                                   : No

  120. Text #3
  121. ID                                       : 7
  122. ID in the original source medium         : 4769 (0x12A1)
  123. Format                                   : PGS
  124. Muxing mode                              : zlib
  125. Codec ID                                 : S_HDMV/PGS
  126. Codec ID/Info                            : Picture based subtitle format used on BDs/HD-DVDs
  127. Duration                                 : 2 h 36 min
  128. Bit rate                                 : 26.2 kb/s
  129. Count of elements                        : 2760
  130. Stream size                              : 29.4 MiB (0%)
  131. Language                                 : English
  132. Default                                  : No
  133. Forced                                   : No
  134. Original source medium                   : Blu-ray

  135. Text #4
  136. ID                                       : 8
  137. ID in the original source medium         : 4768 (0x12A0)
  138. Format                                   : PGS
  139. Muxing mode                              : zlib
  140. Codec ID                                 : S_HDMV/PGS
  141. Codec ID/Info                            : Picture based subtitle format used on BDs/HD-DVDs
  142. Duration                                 : 2 h 40 min
  143. Bit rate                                 : 28.6 kb/s
  144. Count of elements                        : 3128
  145. Stream size                              : 32.9 MiB (0%)
  146. Title                                    : SDH
  147. Language                                 : English
  148. Default                                  : No
  149. Forced                                   : No
  150. Original source medium                   : Blu-ray

  151. Text #5
  152. ID                                       : 9
  153. ID in the original source medium         : 4771 (0x12A3)
  154. Format                                   : PGS
  155. Muxing mode                              : zlib
  156. Codec ID                                 : S_HDMV/PGS
  157. Codec ID/Info                            : Picture based subtitle format used on BDs/HD-DVDs
  158. Duration                                 : 2 h 36 min
  159. Bit rate                                 : 26.2 kb/s
  160. Count of elements                        : 2780
  161. Stream size                              : 29.4 MiB (0%)
  162. Language                                 : English
  163. Default                                  : No
  164. Forced                                   : No
  165. Original source medium                   : Blu-ray

  166. Text #6
  167. ID                                       : 10
  168. ID in the original source medium         : 4770 (0x12A2)
  169. Format                                   : PGS
  170. Muxing mode                              : zlib
  171. Codec ID                                 : S_HDMV/PGS
  172. Codec ID/Info                            : Picture based subtitle format used on BDs/HD-DVDs
  173. Duration                                 : 2 h 41 min
  174. Bit rate                                 : 28.6 kb/s
  175. Count of elements                        : 3130
  176. Stream size                              : 32.9 MiB (0%)
  177. Title                                    : SDH
  178. Language                                 : English
  179. Default                                  : No
  180. Forced                                   : No
  181. Original source medium                   : Blu-ray

  182. Text #7
  183. ID                                       : 11
  184. ID in the original source medium         : 4772 (0x12A4)
  185. Format                                   : PGS
  186. Muxing mode                              : zlib
  187. Codec ID                                 : S_HDMV/PGS
  188. Codec ID/Info                            : Picture based subtitle format used on BDs/HD-DVDs
  189. Duration                                 : 2 h 34 min
  190. Bit rate                                 : 12.6 kb/s
  191. Count of elements                        : 2636
  192. Stream size                              : 13.9 MiB (0%)
  193. Language                                 : Arabic
  194. Default                                  : No
  195. Forced                                   : No
  196. Original source medium                   : Blu-ray

  197. Text #8
  198. ID                                       : 12
  199. ID in the original source medium         : 4773 (0x12A5)
  200. Format                                   : PGS
  201. Muxing mode                              : zlib
  202. Codec ID                                 : S_HDMV/PGS
  203. Codec ID/Info                            : Picture based subtitle format used on BDs/HD-DVDs
  204. Duration                                 : 2 h 36 min
  205. Bit rate                                 : 23.3 kb/s
  206. Count of elements                        : 2776
  207. Stream size                              : 26.1 MiB (0%)
  208. Language                                 : Chinese
  209. Default                                  : No
  210. Forced                                   : No
  211. Original source medium                   : Blu-ray

  212. Text #9
  213. ID                                       : 13
  214. ID in the original source medium         : 4774 (0x12A6)
  215. Format                                   : PGS
  216. Muxing mode                              : zlib
  217. Codec ID                                 : S_HDMV/PGS
  218. Codec ID/Info                            : Picture based subtitle format used on BDs/HD-DVDs
  219. Duration                                 : 2 h 35 min
  220. Bit rate                                 : 19.0 kb/s
  221. Count of elements                        : 2776
  222. Stream size                              : 21.0 MiB (0%)
  223. Language                                 : Chinese
  224. Default                                  : No
  225. Forced                                   : No
  226. Original source medium                   : Blu-ray

  227. Text #10
  228. ID                                       : 14
  229. ID in the original source medium         : 4775 (0x12A7)
  230. Format                                   : PGS
  231. Muxing mode                              : zlib
  232. Codec ID                                 : S_HDMV/PGS
  233. Codec ID/Info                            : Picture based subtitle format used on BDs/HD-DVDs
  234. Duration                                 : 2 h 34 min
  235. Bit rate                                 : 22.8 kb/s
  236. Count of elements                        : 2634
  237. Stream size                              : 25.3 MiB (0%)
  238. Language                                 : Czech
  239. Default                                  : No
  240. Forced                                   : No
  241. Original source medium                   : Blu-ray

  242. Text #11
  243. ID                                       : 15
  244. ID in the original source medium         : 4776 (0x12A8)
  245. Format                                   : PGS
  246. Muxing mode                              : zlib
  247. Codec ID                                 : S_HDMV/PGS
  248. Codec ID/Info                            : Picture based subtitle format used on BDs/HD-DVDs
  249. Duration                                 : 2 h 35 min
  250. Bit rate                                 : 23.8 kb/s
  251. Count of elements                        : 2286
  252. Stream size                              : 26.4 MiB (0%)
  253. Language                                 : Danish
  254. Default                                  : No
  255. Forced                                   : No
  256. Original source medium                   : Blu-ray

  257. Text #12
  258. ID                                       : 16
  259. ID in the original source medium         : 4777 (0x12A9)
  260. Format                                   : PGS
  261. Muxing mode                              : zlib
  262. Codec ID                                 : S_HDMV/PGS
  263. Codec ID/Info                            : Picture based subtitle format used on BDs/HD-DVDs
  264. Duration                                 : 2 h 35 min
  265. Bit rate                                 : 20.9 kb/s
  266. Count of elements                        : 1998
  267. Stream size                              : 23.2 MiB (0%)
  268. Language                                 : Dutch
  269. Default                                  : No
  270. Forced                                   : No
  271. Original source medium                   : Blu-ray

  272. Text #13
  273. ID                                       : 17
  274. ID in the original source medium         : 4778 (0x12AA)
  275. Format                                   : PGS
  276. Muxing mode                              : zlib
  277. Codec ID                                 : S_HDMV/PGS
  278. Codec ID/Info                            : Picture based subtitle format used on BDs/HD-DVDs
  279. Duration                                 : 2 h 34 min
  280. Bit rate                                 : 20.3 kb/s
  281. Count of elements                        : 1788
  282. Stream size                              : 22.5 MiB (0%)
  283. Language                                 : Finnish
  284. Default                                  : No
  285. Forced                                   : No
  286. Original source medium                   : Blu-ray

  287. Text #14
  288. ID                                       : 18
  289. ID in the original source medium         : 4779 (0x12AB)
  290. Format                                   : PGS
  291. Muxing mode                              : zlib
  292. Codec ID                                 : S_HDMV/PGS
  293. Codec ID/Info                            : Picture based subtitle format used on BDs/HD-DVDs
  294. Duration                                 : 2 h 36 min
  295. Bit rate                                 : 22.5 kb/s
  296. Count of elements                        : 2608
  297. Stream size                              : 25.3 MiB (0%)
  298. Language                                 : French
  299. Default                                  : No
  300. Forced                                   : No
  301. Original source medium                   : Blu-ray

  302. Text #15
  303. ID                                       : 19
  304. ID in the original source medium         : 4780 (0x12AC)
  305. Format                                   : PGS
  306. Muxing mode                              : zlib
  307. Codec ID                                 : S_HDMV/PGS
  308. Codec ID/Info                            : Picture based subtitle format used on BDs/HD-DVDs
  309. Duration                                 : 2 h 35 min
  310. Bit rate                                 : 27.4 kb/s
  311. Count of elements                        : 2768
  312. Stream size                              : 30.4 MiB (0%)
  313. Language                                 : German
  314. Default                                  : No
  315. Forced                                   : No
  316. Original source medium                   : Blu-ray

  317. Text #16
  318. ID                                       : 20
  319. ID in the original source medium         : 4781 (0x12AD)
  320. Format                                   : PGS
  321. Muxing mode                              : zlib
  322. Codec ID                                 : S_HDMV/PGS
  323. Codec ID/Info                            : Picture based subtitle format used on BDs/HD-DVDs
  324. Duration                                 : 2 h 36 min
  325. Bit rate                                 : 21.7 kb/s
  326. Count of elements                        : 2770
  327. Stream size                              : 24.3 MiB (0%)
  328. Language                                 : Greek
  329. Default                                  : No
  330. Forced                                   : No
  331. Original source medium                   : Blu-ray

  332. Text #17
  333. ID                                       : 21
  334. ID in the original source medium         : 4782 (0x12AE)
  335. Format                                   : PGS
  336. Muxing mode                              : zlib
  337. Codec ID                                 : S_HDMV/PGS
  338. Codec ID/Info                            : Picture based subtitle format used on BDs/HD-DVDs
  339. Duration                                 : 2 h 35 min
  340. Bit rate                                 : 18.5 kb/s
  341. Count of elements                        : 2776
  342. Stream size                              : 20.6 MiB (0%)
  343. Language                                 : Hebrew
  344. Default                                  : No
  345. Forced                                   : No
  346. Original source medium                   : Blu-ray

  347. Text #18
  348. ID                                       : 22
  349. ID in the original source medium         : 4783 (0x12AF)
  350. Format                                   : PGS
  351. Muxing mode                              : zlib
  352. Codec ID                                 : S_HDMV/PGS
  353. Codec ID/Info                            : Picture based subtitle format used on BDs/HD-DVDs
  354. Duration                                 : 2 h 35 min
  355. Bit rate                                 : 19.6 kb/s
  356. Count of elements                        : 2716
  357. Stream size                              : 21.7 MiB (0%)
  358. Language                                 : Hungarian
  359. Default                                  : No
  360. Forced                                   : No
  361. Original source medium                   : Blu-ray

  362. Text #19
  363. ID                                       : 23
  364. ID in the original source medium         : 4784 (0x12B0)
  365. Format                                   : PGS
  366. Muxing mode                              : zlib
  367. Codec ID                                 : S_HDMV/PGS
  368. Codec ID/Info                            : Picture based subtitle format used on BDs/HD-DVDs
  369. Duration                                 : 2 h 36 min
  370. Bit rate                                 : 28.7 kb/s
  371. Count of elements                        : 2744
  372. Stream size                              : 32.3 MiB (0%)
  373. Language                                 : Indonesian
  374. Default                                  : No
  375. Forced                                   : No
  376. Original source medium                   : Blu-ray

  377. Text #20
  378. ID                                       : 24
  379. ID in the original source medium         : 4785 (0x12B1)
  380. Format                                   : PGS
  381. Muxing mode                              : zlib
  382. Codec ID                                 : S_HDMV/PGS
  383. Codec ID/Info                            : Picture based subtitle format used on BDs/HD-DVDs
  384. Duration                                 : 2 h 35 min
  385. Bit rate                                 : 24.5 kb/s
  386. Count of elements                        : 2784
  387. Stream size                              : 27.2 MiB (0%)
  388. Language                                 : Italian
  389. Default                                  : No
  390. Forced                                   : No
  391. Original source medium                   : Blu-ray

  392. Text #21
  393. ID                                       : 25
  394. ID in the original source medium         : 4786 (0x12B2)
  395. Format                                   : PGS
  396. Muxing mode                              : zlib
  397. Codec ID                                 : S_HDMV/PGS
  398. Codec ID/Info                            : Picture based subtitle format used on BDs/HD-DVDs
  399. Duration                                 : 2 h 38 min
  400. Bit rate                                 : 19.5 kb/s
  401. Count of elements                        : 2784
  402. Stream size                              : 22.1 MiB (0%)
  403. Language                                 : Korean
  404. Default                                  : No
  405. Forced                                   : No
  406. Original source medium                   : Blu-ray

  407. Text #22
  408. ID                                       : 26
  409. ID in the original source medium         : 4787 (0x12B3)
  410. Format                                   : PGS
  411. Muxing mode                              : zlib
  412. Codec ID                                 : S_HDMV/PGS
  413. Codec ID/Info                            : Picture based subtitle format used on BDs/HD-DVDs
  414. Duration                                 : 2 h 35 min
  415. Bit rate                                 : 18.5 kb/s
  416. Count of elements                        : 1752
  417. Stream size                              : 20.5 MiB (0%)
  418. Language                                 : Norwegian
  419. Default                                  : No
  420. Forced                                   : No
  421. Original source medium                   : Blu-ray

  422. Text #23
  423. ID                                       : 27
  424. ID in the original source medium         : 4788 (0x12B4)
  425. Format                                   : PGS
  426. Muxing mode                              : zlib
  427. Codec ID                                 : S_HDMV/PGS
  428. Codec ID/Info                            : Picture based subtitle format used on BDs/HD-DVDs
  429. Duration                                 : 2 h 35 min
  430. Bit rate                                 : 18.2 kb/s
  431. Count of elements                        : 2698
  432. Stream size                              : 20.2 MiB (0%)
  433. Language                                 : Polish
  434. Default                                  : No
  435. Forced                                   : No
  436. Original source medium                   : Blu-ray

  437. Text #24
  438. ID                                       : 28
  439. ID in the original source medium         : 4789 (0x12B5)
  440. Format                                   : PGS
  441. Muxing mode                              : zlib
  442. Codec ID                                 : S_HDMV/PGS
  443. Codec ID/Info                            : Picture based subtitle format used on BDs/HD-DVDs
  444. Duration                                 : 2 h 38 min
  445. Bit rate                                 : 22.4 kb/s
  446. Count of elements                        : 2778
  447. Stream size                              : 25.4 MiB (0%)
  448. Language                                 : Portuguese
  449. Default                                  : No
  450. Forced                                   : No
  451. Original source medium                   : Blu-ray

  452. Text #25
  453. ID                                       : 29
  454. ID in the original source medium         : 4791 (0x12B7)
  455. Format                                   : PGS
  456. Muxing mode                              : zlib
  457. Codec ID                                 : S_HDMV/PGS
  458. Codec ID/Info                            : Picture based subtitle format used on BDs/HD-DVDs
  459. Duration                                 : 2 h 36 min
  460. Bit rate                                 : 23.6 kb/s
  461. Count of elements                        : 2704
  462. Stream size                              : 26.4 MiB (0%)
  463. Language                                 : Slovak
  464. Default                                  : No
  465. Forced                                   : No
  466. Original source medium                   : Blu-ray

  467. Text #26
  468. ID                                       : 30
  469. ID in the original source medium         : 4792 (0x12B8)
  470. Format                                   : PGS
  471. Muxing mode                              : zlib
  472. Codec ID                                 : S_HDMV/PGS
  473. Codec ID/Info                            : Picture based subtitle format used on BDs/HD-DVDs
  474. Duration                                 : 2 h 34 min
  475. Bit rate                                 : 21.6 kb/s
  476. Count of elements                        : 2702
  477. Stream size                              : 24.0 MiB (0%)
  478. Language                                 : Spanish
  479. Default                                  : No
  480. Forced                                   : No
  481. Original source medium                   : Blu-ray

  482. Text #27
  483. ID                                       : 31
  484. ID in the original source medium         : 4793 (0x12B9)
  485. Format                                   : PGS
  486. Muxing mode                              : zlib
  487. Codec ID                                 : S_HDMV/PGS
  488. Codec ID/Info                            : Picture based subtitle format used on BDs/HD-DVDs
  489. Duration                                 : 2 h 38 min
  490. Bit rate                                 : 28.0 kb/s
  491. Count of elements                        : 2952
  492. Stream size                              : 31.7 MiB (0%)
  493. Language                                 : Spanish
  494. Default                                  : No
  495. Forced                                   : No
  496. Original source medium                   : Blu-ray

  497. Text #28
  498. ID                                       : 32
  499. ID in the original source medium         : 4794 (0x12BA)
  500. Format                                   : PGS
  501. Muxing mode                              : zlib
  502. Codec ID                                 : S_HDMV/PGS
  503. Codec ID/Info                            : Picture based subtitle format used on BDs/HD-DVDs
  504. Duration                                 : 2 h 36 min
  505. Bit rate                                 : 18.0 kb/s
  506. Count of elements                        : 1740
  507. Stream size                              : 20.2 MiB (0%)
  508. Language                                 : Swedish
  509. Default                                  : No
  510. Forced                                   : No
  511. Original source medium                   : Blu-ray

  512. Text #29
  513. ID                                       : 33
  514. ID in the original source medium         : 4795 (0x12BB)
  515. Format                                   : PGS
  516. Muxing mode                              : zlib
  517. Codec ID                                 : S_HDMV/PGS
  518. Codec ID/Info                            : Picture based subtitle format used on BDs/HD-DVDs
  519. Duration                                 : 2 h 35 min
  520. Bit rate                                 : 22.9 kb/s
  521. Count of elements                        : 2776
  522. Stream size                              : 25.3 MiB (0%)
  523. Language                                 : Thai
  524. Default                                  : No
  525. Forced                                   : No
  526. Original source medium                   : Blu-ray

  527. Text #30
  528. ID                                       : 34
  529. ID in the original source medium         : 4796 (0x12BC)
  530. Format                                   : PGS
  531. Muxing mode                              : zlib
  532. Codec ID                                 : S_HDMV/PGS
  533. Codec ID/Info                            : Picture based subtitle format used on BDs/HD-DVDs
  534. Duration                                 : 2 h 35 min
  535. Bit rate                                 : 25.8 kb/s
  536. Count of elements                        : 2776
  537. Stream size                              : 28.6 MiB (0%)
  538. Language                                 : Turkish
  539. Default                                  : No
  540. Forced                                   : No
  541. Original source medium                   : Blu-ray

  542. Menu
  543. 00:00:00.000                             : en:Chapter 01
  544. 00:10:54.654                             : en:Chapter 02
  545. 00:21:00.759                             : en:Chapter 03
  546. 00:31:06.114                             : en:Chapter 04
  547. 00:38:43.696                             : en:Chapter 05
  548. 00:50:24.271                             : en:Chapter 06
  549. 01:00:10.607                             : en:Chapter 07
  550. 01:09:43.137                             : en:Chapter 08
  551. 01:20:59.145                             : en:Chapter 09
  552. 01:32:47.478                             : en:Chapter 10
  553. 01:41:14.318                             : en:Chapter 11
  554. 01:50:34.961                             : en:Chapter 12
  555. 02:03:20.142                             : en:Chapter 13
  556. 02:14:36.693                             : en:Chapter 14
  557. 02:24:37.835                             : en:Chapter 15
  558. 02:32:32.726                             : en:Chapter 16




此处一般会放置磁力链或种子下载链接,不过此链接需要注册会员才能看到,点击“立即注册”
磁力链下载【下载链接仅对注册会员开放,登陆后可见】

BT9527电影天堂 1、BT9527电影天堂提供的BT文件均来源于互联网抓取,只供网友学习交流、技术提升使用。
2、我们遵守BitTorrent点对点协议原则,任何版权问题请联系原资源发布商,我们不处理任何版权纠纷,谢谢!如有争议请联系邮箱:BT9527#hotmail.com(#换成@)
3、如果您发现某页面或地址有错误,请联系站长邮箱BT9527#hotmail.com(#换成@),我们会尽快处理。您的热心是对BT9527电影天堂最大的支持。
4、本站建议去正规影院观看电影以支持电影行业发展。
最新回复 (0)

你可以在 登录 or 注册 后,对此帖发表评论!

返回
发新帖