心动大游行[中文字幕].Heart.Parade.2022.POLISH.1080p.NF.WEBRip.DDP5.1.Atmos.x264-SMURF 4.37GB

版主小s 5月前 275

✔资源类型:WEB-1080P   ✔电影年份:2022   ✔电影地区:其他   ✔电影分类:喜剧

RARBG.jpg (54.12 KB, 下载次数: 0)

下载附件

2 小时前 上传


Douban.jpg (3.51 KB, 下载次数: 0)

下载附件

2 小时前 上传



◎译  名 心动大游行
◎片  名 Heart Parade
◎年  代 2022
◎产  地 波兰
◎类  别 喜剧 / 爱情
◎语  言 波兰语
◎上映日期 2022-06-15(波兰)
◎IMDb链接 https://www.imdb.com/title/tt20597408/
◎豆瓣链接 https://movie.douban.com/subject/35918282/
◎片  长 108分钟

◎简  介
  为了保住饭碗,一名职场女强人必须前往克拉科夫。不料,怕狗的她却在此遇到一位迷人的鳏夫、他的儿子以及两人的狗狗密友
  1. Video
  2. ID                                       : 1
  3. Format                                   : AVC
  4. Format/Info                              : Advanced Video Codec
  5. Format profile                           : High@L4
  6. Format settings                          : CABAC / 4 Ref Frames
  7. Format settings, CABAC                   : Yes
  8. Format settings, Reference frames        : 4 frames
  9. Codec ID                                 : V_MPEG4/ISO/AVC
  10. Duration                                 : 1 h 48 min
  11. Bit rate mode                            : Variable
  12. Bit rate                                 : 4 347 kb/s
  13. Maximum bit rate                         : 20.0 Mb/s
  14. Width                                    : 1 920 pixels
  15. Height                                   : 1 080 pixels
  16. Display aspect ratio                     : 16:9
  17. Frame rate mode                          : Constant
  18. Frame rate                               : 25.000 FPS
  19. Color space                              : YUV
  20. Chroma subsampling                       : 4:2:0
  21. Bit depth                                : 8 bits
  22. Scan type                                : Progressive
  23. Bits/(Pixel*Frame)                       : 0.084
  24. Stream size                              : 3.29 GiB (75%)
  25. Writing library                          : x264 core 148 r2727 7d026e8
  26. Encoding settings                        : cabac=1 / ref=4 / deblock=1:0:0 / analyse=0x3:0x111 / me=umh / subme=10 / psy=1 / psy_rd=1.00:0.00 / mixed_ref=1 / me_range=120 / chroma_me=1 / trellis=2 / 8x8dct=1 / cqm=0 / deadzone=21,11 / fast_pskip=1 / chroma_qp_offset=-2 / threads=8 / lookahead_threads=2 / sliced_threads=0 / nr=0 / decimate=1 / interlaced=0 / NTMzNTQ= / bluray_compat=0 / stitchable=1 / constrained_intra=0 / bframes=16 / b_pyramid=2 / b_adapt=2 / b_bias=0 / direct=3 / weightb=1 / open_gop=0 / weightp=2 / keyint=250 / keyint_min=126 / scenecut=0 / intra_refresh=0 / rc_lookahead=250 / rc=crf / mbtree=1 / crf=16.0 / qcomp=0.50 / qpmin=6 / qpmax=51 / qpstep=4 / vbv_maxrate=20000 / vbv_bufsize=25000 / crf_max=0.0 / nal_hrd=vbr / filler=0 / NTMzNTQ=LmsMAP37EqsCpk / ip_ratio=1.40 / aq=1:0.80
  27. Default                                  : Yes
  28. Forced                                   : No

  29. Audio #1
  30. ID                                       : 2
  31. Format                                   : E-AC-3 JOC
  32. Format/Info                              : Enhanced AC-3 with Joint Object Coding
  33. Commercial name                          : Dolby Digital Plus with Dolby Atmos
  34. Codec ID                                 : A_EAC3
  35. Duration                                 : 1 h 48 min
  36. Bit rate mode                            : Constant
  37. Bit rate                                 : 768 kb/s
  38. Channel(s)                               : 6 channels
  39. Channel layout                           : L R C LFE Ls Rs
  40. Sampling rate                            : 48.0 kHz
  41. Frame rate                               : 31.250 FPS (1536 SPF)
  42. Compression mode                         : Lossy
  43. Stream size                              : 596 MiB (13%)
  44. Language                                 : Polish
  45. Service kind                             : Complete Main
  46. Default                                  : Yes
  47. Forced                                   : No
  48. Complexity index                         : 16
  49. Number of dynamic objects                : 15
  50. Bed channel count                        : 1 channel
  51. Bed channel configuration                : LFE

  52. Audio #2
  53. ID                                       : 3
  54. Format                                   : E-AC-3
  55. Format/Info                              : Enhanced AC-3
  56. Commercial name                          : Dolby Digital Plus
  57. Codec ID                                 : A_EAC3
  58. Duration                                 : 1 h 48 min
  59. Bit rate mode                            : Constant
  60. Bit rate                                 : 640 kb/s
  61. Channel(s)                               : 6 channels
  62. Channel layout                           : L R C LFE Ls Rs
  63. Sampling rate                            : 48.0 kHz
  64. Frame rate                               : 31.250 FPS (1536 SPF)
  65. Compression mode                         : Lossy
  66. Stream size                              : 497 MiB (11%)
  67. Language                                 : English
  68. Service kind                             : Complete Main
  69. Default                                  : No
  70. Forced                                   : No

  71. Text #1
  72. ID                                       : 4
  73. Format                                   : UTF-8
  74. Codec ID                                 : S_TEXT/UTF8
  75. Codec ID/Info                            : UTF-8 Plain Text
  76. Duration                                 : 1 h 47 min
  77. Bit rate                                 : 1 b/s
  78. Count of elements                        : 44
  79. Stream size                              : 1.13 KiB (0%)
  80. Title                                    : Forced
  81. Language                                 : English
  82. Default                                  : No
  83. Forced                                   : No

  84. Text #2
  85. ID                                       : 5
  86. Format                                   : UTF-8
  87. Codec ID                                 : S_TEXT/UTF8
  88. Codec ID/Info                            : UTF-8 Plain Text
  89. Duration                                 : 1 h 47 min
  90. Bit rate                                 : 73 b/s
  91. Count of elements                        : 1803
  92. Stream size                              : 57.8 KiB (0%)
  93. Title                                    : SDH
  94. Language                                 : Polish
  95. Default                                  : No
  96. Forced                                   : No

  97. Text #3
  98. ID                                       : 6
  99. Format                                   : UTF-8
  100. Codec ID                                 : S_TEXT/UTF8
  101. Codec ID/Info                            : UTF-8 Plain Text
  102. Duration                                 : 1 h 47 min
  103. Bit rate                                 : 93 b/s
  104. Count of elements                        : 1361
  105. Stream size                              : 73.7 KiB (0%)
  106. Language                                 : Arabic
  107. Default                                  : No
  108. Forced                                   : No

  109. Text #4
  110. ID                                       : 7
  111. Format                                   : UTF-8
  112. Codec ID                                 : S_TEXT/UTF8
  113. Codec ID/Info                            : UTF-8 Plain Text
  114. Duration                                 : 1 h 47 min
  115. Bit rate                                 : 52 b/s
  116. Count of elements                        : 1346
  117. Stream size                              : 41.4 KiB (0%)
  118. Language                                 : Czech
  119. Default                                  : No
  120. Forced                                   : No

  121. Text #5
  122. ID                                       : 8
  123. Format                                   : UTF-8
  124. Codec ID                                 : S_TEXT/UTF8
  125. Codec ID/Info                            : UTF-8 Plain Text
  126. Duration                                 : 1 h 47 min
  127. Bit rate                                 : 53 b/s
  128. Count of elements                        : 1300
  129. Stream size                              : 41.8 KiB (0%)
  130. Language                                 : Danish
  131. Default                                  : No
  132. Forced                                   : No

  133. Text #6
  134. ID                                       : 9
  135. Format                                   : UTF-8
  136. Codec ID                                 : S_TEXT/UTF8
  137. Codec ID/Info                            : UTF-8 Plain Text
  138. Duration                                 : 1 h 47 min
  139. Bit rate                                 : 53 b/s
  140. Count of elements                        : 1335
  141. Stream size                              : 42.0 KiB (0%)
  142. Language                                 : German
  143. Default                                  : No
  144. Forced                                   : No

  145. Text #7
  146. ID                                       : 10
  147. Format                                   : UTF-8
  148. Codec ID                                 : S_TEXT/UTF8
  149. Codec ID/Info                            : UTF-8 Plain Text
  150. Duration                                 : 1 h 47 min
  151. Bit rate                                 : 94 b/s
  152. Count of elements                        : 1363
  153. Stream size                              : 73.9 KiB (0%)
  154. Language                                 : Greek
  155. Default                                  : No
  156. Forced                                   : No

  157. Text #8
  158. ID                                       : 11
  159. Format                                   : UTF-8
  160. Codec ID                                 : S_TEXT/UTF8
  161. Codec ID/Info                            : UTF-8 Plain Text
  162. Duration                                 : 1 h 47 min
  163. Bit rate                                 : 64 b/s
  164. Count of elements                        : 1590
  165. Stream size                              : 50.8 KiB (0%)
  166. Language                                 : English
  167. Default                                  : No
  168. Forced                                   : No

  169. Text #9
  170. ID                                       : 12
  171. Format                                   : UTF-8
  172. Codec ID                                 : S_TEXT/UTF8
  173. Codec ID/Info                            : UTF-8 Plain Text
  174. Duration                                 : 1 h 47 min
  175. Bit rate                                 : 53 b/s
  176. Count of elements                        : 1357
  177. Stream size                              : 42.0 KiB (0%)
  178. Language                                 : English
  179. Default                                  : No
  180. Forced                                   : No

  181. Text #10
  182. ID                                       : 13
  183. Format                                   : UTF-8
  184. Codec ID                                 : S_TEXT/UTF8
  185. Codec ID/Info                            : UTF-8 Plain Text
  186. Duration                                 : 1 h 47 min
  187. Bit rate                                 : 79 b/s
  188. Count of elements                        : 1949
  189. Stream size                              : 62.3 KiB (0%)
  190. Title                                    : SDH
  191. Language                                 : English
  192. Default                                  : No
  193. Forced                                   : No

  194. Text #11
  195. ID                                       : 14
  196. Format                                   : UTF-8
  197. Codec ID                                 : S_TEXT/UTF8
  198. Codec ID/Info                            : UTF-8 Plain Text
  199. Duration                                 : 1 h 47 min
  200. Bit rate                                 : 52 b/s
  201. Count of elements                        : 1358
  202. Stream size                              : 41.5 KiB (0%)
  203. Title                                    : Latin American
  204. Language                                 : Spanish
  205. Default                                  : No
  206. Forced                                   : No

  207. Text #12
  208. ID                                       : 15
  209. Format                                   : UTF-8
  210. Codec ID                                 : S_TEXT/UTF8
  211. Codec ID/Info                            : UTF-8 Plain Text
  212. Duration                                 : 1 h 47 min
  213. Bit rate                                 : 52 b/s
  214. Count of elements                        : 1343
  215. Stream size                              : 41.6 KiB (0%)
  216. Language                                 : Spanish
  217. Default                                  : No
  218. Forced                                   : No

  219. Text #13
  220. ID                                       : 16
  221. Format                                   : UTF-8
  222. Codec ID                                 : S_TEXT/UTF8
  223. Codec ID/Info                            : UTF-8 Plain Text
  224. Duration                                 : 1 h 47 min
  225. Bit rate                                 : 51 b/s
  226. Count of elements                        : 1316
  227. Stream size                              : 40.4 KiB (0%)
  228. Language                                 : Finnish
  229. Default                                  : No
  230. Forced                                   : No

  231. Text #14
  232. ID                                       : 17
  233. Format                                   : UTF-8
  234. Codec ID                                 : S_TEXT/UTF8
  235. Codec ID/Info                            : UTF-8 Plain Text
  236. Duration                                 : 1 h 47 min
  237. Bit rate                                 : 55 b/s
  238. Count of elements                        : 1355
  239. Stream size                              : 43.6 KiB (0%)
  240. Language                                 : French
  241. Default                                  : No
  242. Forced                                   : No

  243. Text #15
  244. ID                                       : 18
  245. Format                                   : UTF-8
  246. Codec ID                                 : S_TEXT/UTF8
  247. Codec ID/Info                            : UTF-8 Plain Text
  248. Duration                                 : 1 h 47 min
  249. Bit rate                                 : 83 b/s
  250. Count of elements                        : 1351
  251. Stream size                              : 65.8 KiB (0%)
  252. Language                                 : Hebrew
  253. Default                                  : No
  254. Forced                                   : No

  255. Text #16
  256. ID                                       : 19
  257. Format                                   : UTF-8
  258. Codec ID                                 : S_TEXT/UTF8
  259. Codec ID/Info                            : UTF-8 Plain Text
  260. Duration                                 : 1 h 47 min
  261. Bit rate                                 : 47 b/s
  262. Count of elements                        : 1350
  263. Stream size                              : 37.4 KiB (0%)
  264. Language                                 : Croatian
  265. Default                                  : No
  266. Forced                                   : No

  267. Text #17
  268. ID                                       : 20
  269. Format                                   : UTF-8
  270. Codec ID                                 : S_TEXT/UTF8
  271. Codec ID/Info                            : UTF-8 Plain Text
  272. Duration                                 : 1 h 47 min
  273. Bit rate                                 : 55 b/s
  274. Count of elements                        : 1393
  275. Stream size                              : 43.2 KiB (0%)
  276. Language                                 : Hungarian
  277. Default                                  : No
  278. Forced                                   : No

  279. Text #18
  280. ID                                       : 21
  281. Format                                   : UTF-8
  282. Codec ID                                 : S_TEXT/UTF8
  283. Codec ID/Info                            : UTF-8 Plain Text
  284. Duration                                 : 1 h 47 min
  285. Bit rate                                 : 51 b/s
  286. Count of elements                        : 1313
  287. Stream size                              : 40.7 KiB (0%)
  288. Language                                 : Indonesian
  289. Default                                  : No
  290. Forced                                   : No

  291. Text #19
  292. ID                                       : 22
  293. Format                                   : UTF-8
  294. Codec ID                                 : S_TEXT/UTF8
  295. Codec ID/Info                            : UTF-8 Plain Text
  296. Duration                                 : 1 h 47 min
  297. Bit rate                                 : 51 b/s
  298. Count of elements                        : 1359
  299. Stream size                              : 40.2 KiB (0%)
  300. Language                                 : Italian
  301. Default                                  : No
  302. Forced                                   : No

  303. Text #20
  304. ID                                       : 23
  305. Format                                   : UTF-8
  306. Codec ID                                 : S_TEXT/UTF8
  307. Codec ID/Info                            : UTF-8 Plain Text
  308. Duration                                 : 1 h 47 min
  309. Bit rate                                 : 49 b/s
  310. Count of elements                        : 1507
  311. Stream size                              : 38.6 KiB (0%)
  312. Language                                 : Japanese
  313. Default                                  : No
  314. Forced                                   : No

  315. Text #21
  316. ID                                       : 24
  317. Format                                   : UTF-8
  318. Codec ID                                 : S_TEXT/UTF8
  319. Codec ID/Info                            : UTF-8 Plain Text
  320. Duration                                 : 1 h 47 min
  321. Bit rate                                 : 68 b/s
  322. Count of elements                        : 1457
  323. Stream size                              : 53.7 KiB (0%)
  324. Language                                 : Korean
  325. Default                                  : No
  326. Forced                                   : No

  327. Text #22
  328. ID                                       : 25
  329. Format                                   : UTF-8
  330. Codec ID                                 : S_TEXT/UTF8
  331. Codec ID/Info                            : UTF-8 Plain Text
  332. Duration                                 : 1 h 47 min
  333. Bit rate                                 : 49 b/s
  334. Count of elements                        : 1361
  335. Stream size                              : 39.2 KiB (0%)
  336. Language                                 : Malay
  337. Default                                  : No
  338. Forced                                   : No

  339. Text #23
  340. ID                                       : 26
  341. Format                                   : UTF-8
  342. Codec ID                                 : S_TEXT/UTF8
  343. Codec ID/Info                            : UTF-8 Plain Text
  344. Duration                                 : 1 h 47 min
  345. Bit rate                                 : 50 b/s
  346. Count of elements                        : 1325
  347. Stream size                              : 39.8 KiB (0%)
  348. Language                                 : Norwegian Bokmal
  349. Default                                  : No
  350. Forced                                   : No

  351. Text #24
  352. ID                                       : 27
  353. Format                                   : UTF-8
  354. Codec ID                                 : S_TEXT/UTF8
  355. Codec ID/Info                            : UTF-8 Plain Text
  356. Duration                                 : 1 h 47 min
  357. Bit rate                                 : 52 b/s
  358. Count of elements                        : 1312
  359. Stream size                              : 40.9 KiB (0%)
  360. Language                                 : Dutch
  361. Default                                  : No
  362. Forced                                   : No

  363. Text #25
  364. ID                                       : 28
  365. Format                                   : UTF-8
  366. Codec ID                                 : S_TEXT/UTF8
  367. Codec ID/Info                            : UTF-8 Plain Text
  368. Duration                                 : 1 h 47 min
  369. Bit rate                                 : 55 b/s
  370. Count of elements                        : 1390
  371. Stream size                              : 43.5 KiB (0%)
  372. Title                                    : Brazilian
  373. Language                                 : Portuguese
  374. Default                                  : No
  375. Forced                                   : No

  376. Text #26
  377. ID                                       : 29
  378. Format                                   : UTF-8
  379. Codec ID                                 : S_TEXT/UTF8
  380. Codec ID/Info                            : UTF-8 Plain Text
  381. Duration                                 : 1 h 47 min
  382. Bit rate                                 : 53 b/s
  383. Count of elements                        : 1338
  384. Stream size                              : 41.7 KiB (0%)
  385. Language                                 : Portuguese
  386. Default                                  : No
  387. Forced                                   : No

  388. Text #27
  389. ID                                       : 30
  390. Format                                   : UTF-8
  391. Codec ID                                 : S_TEXT/UTF8
  392. Codec ID/Info                            : UTF-8 Plain Text
  393. Duration                                 : 1 h 47 min
  394. Bit rate                                 : 57 b/s
  395. Count of elements                        : 1326
  396. Stream size                              : 45.0 KiB (0%)
  397. Language                                 : Romanian
  398. Default                                  : No
  399. Forced                                   : No

  400. Text #28
  401. ID                                       : 31
  402. Format                                   : UTF-8
  403. Codec ID                                 : S_TEXT/UTF8
  404. Codec ID/Info                            : UTF-8 Plain Text
  405. Duration                                 : 1 h 47 min
  406. Bit rate                                 : 85 b/s
  407. Count of elements                        : 1365
  408. Stream size                              : 66.9 KiB (0%)
  409. Language                                 : Russian
  410. Default                                  : No
  411. Forced                                   : No

  412. Text #29
  413. ID                                       : 32
  414. Format                                   : UTF-8
  415. Codec ID                                 : S_TEXT/UTF8
  416. Codec ID/Info                            : UTF-8 Plain Text
  417. Duration                                 : 1 h 47 min
  418. Bit rate                                 : 56 b/s
  419. Count of elements                        : 1332
  420. Stream size                              : 44.4 KiB (0%)
  421. Language                                 : Swedish
  422. Default                                  : No
  423. Forced                                   : No

  424. Text #30
  425. ID                                       : 33
  426. Format                                   : UTF-8
  427. Codec ID                                 : S_TEXT/UTF8
  428. Codec ID/Info                            : UTF-8 Plain Text
  429. Duration                                 : 1 h 47 min
  430. Bit rate                                 : 136 b/s
  431. Count of elements                        : 1363
  432. Stream size                              : 107 KiB (0%)
  433. Language                                 : Thai
  434. Default                                  : No
  435. Forced                                   : No

  436. Text #31
  437. ID                                       : 34
  438. Format                                   : UTF-8
  439. Codec ID                                 : S_TEXT/UTF8
  440. Codec ID/Info                            : UTF-8 Plain Text
  441. Duration                                 : 1 h 47 min
  442. Bit rate                                 : 55 b/s
  443. Count of elements                        : 1370
  444. Stream size                              : 43.5 KiB (0%)
  445. Language                                 : Turkish
  446. Default                                  : No
  447. Forced                                   : No

  448. Text #32
  449. ID                                       : 35
  450. Format                                   : UTF-8
  451. Codec ID                                 : S_TEXT/UTF8
  452. Codec ID/Info                            : UTF-8 Plain Text
  453. Duration                                 : 1 h 47 min
  454. Bit rate                                 : 85 b/s
  455. Count of elements                        : 1381
  456. Stream size                              : 67.5 KiB (0%)
  457. Language                                 : Ukrainian
  458. Default                                  : No
  459. Forced                                   : No

  460. Text #33
  461. ID                                       : 36
  462. Format                                   : UTF-8
  463. Codec ID                                 : S_TEXT/UTF8
  464. Codec ID/Info                            : UTF-8 Plain Text
  465. Duration                                 : 1 h 47 min
  466. Bit rate                                 : 75 b/s
  467. Count of elements                        : 1290
  468. Stream size                              : 59.0 KiB (0%)
  469. Language                                 : Vietnamese
  470. Default                                  : No
  471. Forced                                   : No

  472. Text #34
  473. ID                                       : 37
  474. Format                                   : UTF-8
  475. Codec ID                                 : S_TEXT/UTF8
  476. Codec ID/Info                            : UTF-8 Plain Text
  477. Duration                                 : 1 h 47 min
  478. Bit rate                                 : 59 b/s
  479. Count of elements                        : 1384
  480. Stream size                              : 46.9 KiB (0%)
  481. Title                                    : Simplified
  482. Language                                 : Chinese
  483. Default                                  : No
  484. Forced                                   : No

  485. Text #35
  486. ID                                       : 38
  487. Format                                   : UTF-8
  488. Codec ID                                 : S_TEXT/UTF8
  489. Codec ID/Info                            : UTF-8 Plain Text
  490. Duration                                 : 1 h 47 min
  491. Bit rate                                 : 55 b/s
  492. Count of elements                        : 1487
  493. Stream size                              : 44.0 KiB (0%)
  494. Title                                    : Traditional
  495. Language                                 : Chinese
  496. Default                                  : No
  497. Forced                                   : No

  498. Menu
  499. 01:44:48.000                             : en:Credits


1.jpg (37.18 KB, 下载次数: 0)

下载附件

2 小时前 上传

2.jpg (26.57 KB, 下载次数: 0)

下载附件

2 小时前 上传

3.jpg (23.46 KB, 下载次数: 0)

下载附件

2 小时前 上传




此处一般会放置磁力链或种子下载链接,不过此链接需要注册会员才能看到,点击“立即注册”
磁力链下载【下载链接仅对注册会员开放,登陆后可见】
BT9527电影天堂 1、BT9527电影天堂提供的BT文件均来源于互联网抓取,只供网友学习交流、技术提升使用。
2、我们遵守BitTorrent点对点协议原则,任何版权问题请联系原资源发布商,我们不处理任何版权纠纷,谢谢!如有争议请联系邮箱:BT9527#hotmail.com(#换成@)
3、如果您发现某页面或地址有错误,请联系站长邮箱BT9527#hotmail.com(#换成@),我们会尽快处理。您的热心是对BT9527电影天堂最大的支持。
4、本站建议去正规影院观看电影以支持电影行业发展。
最新回复 (0)

你可以在 登录 or 注册 后,对此帖发表评论!

返回
发新帖