隧道[中英字幕].Tunnel.2016.BluRay.1080p.x265.10bit-MiniHD 4.78GB

版主小s 5月前 396

✔资源类型:暂未分类   ✔电影年份:2016   ✔电影地区:韩国   ✔电影分类:剧情

◎译  名 隧道 / 失控隧道(台) / 活埋35夜(港) / The Tunnel
◎片  名 ??
◎年  代 2016
◎产  地 韩国
◎类  别 剧情
◎语  言 韩语
◎上映日期 2016-08-10(韩国)
◎IMDb链接 https://www.imdb.com/title/tt5910280/
◎豆瓣评分 7.9/10 (189493人评价)
◎豆瓣链接 https://movie.douban.com/subject/26410594/
◎片  长 126分钟
◎导  演 金成勋 Seong-hoon Kim (id:1341016)
◎编  剧 金成勋 Seong-hoon Kim (id:1341016)
       苏在源 Jae-won So (id:1394254)
◎演  员 河正宇 Jung-woo Ha (id:1032680)
       裴斗娜 Doona Bae (id:1057004)
       吴达洙 Dal-su Oh (id:1203077)
       郑锡勇 Seok-yong Jeong (id:1339692)
       朴赫权 Hyuk-kwon Park (id:1332657)
       南志铉 Ji-hyeon Nam (id:1317211)
       申正根 Jeong-geun Sin (id:1321885)
       赵贤哲 Hyun-Chul Cho (id:1380429)
       刘承睦 Yoo Seung-Mok (id:1331784)
       李哲民  Cheol-min Lee  (id:1316063)
       朴镇宇 Park Jin-woo (id:1376719)
       艺秀晶 Ye Soo-jung (id:1382568)
       陈善圭 Seon-kyu Jin (id:1382194)
       李尚熙 Sang-hee Lee (id:1365338)
       金钟秀 Jong-soo Kim (id:1366651)
       黄炳国 Byung-gook Hwang (id:1389460)
       崔奎华 Gwi-hwa Choi (id:1343349)
       裴侑蓝 Bae Yoo-ram (id:1378640)
       金宣敬 Sun-kyung Kim (id:1112296)
       金海淑 Hae-suk Kim (id:1015294)
       李文石 Moon-Suk Lee (id:1424228)
       姜成哲 Seung-Cheol Kang (id:1424206)
       安贤彬 Hyun-Bin Ahn (id:1424204)
       杨凯凯 Carey Yang (id:1421235)
       高正日 Jeong-il Ko (id:1398727)
       杨志洙 Ji-soo Yang (id:1389427)
       张宥 Sang-hee Lee (id:1448121)
       徐贤宇 Seo Hyeon-woo (id:1379938)
       林韩傧 Han-bin Im (id:1429362)
       林亨泰 Im Hyung Tae (id:1464741)
       郑胜吉 Seung-gil Jeong (id:1379544)
       周锡泰 Suk-tae Joo (id:1375770)
       陈庸旭 Jin Yong-wook (id:1381296)
       韩成天 Han Sung-chun (id:1382218)
       尹敦善 Yoon Don-seon (id:1388063)
       姜信哲 Kang Shin-chul (id:1387821)
       金昇勋 Seung-hoon Kim (id:1387819)
       李东勇 Lee Dong-yong (id:1385635)
       朴庸 Yong Park (id:1382630)
       金秀珍 Soo Jin Kim (id:1382571)
       金成圭 Sungkyu Kim (id:1382228)
       金昌洙 Chang-ju Kim (id:1308553)

◎简  介
  汽车销售员李正洙(河正宇饰)结束工作赶赴女儿生日派对时,行经刚开通的河图隧道,突然一阵天摇地动,让他经历此生最孤立无援的三十五天,而此刻的他唯一能做的就是拨打119求救。这则隧道崩塌消息引发各界关注,除了搜救大队,还吸引了大批抢新闻的嗜血媒体,以及逢场作秀只为增添政绩的官员。搜救队长金大庆(吴达洙饰)不仅要研拟救援计划,还需控制现场跟风记者、向作秀官员汇报,恶劣天气的搅局使得救援行动雪上加霜。好不容易终于进行开挖,准备救出受难者时,竟发现隧道是个豆腐渣工程。一连串的重击使得希望一一幻灭,更糟的是搜救行动中救难队组长意外身亡、国库的大量花费,促使舆论审判,迫使李正洙无助的老婆世贤(裴斗娜饰)签下放弃救援同意书。那一天崩塌的不只是隧道,更引爆现代社会形象丑闻。

◎获奖情况 (共16项)
  第37届韩国电影青龙奖 (2016)
  最佳男主角(提名)
   └──河正宇 (id:1032680)
  最佳男配角(提名)
   └──吴达洙 (id:1203077)
  最佳女配角(提名)
   └──裴斗娜 (id:1057004)
  最佳剧本(提名)
   └──金成勋 (id:1341016)
  最佳剪辑(提名)
  技术奖(提名)

  第53届百想艺术大赏 (2017)
  电影类 最佳男主角(提名)
   └──河正宇 (id:1032680)
  电影类 最佳女配角(提名)
   └──裴斗娜 (id:1057004)

  第53届韩国电影大钟奖 (2016)
  最佳男主角(提名)
   └──河正宇 (id:1032680)
  最佳女主角(提名)
   └──裴斗娜 (id:1057004)
  最佳男配角(提名)
   └──吴达洙 (id:1203077)
  最佳剪辑(提名)
  最佳技术奖(提名)

  第3届豆瓣电影年度榜单 (2016)
  最受关注的非院线电影(提名)
  评分最高的韩国电影(提名)
  9月最受关注电影(提名)

  1. ##### MediaInfo ######
  2. General
  3. Unique ID                                : 198072468004604191384714878988577228936 (0x95035EA68D327864884589CBB6E94888)
  4. Complete name                            : Tunnel.2016.BluRay.1080p.x265.10bit-MiniHD.mkv
  5. Format                                   : Matroska
  6. Format version                           : Version 4
  7. File size                                : 4.78 GiB
  8. Duration                                 : 2 h 6 min
  9. Overall bit rate                         : 5 411 kb/s
  10. Encoded date                             : UTC 2017-04-07 13:52:16
  11. Writing application                      : mkvmerge v9.7.1 ('Pandemonium') 64bit
  12. Writing library                          : libebml v1.3.4 + libmatroska v1.4.5
  13. Video
  14. ID                                       : 1
  15. Format                                   : HEVC
  16. Format/Info                              : High Efficiency Video Coding
  17. Format profile                           : Main 10@L4@Main
  18. Codec ID                                 : V_MPEGH/ISO/HEVC
  19. Duration                                 : 2 h 6 min
  20. Bit rate                                 : 4 663 kb/s
  21. Width                                    : 1 920 pixels
  22. Height                                   : 804 pixels
  23. Display aspect ratio                     : 2.40:1
  24. Frame rate mode                          : Constant
  25. Frame rate                               : 23.976 (24000/1001/53354) FPS
  26. Color space                              : YUV
  27. Chroma subsampling                       : 4:2:0
  28. Bit depth                                : 10 bits
  29. Bits/(Pixel*Frame)                       : 0.126
  30. Stream size                              : 4.12 GiB (86%)
  31. Writing library                          : x265 2.3+24-a0eee4b41185:[Windows][GCC 6.3.0][64 bit] 10bit
  32. Encoding settings                        : cpuid=533541173503 / frame-threads=6 / numa-pools=36 / wpp / no-pmode / no-pme / no-psnr / no-ssim / log-level=2 / input-csp=1 / input-res=1920x804 / interlace=0 / total-frames=181817 / level-idc=0 / high-tier=1 / uhd-bd=0 / ref=5 / no-allow-non-conformance / no-repeat-headers / annexb / no-aud / no-hrd / info / hash=0 / no-temporal-layers / no-open-gop / min-keyint=1 / keyint=360 / bframes=8 / b-adapt=2 / b-pyramid / bframe-bias=0 / rc-lookahead=60 / lookahead-slices=4 / NTMzNTQ=uuDQuD2mJt9fsCf / scenecut=40 / no-intra-refresh / ctu=32 / min-cu-size=8 / rect / no-amp / max-tu-size=16 / tu-inter-depth=2 / tu-intra-depth=2 / limit-tu=4 / rdoq-level=2 / dynamic-rd=0.00 / signhide / no-tskip / nr-intra=0 / nr-inter=0 / no-constrained-intra / no-strong-intra-smoothing / max-merge=3 / limit-refs=1 / limit-modes / me=3 / subme=5 / merange=25 / temporal-mvp / weightp / weightb / no-analyze-src-pics / deblock=-1:-1 / no-sao / no-sao-non-deblock / rd=4 / no-early-skip / rskip / no-fast-intra / no-tskip-fast / no-cu-lossless / b-intra / rdpenalty=1 / psy-rd=0.00 / psy-rdoq=5.00 / no-rd-refine / analysis-mode=0 / no-lossless / cbqpoffs=-2 / crqpoffs=-2 / rc=crf / crf=19.0 / qcomp=0.65 / qpstep=4 / stats-write=0 / stats-read=0 / ipratio=1.30 / pbratio=1.20 / aq-mode=3 / aq-strength=0.80 / cutree / zone-count=0 / no-strict-cbr / qg-size=16 / no-rc-grain / qpmax=69 / qpmin=0 / sar=0 / overscan=0 / videoformat=5 / range=0 / colorprim=1 / transfer=2 / colormatrix=2 / chromaloc=0 / display-window=0 / max-cll=0,0 / min-luma=0 / max-luma=1023 / log2-max-poc-lsb=8 / vui-timing-info / vui-hrd-info / slices=1 / opt-qp-pps / opt-ref-list-length-pps / no-multi-pass-opt-rps / scenecut-bias=0.05 / no-opt-cu-delta-qp / no-aq-motion / no-hdr / no-hdr-opt / refine-level=5
  33. Default                                  : Yes
  34. Forced                                   : No
  35. Color range                              : Limited
  36. Color primaries                          : BT.709
  37. Audio
  38. ID                                       : 2
  39. Format                                   : AC-3
  40. Format/Info                              : Audio Coding 3
  41. Commercial name                          : Dolby Digital
  42. Codec ID                                 : A_AC3
  43. Duration                                 : 2 h 6 min
  44. Bit rate mode                            : Constant
  45. Bit rate                                 : 640 kb/s
  46. Channel(s)                               : 6 channels
  47. Channel layout                           : L R C LFE Ls Rs
  48. Sampling rate                            : 48.0 kHz
  49. Frame rate                               : 31.250 FPS (1536 SPF)
  50. Compression mode                         : Lossy
  51. Stream size                              : 579 MiB (12%)
  52. Language                                 : Korean
  53. Service kind                             : Complete Main
  54. Default                                  : Yes
  55. Forced                                   : No
  56. Text #1
  57. ID                                       : 3
  58. Format                                   : PGS
  59. Muxing mode                              : zlib
  60. Codec ID                                 : S_HDMV/PGS
  61. Codec ID/Info                            : Picture based subtitle format used on BDs/HD-DVDs
  62. Language                                 : Korean
  63. Default                                  : Yes
  64. Forced                                   : No
  65. Text #2
  66. ID                                       : 4
  67. Format                                   : PGS
  68. Muxing mode                              : zlib
  69. Codec ID                                 : S_HDMV/PGS
  70. Codec ID/Info                            : Picture based subtitle format used on BDs/HD-DVDs
  71. Language                                 : Chinese
  72. Default                                  : No
  73. Forced                                   : No
  74. Text #3
  75. ID                                       : 5
  76. Format                                   : PGS
  77. Muxing mode                              : zlib
  78. Codec ID                                 : S_HDMV/PGS
  79. Codec ID/Info                            : Picture based subtitle format used on BDs/HD-DVDs
  80. Language                                 : Chinese
  81. Default                                  : No
  82. Forced                                   : No
  83. Text #4
  84. ID                                       : 6
  85. Format                                   : PGS
  86. Muxing mode                              : zlib
  87. Codec ID                                 : S_HDMV/PGS
  88. Codec ID/Info                            : Picture based subtitle format used on BDs/HD-DVDs
  89. Language                                 : English
  90. Default                                  : No
  91. Forced                                   : No
  92. Menu
  93. 00:00:00.000                             : en:Chapter 01
  94. 00:04:54.669                             : en:Chapter 02
  95. 00:12:11.522                             : en:Chapter 03
  96. 00:18:16.386                             : en:Chapter 04
  97. 00:27:45.330                             : en:Chapter 05
  98. 00:36:10.877                             : en:Chapter 06
  99. 00:42:03.521                             : en:Chapter 07
  100. 00:48:59.561                             : en:Chapter 08
  101. 00:58:42.852                             : en:Chapter 09
  102. 01:06:31.153                             : en:Chapter 10
  103. 01:16:30.919                             : en:Chapter 11
  104. 01:27:00.173                             : en:Chapter 12
  105. 01:34:48.391                             : en:Chapter 13
  106. 01:45:45.756                             : en:Chapter 14
  107. 01:54:21.396                             : en:Chapter 15
  108. 02:00:46.572                             : en:Chapter 16





此处一般会放置磁力链或种子下载链接,不过此链接需要注册会员才能看到,点击“立即注册”
磁力链下载【下载链接仅对注册会员开放,登陆后可见】
BT9527电影天堂 1、BT9527电影天堂提供的BT文件均来源于互联网抓取,只供网友学习交流、技术提升使用。
2、我们遵守BitTorrent点对点协议原则,任何版权问题请联系原资源发布商,我们不处理任何版权纠纷,谢谢!如有争议请联系邮箱:BT9527#hotmail.com(#换成@)
3、如果您发现某页面或地址有错误,请联系站长邮箱BT9527#hotmail.com(#换成@),我们会尽快处理。您的热心是对BT9527电影天堂最大的支持。
4、本站建议去正规影院观看电影以支持电影行业发展。
最新回复 (0)

你可以在 登录 or 注册 后,对此帖发表评论!

返回
发新帖