雨月物语[中英字幕].Ugetsu.1953.CC.BluRay.1080p.x265.10bit-MiniHD 4.18GB

版主小s 5月前 576

✔资源类型:暂未分类   ✔电影年份:更 早   ✔电影地区:日本   ✔电影分类:剧情

◎译  名 雨月物语 / Ugetsu Monogatari / Tales of Ugetsu / Ugetsu
◎片  名 雨月物語
◎年  代 1953
◎产  地 日本
◎类  别 剧情 / 战争 / 奇幻
◎语  言 日语
◎上映日期 1953-03-26
◎IMDb链接 https://www.imdb.com/title/tt0046478/
◎豆瓣评分 8.6/10 (22260人评价)
◎豆瓣链接 https://movie.douban.com/subject/1303577/
◎片  长 96分钟
◎导  演 沟口健二 Kenji Mizoguchi (id:1048273)
◎编  剧 川口松太郎 Matsutar? Kawaguchi (id:1109653)
       依田义贤 Yoshikata Yoda (id:1287273)
       上田秋成 Akinari Ueda (id:1026580)
       辻久一 Hisakazu Tsuji (id:1333032)
◎演  员 田中绢代 Kinuyo Tanaka (id:1037624)
       森雅之 Masayuki Mori (id:1014668)
       小泽荣太郎 Eitar? Ozawa (id:1003650)
       水户光子 Mitsuko Mito (id:1002227)
       京町子 Machiko Ky? (id:1000844)
       毛利菊枝 Kikue M?ri (id:1043858)
       青山杉作 Sugisaku Aoyama (id:1011951)
       香川良介 Ry?suke Kagawa (id:1030662)
       上田吉二郎 Kichijir? Ueda (id:1156385)
       伊达三郎 Saburo Date (id:1003912)
       宫川一夫 Kazuo Miyagawa (id:1033826)

◎简  介
  战国时代,琵琶湖附近的一个小山村里住着源十郎(森雅之饰)和妻子宫木(田中绢代饰),还有妹夫藤兵卫(小泽荣饰)、妹妹阿滨(水户光子)。他们以开小瓷窑、烧制瓷器为生,战乱中,源十郎想趁着战乱发一笔横财,而藤兵卫则想着成为一名武士,出人头地。                                    
                                二人带着烧制好的上好瓷器离开家乡去市镇变卖,果然赚到一大笔钱,源十郎甚至碰上了一位美若天仙的贵族小姐若狭(京町子饰),雨云之欢,乐不思蜀。一天晚归的源十郎被一僧人告知是否遇见什么不干净的东西……。而藤兵卫也如愿以偿地成为了武士,撞大运碰上美事,好不威风,但他居然在寻欢之时遇见了妻子……,骇人的事实摆在了他们的面前。

◎获奖情况 (共4项)
  第28届奥斯卡金像奖 (1956)
  黑白片最佳服装设计(提名)
   └──甲斐庄忠人 (id:1308707)

  第14届威尼斯电影节 (1953)
  主竞赛单元 金狮奖 (提名)
   └──沟口健二 (id:1048273)
  银狮奖 最佳影片
   └──沟口健二 (id:1048273)
  帕西内蒂奖 最佳电影
   └──沟口健二 (id:1048273)

  1. ##### MediaInfo ######
  2. General
  3. Unique ID                                : 190553326032086764671015684928954615624 (0x8F5B3C5443C653109C56C2FCD546C748)
  4. Complete name                            : Ugetsu.1953.CC.BluRay.1080p.x265.10bit-MiniHD.mkv
  5. Format                                   : Matroska
  6. Format version                           : Version 4
  7. File size                                : 4.18 GiB
  8. Duration                                 : 1 h 37 min
  9. Overall bit rate                         : 6 153 kb/s
  10. Encoded date                             : UTC 2017-11-13 02:48:14
  11. Writing application                      : mkvmerge v17.0.0 ('Be Ur Friend') 64-bit
  12. Writing library                          : libebml v1.3.5 + libmatroska v1.4.8
  13. Video
  14. ID                                       : 1
  15. Format                                   : HEVC
  16. Format/Info                              : High Efficiency Video Coding
  17. Format profile                           : Main 10@L4@Main
  18. Codec ID                                 : V_MPEGH/ISO/HEVC
  19. Duration                                 : 1 h 37 min
  20. Bit rate                                 : 5 703 kb/s
  21. Width                                    : 1 474 pixels
  22. Height                                   : 1 080 pixels
  23. Display aspect ratio                     : 4:3
  24. Frame rate mode                          : Constant
  25. Frame rate                               : 23.976 (24000/1001/53354) FPS
  26. Color space                              : YUV
  27. Chroma subsampling                       : 4:2:0
  28. Bit depth                                : 10 bits
  29. Bits/(Pixel*Frame)                       : 0.149
  30. Stream size                              : 3.87 GiB (93%)
  31. Writing library                          : x265 2.5+14-2718cb5dd67f:[Windows][GCC 7.1.0][64 bit] 10bit
  32. Encoding settings                        : cpuid=533541173503 / frame-threads=5 / numa-pools=36 / wpp / no-pmode / no-pme / no-psnr / no-ssim / log-level=2 / csvfn=D:\bdrip\UGETSU.log / csv-log-level=0 / input-csp=1 / input-res=1474x1080 / interlace=0 / total-frames=139815 / level-idc=0 / high-tier=1 / uhd-bd=0 / ref=5 / no-allow-non-conformance / no-repeat-headers / annexb / no-aud / no-hrd / info / hash=0 / no-temporal-layers / no-open-gop / min-keyint=1 / keyint=360 / bframes=9 / b-adapt=2 / b-pyramid / bframe-bias=0 / rc-lookahead=60 / lookahead-slices=4 / NTMzNTQ=uuDQuD2mJt9fsCf / scenecut=40 / no-intra-refresh / ctu=32 / min-cu-size=8 / no-rect / no-amp / max-tu-size=16 / tu-inter-depth=2 / tu-intra-depth=2 / limit-tu=4 / rdoq-level=1 / dynamic-rd=0.00 / ssim-rd / signhide / no-tskip / nr-intra=0 / nr-inter=0 / no-constrained-intra / no-strong-intra-smoothing / max-merge=3 / limit-refs=2 / limit-modes / me=3 / subme=5 / merange=25 / temporal-mvp / weightp / weightb / no-analyze-src-pics / deblock=-1:-1 / no-sao / no-sao-non-deblock / rd=4 / no-early-skip / no-rskip / no-fast-intra / no-tskip-fast / no-cu-lossless / b-intra / no-splitrd-skip / rdpenalty=1 / psy-rd=0.00 / psy-rdoq=3.00 / no-rd-refine / analysis-reuse-mode=0 / no-lossless / cbqpoffs=-1 / crqpoffs=-1 / rc=crf / crf=20.0 / qcomp=0.65 / qpstep=4 / stats-write=0 / stats-read=0 / ipratio=1.40 / pbratio=1.30 / aq-mode=1 / aq-strength=0.70 / cutree / zone-count=0 / no-strict-cbr / qg-size=16 / no-rc-grain / qpmax=69 / qpmin=0 / no-const-vbv / sar=0 / overscan=0 / videoformat=5 / range=0 / colorprim=1 / transfer=2 / colormatrix=2 / chromaloc=0 / display-window=0 / max-cll=0,0 / min-luma=0 / max-luma=1023 / log2-max-poc-lsb=8 / vui-timing-info / vui-hrd-info / slices=1 / opt-qp-pps / opt-ref-list-length-pps / no-multi-pass-opt-rps / scenecut-bias=0.05 / no-opt-cu-delta-qp / no-aq-motion / no-hdr / no-hdr-opt / no-dhdr10-opt / analysis-reuse-level=5 / scale-factor=0 / refine-intra=0 / refine-inter=0 / refine-mv=0 / no-limit-sao / ctu-info=0
  33. Default                                  : Yes
  34. Forced                                   : No
  35. Color range                              : Limited
  36. Color primaries                          : BT.709
  37. Audio
  38. ID                                       : 2
  39. Format                                   : AC-3
  40. Format/Info                              : Audio Coding 3
  41. Commercial name                          : Dolby Digital
  42. Codec ID                                 : A_AC3
  43. Duration                                 : 1 h 37 min
  44. Bit rate mode                            : Constant
  45. Bit rate                                 : 448 kb/s
  46. Channel(s)                               : 1 channel
  47. Channel layout                           : C
  48. Sampling rate                            : 48.0 kHz
  49. Frame rate                               : 31.250 FPS (1536 SPF)
  50. Compression mode                         : Lossy
  51. Stream size                              : 311 MiB (7%)
  52. Title                                    : 日语
  53. Language                                 : Japanese
  54. Service kind                             : Complete Main
  55. Default                                  : Yes
  56. Forced                                   : No
  57. Text #1
  58. ID                                       : 3
  59. Format                                   : UTF-8
  60. Codec ID                                 : S_TEXT/UTF8
  61. Codec ID/Info                            : UTF-8 Plain Text
  62. Duration                                 : 1 h 36 min
  63. Bit rate                                 : 30 b/s
  64. Count of elements                        : 751
  65. Stream size                              : 21.7 KiB (0%)
  66. Title                                    : 英文
  67. Language                                 : English
  68. Default                                  : Yes
  69. Forced                                   : Yes
  70. Text #2
  71. ID                                       : 4
  72. Format                                   : UTF-8
  73. Codec ID                                 : S_TEXT/UTF8
  74. Codec ID/Info                            : UTF-8 Plain Text
  75. Duration                                 : 1 h 36 min
  76. Bit rate                                 : 24 b/s
  77. Count of elements                        : 716
  78. Stream size                              : 17.2 KiB (0%)
  79. Title                                    : 中文
  80. Language                                 : Chinese
  81. Default                                  : No
  82. Forced                                   : No
  83. Menu
  84. 00:00:00.000                             : en:00:00:00.000
  85. 00:02:57.719                             : en:00:02:57.719
  86. 00:08:13.201                             : en:00:08:13.201
  87. 00:13:06.703                             : en:00:13:06.703
  88. 00:20:14.213                             : en:00:20:14.213
  89. 00:23:29.908                             : en:00:23:29.908
  90. 00:29:50.789                             : en:00:29:50.789
  91. 00:33:35.931                             : en:00:33:35.931
  92. 00:36:45.203                             : en:00:36:45.203
  93. 00:42:46.814                             : en:00:42:46.814
  94. 00:48:30.074                             : en:00:48:30.074
  95. 00:54:54.958                             : en:00:54:54.958
  96. 00:57:35.160                             : en:00:57:35.160
  97. 01:01:04.327                             : en:01:01:04.327
  98. 01:05:25.421                             : en:01:05:25.421
  99. 01:10:17.755                             : en:01:10:17.755
  100. 01:13:34.493                             : en:01:13:34.493
  101. 01:23:00.184                             : en:01:23:00.184
  102. 01:30:35.764                             : en:01:30:35.764





此处一般会放置磁力链或种子下载链接,不过此链接需要注册会员才能看到,点击“立即注册”
磁力链下载【下载链接仅对注册会员开放,登陆后可见】
BT9527电影天堂 1、BT9527电影天堂提供的BT文件均来源于互联网抓取,只供网友学习交流、技术提升使用。
2、我们遵守BitTorrent点对点协议原则,任何版权问题请联系原资源发布商,我们不处理任何版权纠纷,谢谢!如有争议请联系邮箱:BT9527#hotmail.com(#换成@)
3、如果您发现某页面或地址有错误,请联系站长邮箱BT9527#hotmail.com(#换成@),我们会尽快处理。您的热心是对BT9527电影天堂最大的支持。
4、本站建议去正规影院观看电影以支持电影行业发展。
最新回复 (1)

你可以在 登录 or 注册 后,对此帖发表评论!

返回
发新帖