霹雳先锋[国语音轨/中英字幕].Final.Justice.1988.BluRay.1080p.x265.10bit.2Audio-MiniHD 5.93GB

版主小s 5月前 333

✔资源类型:暂未分类   ✔电影年份:更 早   ✔电影地区:香港   ✔电影分类:喜剧

◎译  名 霹雳先锋 / Pik lik sin fung / Final Justice
◎片  名 霹靂先鋒
◎年  代 1988
◎产  地 中国香港
◎类  别 喜剧 / 动作 / 犯罪
◎语  言 粤语 / 英语
◎上映日期 1988-06-23(中国香港)
◎IMDb链接 https://www.imdb.com/title/tt0126301/
◎豆瓣评分 7.2/10 (15185人评价)
◎豆瓣链接 https://movie.douban.com/subject/1871220/
◎片  长 95分钟
◎导  演 黄柏文 Parkman Wong (id:1322042)
◎编  剧 冯瑞熊 James Fung (id:1378957)
◎演  员 李修贤 Danny Lee (id:1025452)
       周星驰 Stephen Chow (id:1048026)
       成奎安 Fui-On Shing (id:1141665)
       何家驹 Ka-Kui Ho (id:1286711)
       黄光亮 Kwong Leung Wong (id:1301194)
       韩坤 Victor Hon Kwan (id:1365336)
       王俊棠 Ricky Wong Chun-Tong (id:1321444)
       卢惠光 Ken Lo (id:1032633)
       杨玉梅 Yuk-Mui Yeung (id:1323594)
       黄志强 Kirk Wong (id:1301193)
       英俊超  (id:1370608)
       徐婉薇 Debbre Tsui (id:1324683)
       洪同剑 Tung-Kim Hung (id:1418745)
       罗树琪 Shu-Kei Law (id:1394347)
       林富伟 Fu-wai Lam (id:1433957)
       林志泰 Chi Tai Lam (id:1433961)
       李修贤 Danny Lee (id:1025452)
       黎继明 Kai Ming Lai (id:1315601)
       黎继强 Kai Keung Lai (id:1289263)
       元彬 Bun Yuen (id:1278657)

◎简  介
  华探长张铁柱(李修贤 饰)打拼十几年才有了探长地位,此人嫉恶如仇不事逢迎,与新任督察罗Sir多有摩擦,辛苦破案结果反被后者刁难。另一方面,悍匪“法官”(成奎安 饰)一伙购枪策划大行动,偷车贼伟仔(周星驰 饰)被法官收为外围助手,向其提供犯罪用车。法官与手下狂牛(黄光亮 饰)和鸡翼( 何家驹 饰)等人洗劫赌档,同一天伟仔因偷车嫌疑被张铁柱抓捕入监,赌档事发,罗Sir不顾张铁柱作证将伟仔定为嫌疑人,令张与伟仔二人大为不满。张铁柱将伟仔释放,同时要求伟仔合作抓捕法官一伙。购入武器的法官一伙战力大增,行事愈发嚣张,与其他帮派当街火并,伟仔被卷入杀人案件,只得配合张铁柱,一警一贼终于开始合作……

◎获奖情况 (共3项)
  第25届台北金马影展 (1988)
  金马奖 最佳男配角
   └──周星驰 (id:1048026)

  第8届香港电影金像奖 (1989)
  最佳男配角(提名)
   └──周星驰 (id:1048026)
  最佳新演员(提名)
   └──周星驰 (id:1048026)

  1. ##### MediaInfo ######
  2. General
  3. Unique ID                                : 229368766282174531983334320506153709744 (0xAC8ED149949D5E9B9C895335A747B0B0)
  4. Complete name                            : Final.Justice.1988.BluRay.1080p.x265.10bit.2Audio-MiniHD.mkv
  5. Format                                   : Matroska
  6. Format version                           : Version 4
  7. File size                                : 5.93 GiB
  8. Duration                                 : 1 h 37 min
  9. Overall bit rate                         : 8 674 kb/s
  10. Encoded date                             : UTC 2017-06-02 06:36:22
  11. Writing application                      : mkvmerge v11.0.0 ('Alive') 64bit
  12. Writing library                          : libebml v1.3.4 + libmatroska v1.4.5
  13. Video
  14. ID                                       : 1
  15. Format                                   : HEVC
  16. Format/Info                              : High Efficiency Video Coding
  17. Codec ID                                 : V_MPEGH/ISO/HEVC
  18. Duration                                 : 1 h 37 min
  19. Bit rate                                 : 7 221 kb/s
  20. Width                                    : 1 920 pixels
  21. Height                                   : 1 040 pixels
  22. Display aspect ratio                     : 1.85:1
  23. Frame rate mode                          : Constant
  24. Frame rate                               : 24.000 FPS
  25. Bits/(Pixel*Frame)                       : 0.151
  26. Stream size                              : 4.94 GiB (83%)
  27. Default                                  : Yes
  28. Forced                                   : No
  29. Audio #1
  30. ID                                       : 2
  31. Format                                   : AC-3
  32. Format/Info                              : Audio Coding 3
  33. Commercial name                          : Dolby Digital
  34. Codec ID                                 : A_AC3
  35. Duration                                 : 1 h 37 min
  36. Bit rate mode                            : Constant
  37. Bit rate                                 : 640 kb/s
  38. Channel(s)                               : 6 channels
  39. Channel layout                           : L R C LFE Ls Rs
  40. Sampling rate                            : 48.0 kHz
  41. Frame rate                               : 31.250 FPS (1536 SPF)
  42. Compression mode                         : Lossy
  43. Stream size                              : 448 MiB (7%)
  44. Language                                 : Chinese
  45. Service kind                             : Complete Main
  46. Default                                  : Yes
  47. Forced                                   : No
  48. Audio #2
  49. ID                                       : 3
  50. Format                                   : AC-3
  51. Format/Info                              : Audio Coding 3
  52. Commercial name                          : Dolby Digital
  53. Codec ID                                 : A_AC3
  54. Duration                                 : 1 h 37 min
  55. Bit rate mode                            : Constant
  56. Bit rate                                 : 640 kb/s
  57. Channel(s)                               : 6 channels
  58. Channel layout                           : L R C LFE Ls Rs
  59. Sampling rate                            : 48.0 kHz
  60. Frame rate                               : 31.250 FPS (1536 SPF)
  61. Compression mode                         : Lossy
  62. Stream size                              : 448 MiB (7%)
  63. Language                                 : Chinese
  64. Service kind                             : Complete Main
  65. Default                                  : No
  66. Forced                                   : No
  67. Text #1
  68. ID                                       : 4
  69. Format                                   : PGS
  70. Muxing mode                              : zlib
  71. Codec ID                                 : S_HDMV/PGS
  72. Codec ID/Info                            : Picture based subtitle format used on BDs/HD-DVDs
  73. Language                                 : Chinese
  74. Default                                  : Yes
  75. Forced                                   : No
  76. Text #2
  77. ID                                       : 5
  78. Format                                   : PGS
  79. Muxing mode                              : zlib
  80. Codec ID                                 : S_HDMV/PGS
  81. Codec ID/Info                            : Picture based subtitle format used on BDs/HD-DVDs
  82. Language                                 : English
  83. Default                                  : No
  84. Forced                                   : No
  85. Menu
  86. 00:00:00.000                             : en:Chapter 01
  87. 00:05:16.333                             : en:Chapter 02
  88. 00:10:25.416                             : en:Chapter 03
  89. 00:14:32.000                             : en:Chapter 04
  90. 00:17:01.875                             : en:Chapter 05
  91. 00:23:08.708                             : en:Chapter 06
  92. 00:27:51.083                             : en:Chapter 07
  93. 00:31:57.208                             : en:Chapter 08
  94. 00:37:03.166                             : en:Chapter 09
  95. 00:40:36.791                             : en:Chapter 10
  96. 00:43:10.541                             : en:Chapter 11
  97. 00:47:23.625                             : en:Chapter 12
  98. 00:52:25.375                             : en:Chapter 13
  99. 00:58:15.041                             : en:Chapter 14
  100. 01:02:10.125                             : en:Chapter 15
  101. 01:07:25.666                             : en:Chapter 16
  102. 01:11:02.625                             : en:Chapter 17
  103. 01:17:24.416                             : en:Chapter 18
  104. 01:23:22.541                             : en:Chapter 19
  105. 01:27:16.916                             : en:Chapter 20





此处一般会放置磁力链或种子下载链接,不过此链接需要注册会员才能看到,点击“立即注册”
磁力链下载【下载链接仅对注册会员开放,登陆后可见】
BT9527电影天堂 1、BT9527电影天堂提供的BT文件均来源于互联网抓取,只供网友学习交流、技术提升使用。
2、我们遵守BitTorrent点对点协议原则,任何版权问题请联系原资源发布商,我们不处理任何版权纠纷,谢谢!如有争议请联系邮箱:BT9527#hotmail.com(#换成@)
3、如果您发现某页面或地址有错误,请联系站长邮箱BT9527#hotmail.com(#换成@),我们会尽快处理。您的热心是对BT9527电影天堂最大的支持。
4、本站建议去正规影院观看电影以支持电影行业发展。
最新回复 (0)

你可以在 登录 or 注册 后,对此帖发表评论!

返回
发新帖