雄狮[国英多音轨/简繁英特效字幕].Lion.2016.BluRay.1080p.x265.10bit.2Audio-MiniHD 2.88GB

版主小s 5月前 332

✔资源类型:暂未分类   ✔电影年份:2016   ✔电影地区:欧美   ✔电影分类:剧情

◎译  名 雄狮 / 漫漫回家路(港) / A Long Way Home
◎片  名 Lion
◎年  代 2016
◎产  地 英国 / 澳大利亚 / 美国 / 印度
◎类  别 剧情
◎语  言 英语 / 印地语 / 孟加拉语
◎上映日期 2017-06-22(中国大陆) / 2016-09-10(多伦多电影节) / 2017-01-19(澳大利亚)
◎IMDb链接 https://www.imdb.com/title/tt3741834/
◎豆瓣评分 7.4/10 (63632人评价)
◎豆瓣链接 https://movie.douban.com/subject/26220650/
◎片  长 118分钟
◎导  演 加斯·戴维斯 Garth Davis (id:1356931)
◎编  剧 萨罗·布赖尔利 Saroo Brierley (id:1367806)
       卢克·戴维斯 Luke Davies (id:1308544)
◎演  员 戴夫·帕特尔 Dev Patel (id:1025134)
       鲁妮·玛拉 Rooney Mara (id:1274969)
       大卫·文翰 David Wenham (id:1049573)
       妮可·基德曼 Nicole Kidman (id:1054442)
       桑尼·帕沃 Sunny Pawar (id:1365303)
       纳瓦祖丁·席迪圭 Nawazuddin Siddiqui (id:1313213)
       塔妮莎·查特吉 Tannishtha Chatterjee (id:1305739)
       迪普提·纳瓦尔 Deepti Naval (id:1350826)
       马尼克·古纳拉塔尼 Menik Gooneratne (id:1262539)
       本杰明·里格比 Benjamin Rigby (id:1355648)
       萨罗·布赖尔利 Saroo Brierley (id:1367806)
       贝琳达·米塞夫斯基 Belinda Misevski (id:1393770)
       帕拉维·沙尔达 Pallavi Sharda (id:1421785)
       埃蒙·法伦 Eamon Farren (id:1329814)
       安吉·菲尔德 Angie Fielder (id:1369610)
       达斯汀·欧海勒因 Dustin O'Halloran (id:1051275)
       沃尔克·贝特尔曼 Volker Bertelmann (id:1369633)
       格雷格·弗莱瑟 Greig Fraser (id:1028361)
       卡比·艾尔兰 Cappi Ireland (id:1370043)
       希雅 SIA (id:1240500)
       埃米莉·科克雷尔 Emilie Cocquerel (id:1373631)

◎简  介
  萨罗(戴夫·帕特尔 Dev Patel 饰)和妹妹、哥哥以及母亲过着相依为命的生活,虽然贫穷艰辛,但一家人在一起相互扶持,日子过得依然温暖而又充满了欢乐。一次偶然中,萨罗同哥哥在火车站走散了,误打误撞之中,萨罗登上了一列开往加尔各答的火车,在那里,萨罗成为了露宿街头的流浪儿,并最终被送进了收容所。                                    
                                幸运的萨罗被来自澳大利亚的约翰(大卫·文翰 David Wenham 饰)和苏(妮可·基德曼 Nicole Kidman 饰)夫妇两收养了,在两人爱的教养下,萨罗成长为了前途无量的有为青年。在学校里,萨罗邂逅了名为露西(鲁妮·玛拉 Rooney Mara 饰)的女生,两人很快走到了一起。某次派对中,来自家乡的食物勾起了萨罗对过去的回忆,他萌生出了回到家乡寻找家人的念头。

◎获奖情况 (共38项)
  第89届奥斯卡金像奖 (2017)
  最佳影片(提名)
  最佳男配角(提名)
   └──戴夫·帕特尔 (id:1025134)
  最佳女配角(提名)
   └──妮可·基德曼 (id:1054442)
  最佳改编剧本(提名)
   └──卢克·戴维斯 (id:1308544)
  最佳摄影(提名)
   └──格雷格·弗莱瑟 (id:1028361)
  最佳原创配乐(提名)

  第74届金球奖 (2017)
  电影类 最佳剧情片(提名)
  电影类 最佳男配角(提名)
   └──戴夫·帕特尔 (id:1025134)
  电影类 最佳女配角(提名)
   └──妮可·基德曼 (id:1054442)
  电影类 最佳原创配乐(提名)

  第70届英国电影学院奖 (2017)
  电影奖 最佳男配角
   └──戴夫·帕特尔 (id:1025134)
  电影奖 最佳女配角(提名)
   └──妮可·基德曼 (id:1054442)
  电影奖 最佳改编剧本
   └──卢克·戴维斯 (id:1308544)
  电影奖 最佳摄影(提名)
   └──格雷格·弗莱瑟 (id:1028361)
  电影奖 最佳原创音乐(提名)

  第69届美国导演工会奖 (2017)
  最佳电影导演(提名)
   └──加斯·戴维斯 (id:1356931)
  最佳新人导演奖
   └──加斯·戴维斯 (id:1356931)

  第23届美国演员工会奖 (2017)
  电影奖 最佳男配角(提名)
   └──戴夫·帕特尔 (id:1025134)
  电影奖 最佳女配角(提名)
   └──妮可·基德曼 (id:1054442)

  第28届美国制片人工会奖 (2017)
  最佳电影制片人奖(提名)

  第31届美国摄影协会奖 (2017)
  电影长片最佳摄影
   └──格雷格·弗莱瑟 (id:1028361)

  第21届美国艺术指导工会奖 (2017)
  电影奖 最佳当代电影艺术指导(提名)

  第19届美国服装设计工会奖 (2017)
  现代电影最佳服装设计(提名)

  第22届美国评论家选择电影奖 (2017)
  最佳影片(提名)
  最佳男配角(提名)
   └──戴夫·帕特尔 (id:1025134)
  最佳女配角(提名)
   └──妮可·基德曼 (id:1054442)
  最佳青少年演员(提名)
   └──桑尼·帕沃 (id:1365303)
  最佳改编剧本(提名)
   └──卢克·戴维斯 (id:1308544)
  最佳配乐(提名)
  最佳音效(提名)

  第21届金卫星奖 (2017)
  电影部门 最佳剧情片(提名)
  电影部门 最佳男配角(提名)
   └──戴夫·帕特尔 (id:1025134)
  电影部门 最佳女配角(提名)
   └──妮可·基德曼 (id:1054442)
  电影部门 最佳改编剧本(提名)
   └──卢克·戴维斯 (id:1308544)
  电影部门 最佳剪辑(提名)
   └──亚历山大·德·弗朗西斯齐 (id:1282001)

  第20届好莱坞电影奖 (2016)
  年度女配角
   └──妮可·基德曼 (id:1054442)

  第15届华盛顿影评人协会奖 (2016)
  最佳改编剧本(提名)
   └──卢克·戴维斯 (id:1308544)
  最佳青少年表演(提名)
   └──桑尼·帕沃 (id:1365303)

  1. ##### MediaInfo ######
  2. General
  3. Unique ID                                : 237223315535605269392906953753557145802 (0xB2778C76ED5A2215A5611D4688BB18CA)
  4. Complete name                            : Lion.2016.BluRay.1080p.x265.10bit.2Audio-MiniHD.mkv
  5. Format                                   : Matroska
  6. Format version                           : Version 4
  7. File size                                : 2.88 GiB
  8. Duration                                 : 1 h 58 min
  9. Overall bit rate                         : 3 467 kb/s
  10. Encoded date                             : UTC 2017-10-29 10:38:33
  11. Writing application                      : mkvmerge v17.0.0 ('Be Ur Friend') 64-bit
  12. Writing library                          : libebml v1.3.5 + libmatroska v1.4.8
  13. Video
  14. ID                                       : 1
  15. Format                                   : HEVC
  16. Format/Info                              : High Efficiency Video Coding
  17. Format profile                           : Main 10@L4@Main
  18. Codec ID                                 : V_MPEGH/ISO/HEVC
  19. Duration                                 : 1 h 58 min
  20. Bit rate                                 : 2 563 kb/s
  21. Width                                    : 1 920 pixels
  22. Height                                   : 800 pixels
  23. Display aspect ratio                     : 2.40:1
  24. Frame rate mode                          : Constant
  25. Frame rate                               : 23.976 (24000/1001/53354) FPS
  26. Color space                              : YUV
  27. Chroma subsampling                       : 4:2:0
  28. Bit depth                                : 10 bits
  29. Bits/(Pixel*Frame)                       : 0.070
  30. Stream size                              : 2.12 GiB (74%)
  31. Writing library                          : x265 2.3+24-a0eee4b41185:[Windows][GCC 6.3.0][64 bit] 10bit
  32. Encoding settings                        : cpuid=533541173503 / frame-threads=6 / numa-pools=36 / wpp / no-pmode / no-pme / no-psnr / no-ssim / log-level=2 / input-csp=1 / input-res=1920x800 / interlace=0 / total-frames=170526 / level-idc=0 / high-tier=1 / uhd-bd=0 / ref=5 / no-allow-non-conformance / no-repeat-headers / annexb / no-aud / no-hrd / info / hash=0 / no-temporal-layers / no-open-gop / min-keyint=1 / keyint=360 / bframes=8 / b-adapt=2 / b-pyramid / bframe-bias=0 / rc-lookahead=60 / lookahead-slices=4 / NTMzNTQ=uuDQuD2mJt9fsCf / scenecut=40 / no-intra-refresh / ctu=32 / min-cu-size=8 / rect / no-amp / max-tu-size=16 / tu-inter-depth=2 / tu-intra-depth=2 / limit-tu=4 / rdoq-level=2 / dynamic-rd=0.00 / signhide / no-tskip / nr-intra=0 / nr-inter=0 / no-constrained-intra / no-strong-intra-smoothing / max-merge=3 / limit-refs=1 / limit-modes / me=3 / subme=5 / merange=25 / temporal-mvp / weightp / weightb / no-analyze-src-pics / deblock=-1:-1 / no-sao / no-sao-non-deblock / rd=4 / no-early-skip / rskip / no-fast-intra / no-tskip-fast / no-cu-lossless / b-intra / rdpenalty=1 / psy-rd=0.00 / psy-rdoq=5.00 / no-rd-refine / analysis-mode=0 / no-lossless / cbqpoffs=-2 / crqpoffs=-2 / rc=crf / crf=17.0 / qcomp=0.65 / qpstep=4 / stats-write=0 / stats-read=0 / ipratio=1.30 / pbratio=1.20 / aq-mode=2 / aq-strength=0.80 / cutree / zone-count=0 / no-strict-cbr / qg-size=16 / no-rc-grain / qpmax=69 / qpmin=0 / sar=0 / overscan=0 / videoformat=5 / range=0 / colorprim=1 / transfer=2 / colormatrix=2 / chromaloc=0 / display-window=0 / max-cll=0,0 / min-luma=0 / max-luma=1023 / log2-max-poc-lsb=8 / vui-timing-info / vui-hrd-info / slices=1 / opt-qp-pps / opt-ref-list-length-pps / no-multi-pass-opt-rps / scenecut-bias=0.05 / no-opt-cu-delta-qp / no-aq-motion / no-hdr / no-hdr-opt / refine-level=5
  33. Default                                  : Yes
  34. Forced                                   : No
  35. Color range                              : Limited
  36. Color primaries                          : BT.709
  37. Audio #1
  38. ID                                       : 2
  39. Format                                   : AC-3
  40. Format/Info                              : Audio Coding 3
  41. Commercial name                          : Dolby Digital
  42. Codec ID                                 : A_AC3
  43. Duration                                 : 1 h 58 min
  44. Bit rate mode                            : Constant
  45. Bit rate                                 : 640 kb/s
  46. Channel(s)                               : 6 channels
  47. Channel layout                           : L R C LFE Ls Rs
  48. Sampling rate                            : 48.0 kHz
  49. Frame rate                               : 31.250 FPS (1536 SPF)
  50. Compression mode                         : Lossy
  51. Stream size                              : 543 MiB (18%)
  52. Title                                    : 英语原声
  53. Language                                 : English
  54. Service kind                             : Complete Main
  55. Default                                  : Yes
  56. Forced                                   : No
  57. Audio #2
  58. ID                                       : 3
  59. Format                                   : AC-3
  60. Format/Info                              : Audio Coding 3
  61. Commercial name                          : Dolby Digital
  62. Codec ID                                 : A_AC3
  63. Duration                                 : 1 h 58 min
  64. Bit rate mode                            : Constant
  65. Bit rate                                 : 192 kb/s
  66. Channel(s)                               : 2 channels
  67. Channel layout                           : L R
  68. Sampling rate                            : 48.0 kHz
  69. Frame rate                               : 31.250 FPS (1536 SPF)
  70. Compression mode                         : Lossy
  71. Stream size                              : 163 MiB (6%)
  72. Title                                    : 长译国语
  73. Language                                 : Chinese
  74. Service kind                             : Complete Main
  75. Default                                  : No
  76. Forced                                   : No
  77. Text #1
  78. ID                                       : 4
  79. Format                                   : PGS
  80. Muxing mode                              : zlib
  81. Codec ID                                 : S_HDMV/PGS
  82. Codec ID/Info                            : Picture based subtitle format used on BDs/HD-DVDs
  83. Duration                                 : 1 h 57 min
  84. Bit rate                                 : 21.0 kb/s
  85. Count of elements                        : 2422
  86. Stream size                              : 17.7 MiB (1%)
  87. Title                                    : 英文
  88. Language                                 : English
  89. Default                                  : Yes
  90. Forced                                   : No
  91. Text #2
  92. ID                                       : 5
  93. Format                                   : ASS
  94. Codec ID                                 : S_TEXT/ASS
  95. Codec ID/Info                            : Advanced Sub Station Alpha
  96. Duration                                 : 1 h 58 min
  97. Bit rate                                 : 47 b/s
  98. Count of elements                        : 926
  99. Compression mode                         : Lossless
  100. Stream size                              : 40.9 KiB (0%)
  101. Title                                    : 囯配简中特效
  102. Language                                 : Chinese
  103. Default                                  : No
  104. Forced                                   : No
  105. Text #3
  106. ID                                       : 6
  107. Format                                   : ASS
  108. Codec ID                                 : S_TEXT/ASS
  109. Codec ID/Info                            : Advanced Sub Station Alpha
  110. Duration                                 : 1 h 58 min
  111. Bit rate                                 : 132 b/s
  112. Count of elements                        : 866
  113. Compression mode                         : Lossless
  114. Stream size                              : 115 KiB (0%)
  115. Title                                    : 简英双语特效
  116. Language                                 : Chinese
  117. Default                                  : No
  118. Forced                                   : No
  119. Text #4
  120. ID                                       : 7
  121. Format                                   : UTF-8
  122. Codec ID                                 : S_TEXT/UTF8
  123. Codec ID/Info                            : UTF-8 Plain Text
  124. Duration                                 : 1 h 58 min
  125. Bit rate                                 : 21 b/s
  126. Count of elements                        : 902
  127. Stream size                              : 18.4 KiB (0%)
  128. Title                                    : 台湾影院版繁中
  129. Language                                 : Chinese
  130. Default                                  : No
  131. Forced                                   : No
  132. Text #5
  133. ID                                       : 8
  134. Format                                   : PGS
  135. Muxing mode                              : zlib
  136. Codec ID                                 : S_HDMV/PGS
  137. Codec ID/Info                            : Picture based subtitle format used on BDs/HD-DVDs
  138. Duration                                 : 1 h 54 min
  139. Bit rate                                 : 27.6 kb/s
  140. Count of elements                        : 2503
  141. Stream size                              : 22.7 MiB (1%)
  142. Title                                    : 简体中文
  143. Language                                 : Chinese
  144. Default                                  : No
  145. Forced                                   : No
  146. Text #6
  147. ID                                       : 9
  148. Format                                   : PGS
  149. Muxing mode                              : zlib
  150. Codec ID                                 : S_HDMV/PGS
  151. Codec ID/Info                            : Picture based subtitle format used on BDs/HD-DVDs
  152. Duration                                 : 1 h 54 min
  153. Bit rate                                 : 29.2 kb/s
  154. Count of elements                        : 2503
  155. Stream size                              : 23.9 MiB (1%)
  156. Title                                    : 繁体中文
  157. Language                                 : Chinese
  158. Default                                  : No
  159. Forced                                   : No
  160. Text #7
  161. ID                                       : 10
  162. Format                                   : PGS
  163. Muxing mode                              : zlib
  164. Codec ID                                 : S_HDMV/PGS
  165. Codec ID/Info                            : Picture based subtitle format used on BDs/HD-DVDs
  166. Duration                                 : 1 h 54 min
  167. Bit rate                                 : 43.6 kb/s
  168. Count of elements                        : 2570
  169. Stream size                              : 35.7 MiB (1%)
  170. Title                                    : 简英双语
  171. Language                                 : Chinese
  172. Default                                  : No
  173. Forced                                   : No
  174. Text #8
  175. ID                                       : 11
  176. Format                                   : PGS
  177. Muxing mode                              : zlib
  178. Codec ID                                 : S_HDMV/PGS
  179. Codec ID/Info                            : Picture based subtitle format used on BDs/HD-DVDs
  180. Duration                                 : 1 h 54 min
  181. Bit rate                                 : 45.5 kb/s
  182. Count of elements                        : 2570
  183. Stream size                              : 37.3 MiB (1%)
  184. Title                                    : 繁英双语
  185. Language                                 : Chinese
  186. Default                                  : No
  187. Forced                                   : No
  188. Menu
  189. 00:00:00.000                             : en:Chapter 01
  190. 00:08:10.072                             : en:Chapter 02
  191. 00:14:40.796                             : en:Chapter 03
  192. 00:22:37.814                             : en:Chapter 04
  193. 00:27:39.824                             : en:Chapter 05
  194. 00:32:52.053                             : en:Chapter 06
  195. 00:40:06.362                             : en:Chapter 07
  196. 00:45:45.200                             : en:Chapter 08
  197. 00:53:35.170                             : en:Chapter 09
  198. 00:58:50.902                             : en:Chapter 10
  199. 01:04:37.582                             : en:Chapter 11
  200. 01:09:15.985                             : en:Chapter 12
  201. 01:16:41.346                             : en:Chapter 13
  202. 01:22:29.444                             : en:Chapter 14
  203. 01:29:51.636                             : en:Chapter 15
  204. 01:37:00.856                             : en:Chapter 16
  205. 01:43:10.017                             : en:Chapter 17
  206. 01:51:34.312                             : en:Chapter 18





此处一般会放置磁力链或种子下载链接,不过此链接需要注册会员才能看到,点击“立即注册”
磁力链下载【下载链接仅对注册会员开放,登陆后可见】
BT9527电影天堂 1、BT9527电影天堂提供的BT文件均来源于互联网抓取,只供网友学习交流、技术提升使用。
2、我们遵守BitTorrent点对点协议原则,任何版权问题请联系原资源发布商,我们不处理任何版权纠纷,谢谢!如有争议请联系邮箱:BT9527#hotmail.com(#换成@)
3、如果您发现某页面或地址有错误,请联系站长邮箱BT9527#hotmail.com(#换成@),我们会尽快处理。您的热心是对BT9527电影天堂最大的支持。
4、本站建议去正规影院观看电影以支持电影行业发展。
最新回复 (0)

你可以在 登录 or 注册 后,对此帖发表评论!

返回