玩命快递3[国英多音轨/简特效字幕].Transporter.3.2008.Bluray.2160p.x265.10bit.HDR.4Audios-MiniHD 24.04GB

版主小s 5月前 210

✔资源类型:BD-4K   ✔电影年份:2008   ✔电影地区:其他   ✔电影分类:动作

◎译  名 玩命快递3 / 非常人贩3 / 玩命速递3 / 绝命速递3
◎片  名 Transporter 3
◎年  代 2008
◎产  地 法国
◎类  别 动作 / 犯罪
◎语  言 英语 / 法语 / 乌克兰语 / 俄语 / 匈牙利语
◎上映日期 2009-02-12(中国大陆) / 2008-11-26(法国)
◎IMDb链接 https://www.imdb.com/title/tt1129442/
◎豆瓣评分 7.0/10 (74732人评价)
◎豆瓣链接 https://movie.douban.com/subject/3018122/
◎片  长 104分钟
◎导  演 奥利维尔·米加顿 Olivier Megaton (id:1023010)
◎编  剧 吕克·贝松 Luc Besson (id:1031876)
       罗伯特·马克·卡门 Robert Mark Kamen (id:1288065)
◎演  员 杰森·斯坦森 Jason Statham (id:1049484)
       娜塔尔雅·卢达科娃 Natalya Rudakova (id:1317249)
       弗朗索瓦·贝莱昂 Fran?ois Berléand (id:1054351)
       罗伯特·克耐普 Robert Knepper (id:1010576)
       杰罗恩·克拉比 Jeroen Krabbé (id:1036595)
       艾瑞克·艾伯纳尼 Eriq Ebouaney (id:1282967)
       大卫·卡门诺斯 David Kammenos (id:1397143)
       西尔维奥·西马克 Silvio Simac (id:1145385)
       蒂莫·迪尔克斯 Timo Dierkes (id:1081334)
       保罗·巴雷特 Paul Barrett (id:1379388)
       卡琪娅·申库 Katia Tchenko (id:1149279)
       Franck Neel Franck Neel (id:1132426)
       Semmy Schilt Semmy Schilt (id:1233226)
       埃里克·莫罗 Eric Moreau (id:1128717)
       吕克·贝松 Luc Besson (id:1031876)
       Alexandre Azaria Alexandre Azaria (id:1146157)
       Giovanni Fiore Coltellacci Giovanni Fiore Coltellacci (id:1283757)
       卡米尔·狄拉玛 Camille Delamarre (id:1031161)
       Patrick Durand Patrick Durand (id:1282851)
       奥利维耶·贝里奥 Olivier Bériot (id:1279801)
       Nicolas Rigaud Nicolas Rigaud (id:1186554)
       Elodie Ly Tri Elodie Ly Tri (id:1217774)
       Antoine Douadi Antoine Douadi (id:1192807)
        Maxime Bray (id:1274144)
       Annabelle Troukens Annabelle Troukens (id:1158419)
       Thomas Duval Thomas Duval (id:1276481)
        Laurent Brett (id:1221043)

◎简  介
  超强押运人弗兰克·马丁(杰森·斯坦森 Jason Statham 饰)平静的休假再次被打破,一名驾驶着奥迪车的男人载着一名女孩在马赛横冲直撞,与此同时,商人约翰森(Robert Knepper 饰)为了向乌克兰运输有毒物质正与该国环境部长针锋相对。受伤的奥迪车司机闯入弗兰克家中,并死于手腕上的炸弹,他的幕后老板约翰森强迫弗兰克接替运送女孩的任务,被安装了手腕炸弹的弗兰克不得不就范,因为只要他离开车子75英尺炸弹就会引爆。在前往布达佩斯的路上,弗兰克终于明白任务的真相:女孩瓦伦汀娜(Natalya Rudakova 饰)是乌克兰环境部长之女,约翰森为使部长批准他的计划而掳走瓦伦汀娜,在约翰森和部长两路人马的追击中,弗兰克该如何化解这次的危机?

◎获奖情况 (共1项)
  第22届欧洲电影奖 (2009)
  观众选择奖(提名)

  1. ##### MediaInfo ######
  2. General
  3. Unique ID                                : 157407356802120254381393231724166162980 (0x766B8DDF9B1AD1C7EA844F87BBEAAA24)
  4. Complete name                            : Transporter.3.2008.Bluray.2160p.x265.10bit.HDR.4Audios-MiniHD.mkv
  5. Format                                   : Matroska
  6. Format version                           : Version 4
  7. File size                                : 24.0 GiB
  8. Duration                                 : 1 h 43 min
  9. Overall bit rate mode                    : Variable
  10. Overall bit rate                         : 33.1 Mb/s
  11. Encoded date                             : UTC 2018-08-19 00:23:36
  12. Writing application                      : mkvmerge v20.0.0 ('I Am The Sun') 64-bit
  13. Writing library                          : libebml v1.3.5 + libmatroska v1.4.8
  14. Video
  15. ID                                       : 1
  16. Format                                   : HEVC
  17. Format/Info                              : High Efficiency Video Coding
  18. Format profile                           : Main 10@L5.1@High
  19. Codec ID                                 : V_MPEGH/ISO/HEVC
  20. Duration                                 : 1 h 43 min
  21. Bit rate                                 : 26.9 Mb/s
  22. Width                                    : 3 840 pixels
  23. Height                                   : 1 632 pixels
  24. Display aspect ratio                     : 2.35:1
  25. Frame rate mode                          : Constant
  26. Frame rate                               : 23.976 (24000/1001/53354) FPS
  27. Color space                              : YUV
  28. Chroma subsampling                       : 4:2:0
  29. Bit depth                                : 10 bits
  30. Bits/(Pixel*Frame)                       : 0.179
  31. Stream size                              : 19.5 GiB (81%)
  32. Default                                  : Yes
  33. Forced                                   : No
  34. Color range                              : Limited
  35. Color primaries                          : BT.2020
  36. Transfer characteristics                 : PQ
  37. Matrix coefficients                      : BT.2020 non-constant
  38. Audio #1
  39. ID                                       : 2
  40. Format                                   : MLP FBA 16-ch
  41. Format/Info                              : Meridian Lossless Packing FBA with 16-channel presentation
  42. Commercial name                          : Dolby TrueHD with Dolby Atmos
  43. Codec ID                                 : A_TRUEHD
  44. Duration                                 : 1 h 43 min
  45. Bit rate mode                            : Variable
  46. Bit rate                                 : 4 812 kb/s
  47. Maximum bit rate                         : 7 776 kb/s
  48. Channel(s)                               : 8 channels
  49. Channel layout                           : L R C LFE Ls Rs Lb Rb
  50. Sampling rate                            : 48.0 kHz
  51. Frame rate                               : 1 200.000 FPS (40 SPF)
  52. Compression mode                         : Lossless
  53. Delay relative to video                  : 8 ms
  54. Stream size                              : 3.49 GiB (15%)
  55. Title                                    : 英语全景声
  56. Language                                 : English
  57. Default                                  : Yes
  58. Forced                                   : No
  59. Number of dynamic objects                : 15
  60. Bed channel count                        : 1 channel
  61. Bed channel configuration                : LFE
  62. Audio #2
  63. ID                                       : 3
  64. Format                                   : AC-3
  65. Format/Info                              : Audio Coding 3
  66. Commercial name                          : Dolby Digital
  67. Codec ID                                 : A_AC3
  68. Duration                                 : 1 h 43 min
  69. Bit rate mode                            : Constant
  70. Bit rate                                 : 448 kb/s
  71. Channel(s)                               : 6 channels
  72. Channel layout                           : L R C LFE Ls Rs
  73. Sampling rate                            : 48.0 kHz
  74. Frame rate                               : 31.250 FPS (1536 SPF)
  75. Compression mode                         : Lossy
  76. Stream size                              : 333 MiB (1%)
  77. Title                                    : 英语AC-3
  78. Language                                 : English
  79. Service kind                             : Complete Main
  80. Default                                  : No
  81. Forced                                   : No
  82. Audio #3
  83. ID                                       : 4
  84. Format                                   : DTS
  85. Format/Info                              : Digital Theater Systems
  86. Codec ID                                 : A_DTS
  87. Duration                                 : 1 h 43 min
  88. Bit rate mode                            : Constant
  89. Bit rate                                 : 754 kb/s
  90. Channel(s)                               : 6 channels
  91. Channel layout                           : C L R Ls Rs LFE
  92. Sampling rate                            : 48.0 kHz
  93. Frame rate                               : 93.750 FPS (512 SPF)
  94. Bit depth                                : 24 bits
  95. Compression mode                         : Lossy
  96. Stream size                              : 561 MiB (2%)
  97. Title                                    : 长译国语DTS
  98. Language                                 : Chinese
  99. Default                                  : No
  100. Forced                                   : No
  101. Audio #4
  102. ID                                       : 5
  103. Format                                   : AC-3
  104. Format/Info                              : Audio Coding 3
  105. Codec ID                                 : A_AC3
  106. Duration                                 : 1 h 38 min
  107. Bit rate                                 : 128 kb/s
  108. Channel(s)                               : 1 channel
  109. Sampling rate                            : 48.0 kHz
  110. Frame rate                               : 31.250 FPS (1536 SPF)
  111. Compression mode                         : Lossy
  112. Stream size                              : 90.4 MiB (0%)
  113. Title                                    : 央视国语AC-3
  114. Language                                 : Chinese
  115. Default                                  : No
  116. Forced                                   : No
  117. Text #1
  118. ID                                       : 6
  119. Format                                   : PGS
  120. Muxing mode                              : zlib
  121. Codec ID                                 : S_HDMV/PGS
  122. Codec ID/Info                            : Picture based subtitle format used on BDs/HD-DVDs
  123. Duration                                 : 1 h 38 min
  124. Bit rate                                 : 36.4 kb/s
  125. Count of elements                        : 3022
  126. Stream size                              : 25.7 MiB (0%)
  127. Title                                    : 长译国配简中特效
  128. Language                                 : Chinese
  129. Default                                  : Yes
  130. Forced                                   : No
  131. Text #2
  132. ID                                       : 7
  133. Format                                   : PGS
  134. Muxing mode                              : zlib
  135. Codec ID                                 : S_HDMV/PGS
  136. Codec ID/Info                            : Picture based subtitle format used on BDs/HD-DVDs
  137. Duration                                 : 1 h 35 min
  138. Bit rate                                 : 35.5 kb/s
  139. Count of elements                        : 1796
  140. Stream size                              : 24.3 MiB (0%)
  141. Title                                    : 简英双语
  142. Language                                 : Chinese
  143. Default                                  : No
  144. Forced                                   : No
  145. Menu
  146. 00:00:00.000                             : :Chapter 01
  147. 00:10:43.392                             : :Chapter 02
  148. 00:16:54.847                             : :Chapter 03
  149. 00:24:21.668                             : :Chapter 04
  150. 00:33:08.444                             : :Chapter 05
  151. 00:41:37.328                             : :Chapter 06
  152. 00:51:28.210                             : :Chapter 07
  153. 01:00:23.494                             : :Chapter 08
  154. 01:10:56.794                             : :Chapter 09
  155. 01:15:53.966                             : :Chapter 10
  156. 01:24:08.793                             : :Chapter 11
  157. 01:33:47.622                             : :Chapter 12





此处一般会放置磁力链或种子下载链接,不过此链接需要注册会员才能看到,点击“立即注册”
磁力链下载【下载链接仅对注册会员开放,登陆后可见】
BT9527电影天堂 1、BT9527电影天堂提供的BT文件均来源于互联网抓取,只供网友学习交流、技术提升使用。
2、我们遵守BitTorrent点对点协议原则,任何版权问题请联系原资源发布商,我们不处理任何版权纠纷,谢谢!如有争议请联系邮箱:BT9527#hotmail.com(#换成@)
3、如果您发现某页面或地址有错误,请联系站长邮箱BT9527#hotmail.com(#换成@),我们会尽快处理。您的热心是对BT9527电影天堂最大的支持。
4、本站建议去正规影院观看电影以支持电影行业发展。
最新回复 (0)

你可以在 登录 or 注册 后,对此帖发表评论!

返回
发新帖