阿基拉[简繁英字幕].Akira.1988.UHD.BluRay.2160p.x265.HDR.TrueHD5.1-MiniHD 24.42GB

版主小s 5月前 338

✔资源类型:BD-4K   ✔电影年份:更 早   ✔电影地区:日本   ✔电影分类:动作

◎译  名 阿基拉 / 光明战士阿基拉 / 亚基拉 / 亚辉罗 / アキラ
◎片  名 Akira
◎年  代 1988
◎产  地 日本
◎类  别 动作 / 科幻 / 动画
◎语  言 日语
◎上映日期 1988-07-16(日本)
◎IMDb链接 https://www.imdb.com/title/tt0094625/
◎豆瓣评分 8.5/10 (77441人评价)
◎豆瓣链接 https://movie.douban.com/subject/1302770/
◎片  长 124分钟
◎导  演 大友克洋 Katsuhiro ?tomo (id:1164635)
◎编  剧 大友克洋 Katsuhiro ?tomo (id:1164635)
       桥本以藏 Iz? Hashimoto (id:1033674)
◎演  员 岩田光央 Mitsuo Iwata (id:1023352)
       佐佐木望 Nozomu Sasaki (id:1008192)
       小山茉美 Mami Koyama (id:1017019)
       玄田哲章 Tessh? Genda (id:1048566)
       大竹宏 Hiroshi ?take (id:1168170)
       北村弘一 K?ichi Kitamura (id:1038708)
       池水通洋 Michihiro Ikemizu (id:1003951)
       渊崎由里子 Yuriko Fuchizaki (id:1039419)
       大仓正章 Ookura Masaaki (id:1419459)
       荒川太郎 Tar? Arakawa (id:1400911)
       草尾毅 Takeshi Kusao (id:1042356)
       田中和实 Kazumi Tanaka (id:1024128)
       加藤将之 Masayuki Kat? (id:1204207)
       秋元羊介 Y?suke Akimoto (id:1008572)
       平野正人 Hirano Masato (id:1408134)
       岸野幸正 Kishino Yukimasa (id:1404534)
       二又一成 Issei Futamata (id:1033902)
       盐屋浩三 K?z? Shioya (id:1025799)
       小林通孝 Kobayashi Michitaka (id:1409092)
       梅津秀行 Hideyuki Umezu (id:1024439)
       稻垣悟 Inagaki Satoru (id:1410064)
       藤井佳代子 Fujii Kayoko (id:1399998)
       丰岛雅美 Masami Toyoshima (id:1381852)
       铃木瑞穗 Mizuho Suzuki (id:1030549)
       石田太郎 Tar? Ishida (id:1033890)
       信本敬子 Keiko Nobumoto (id:1321091)
       冲浦启之 Hiroyuki Okiura (id:1029157)
       Yoshiyuki Okiura Yoshiyuki Okiura (id:1293524)
       Kazuyoshi Takeuchi Kazuyoshi Takeuchi (id:1298864)
       梅津泰臣 Yasuomi Umetsu (id:1037501)
       平松祯史 Hiramatsu Tadashi (id:1426096)
       高坂希太郎 Kitaro Kosaka (id:1034354)
       金田伊功 Kanada Yoshinori (id:1439954)
       木上益治 Kigami Yoshiji (id:1386132)
       中村孝 Takashi Nakamura (id:1335372)

◎简  介
  1988年7月,关东地区使用新型炸弹进行爆破,第三次世界大战即刻爆发。31年后,人类从一片废墟中重建都市,东京湾上建立了巨大城市——新东京。世界仿佛要恢复到以前的繁荣。                                    
                                2019年的一个夜晚,新东京郊外的封闭高速公路上,暴走族团体正在公路上飙车。带头的少年,是一名叫做金 田的职业高中学生。                                    
                                突然,街上出现了一位奇怪的矮个子男子,暴走族少年铁雄为躲避车祸连人带车飞出公路。正当金田要拿那位男子问罪之时,军队驾驶直升飞机赶到。将那位矮个男子与铁雄一起收押。                                    
                                铁雄进入了一个陌生的地方,这里似乎在从事超能力的研究。而金田则在盘算如何营救铁雄。二人都不知道,他们的未来,因为神秘力量——阿基拉而已经开始了巨大的变化。
  1. ##### MediaInfo ######
  2. General
  3. Unique ID                                : 102401107099994770394716468852321812120 (0x4D09BC60AE39DD93BEE0FC72E26DFE98)
  4. Complete name                            : Akira.1988.UHD.BluRay.2160p.x265.HDR.TrueHD5.1-MiniHD.mkv
  5. Format                                   : Matroska
  6. Format version                           : Version 4
  7. File size                                : 24.4 GiB
  8. Duration                                 : 2 h 4 min
  9. Overall bit rate mode                    : Variable
  10. Overall bit rate                         : 28.0 Mb/s
  11. Movie name                               : Akira [1988] UHD BluRay 2160p - FRDS
  12. Encoded date                             : UTC 2022-03-25 11:58:23
  13. Writing application                      : mkvmerge v66.0.0 ('Josie') 64-bit
  14. Writing library                          : libebml v1.4.2 + libmatroska v1.6.4
  15. Cover                                    : Yes
  16. Attachments                              : cover.jpg / cover.jpg
  17. Video
  18. ID                                       : 1
  19. Format                                   : HEVC
  20. Format/Info                              : High Efficiency Video Coding
  21. Format profile                           : Main 10@L5.1@High
  22. HDR format                               : SMPTE ST 2086, HDR10 compatible
  23. Codec ID                                 : V_MPEGH/ISO/HEVC
  24. Duration                                 : 2 h 4 min
  25. Bit rate                                 : 17.7 Mb/s
  26. Width                                    : 3 840 pixels
  27. Height                                   : 2 076 pixels
  28. Display aspect ratio                     : 1.85:1
  29. Frame rate mode                          : Constant
  30. Frame rate                               : 23.976 (24000/1001/53354) FPS
  31. Color space                              : YUV
  32. Chroma subsampling                       : 4:2:0
  33. Bit depth                                : 10 bits
  34. Bits/(Pixel*Frame)                       : 0.093
  35. Stream size                              : 15.5 GiB (63%)
  36. Writing library                          : x265 3.2+7-gb291a1c95+26:[Windows][#Erg`Djh#][@Yuuki] made by @Dongfangbubai
  37. Encoding settings                        : rc=crf / crf=18.0000 / qcomp=0.70 / qpstep=4 / stats-write=0 / stats-read=0 / vbv-maxrate=160000 / vbv-bufsize=160000 / vbv-init=0.9 / crf-max=0.0 / crf-min=0.0 / no-lossless / no-cu-lossless / aq-mode=3 / aq-strength=0.80 / cbqpoffs=-3 / crqpoffs=-3 / ipratio=1.40 / pbratio=1.30 / psy-rd=2.00 / psy-rdoq=3.00 / deblock=-1:-1 / ref=5 / limit-refs=0 / no-limit-modes / bframes=8 / b-adapt=2 / bframe-bias=0 / b-pyramid / b-intra / weightp / weightb / min-keyint=23 / max-keyint=240 / rc-lookahead=60 / gop-lookahead=0 / NTMzNTQ=uuDQuD2mJt9fsCf / scenecut=40 / radl=0 / max-cu-size=32 / min-cu-size=8 / me=3 / subme=4 / merange=25 / rdoq-level=2 / rd=4 / rdpenalty=1 / dynamic-rd=0.00 / no-rd-refine / ----- / no-cutree / no-sao / no-rect / no-amp / no-open-gop / wpp / pmode / pme / no-psnr / no-ssim / nr-intra=0 / nr-inter=0 / no-constrained-intra / no-strong-intra-smoothing / max-tu-size=32 / tu-inter-depth=2 / tu-intra-depth=2 / limit-tu=0 / qg-size=32 / qpmax=69 / qpmin=0 / ----- / cpuid=533541111039 / frame-threads=6 / numa-pools=54,- / log-level=2 / input-csp=1 / input-res=3840x2076 / interlace=0 / level-idc=0 / high-tier=1 / uhd-bd=0 / no-allow-non-conformance / no-repeat-headers / no-aud / hrd / info / hash=0 / no-temporal-layers / lookahead-slices=0 / no-splice / no-intra-refresh / no-ssim-rd / signhide / no-tskip / max-merge=3 / temporal-mvp / no-hme / no-analyze-src-pics / no-sao-non-deblock / selective-sao=0 / no-early-skip / no-rskip / no-fast-intra / no-tskip-fast / no-splitrd-skip / zone-count=0 / no-strict-cbr / no-rc-grain / no-const-vbv / sar=0 / overscan=0 / videoformat=5 / range=0 / colorprim=9 / transfer=16 / colormatrix=9 / chromaloc=0 / display-window=0 / master-display=G(13250,34500)B(7500,3000)R(34000,16000)WP(15635,16450)L(10000000,50) / cll=1000,369 / min-luma=0 / max-luma=1023 / log2-max-poc-lsb=8 / vui-timing-info / vui-hrd-info / slices=1 / no-opt-qp-pps / no-opt-ref-list-length-pps / no-multi-pass-opt-rps / scenecut-bias=0.05 / no-opt-cu-delta-qp / no-aq-motion / hdr / hdr-opt / no-dhdr10-opt / no-idr-recovery-sei / analysis-reuse-level=5 / scale-factor=0 / refine-intra=0 / refine-inter=0 / refine-mv=1 / refine-ctu-distortion=0 / no-limit-sao / ctu-info=0 / no-lowpass-dct / refine-analysis-type=0 / copy-pic=1 / max-ausize-factor=1.0 / no-dynamic-refine / no-single-sei / no-hevc-aq / no-svt / no-field / qp-adaptation-range=1.00
  38. Default                                  : Yes
  39. Forced                                   : No
  40. Color range                              : Limited
  41. Color primaries                          : BT.2020
  42. Transfer characteristics                 : PQ
  43. Matrix coefficients                      : BT.2020 non-constant
  44. Mastering display color primaries        : Display P3
  45. Mastering display luminance              : min: 0.0050 cd/m2, max: 1000 cd/m2
  46. Maximum Content Light Level              : 1000 cd/m2
  47. Maximum Frame-Average Light Level        : 369 cd/m2
  48. Audio #1
  49. ID                                       : 2
  50. Format                                   : MLP FBA
  51. Format/Info                              : Meridian Lossless Packing FBA
  52. Commercial name                          : Dolby TrueHD
  53. Codec ID                                 : A_TRUEHD
  54. Duration                                 : 2 h 4 min
  55. Bit rate mode                            : Variable
  56. Bit rate                                 : 9 517 kb/s
  57. Maximum bit rate                         : 13.9 Mb/s
  58. Channel(s)                               : 6 channels
  59. Channel layout                           : L R C LFE Ls Rs
  60. Sampling rate                            : 192 kHz
  61. Frame rate                               : 1 200.000 FPS (160 SPF)
  62. Compression mode                         : Lossless
  63. Stream size                              : 8.29 GiB (34%)
  64. Language                                 : Japanese
  65. Default                                  : Yes
  66. Forced                                   : No
  67. Audio #2
  68. ID                                       : 3
  69. Format                                   : AC-3
  70. Format/Info                              : Audio Coding 3
  71. Commercial name                          : Dolby Digital
  72. Codec ID                                 : A_AC3
  73. Duration                                 : 2 h 4 min
  74. Bit rate mode                            : Constant
  75. Bit rate                                 : 640 kb/s
  76. Channel(s)                               : 6 channels
  77. Channel layout                           : L R C LFE Ls Rs
  78. Sampling rate                            : 48.0 kHz
  79. Frame rate                               : 31.250 FPS (1536 SPF)
  80. Compression mode                         : Lossy
  81. Stream size                              : 571 MiB (2%)
  82. Title                                    : Compatibility Track
  83. Language                                 : Japanese
  84. Service kind                             : Complete Main
  85. Default                                  : Yes
  86. Forced                                   : No
  87. Text #1
  88. ID                                       : 4
  89. Format                                   : PGS
  90. Muxing mode                              : zlib
  91. Codec ID                                 : S_HDMV/PGS
  92. Codec ID/Info                            : Picture based subtitle format used on BDs/HD-DVDs
  93. Duration                                 : 1 h 59 min
  94. Bit rate                                 : 29.0 kb/s
  95. Count of elements                        : 2521
  96. Stream size                              : 24.7 MiB (0%)
  97. Language                                 : English
  98. Default                                  : No
  99. Forced                                   : No
  100. Text #2
  101. ID                                       : 5
  102. Format                                   : PGS
  103. Muxing mode                              : zlib
  104. Codec ID                                 : S_HDMV/PGS
  105. Codec ID/Info                            : Picture based subtitle format used on BDs/HD-DVDs
  106. Duration                                 : 1 h 58 min
  107. Bit rate                                 : 25.7 kb/s
  108. Count of elements                        : 2788
  109. Stream size                              : 21.9 MiB (0%)
  110. Language                                 : Japanese
  111. Default                                  : No
  112. Forced                                   : No
  113. Text #3
  114. ID                                       : 6
  115. Format                                   : PGS
  116. Muxing mode                              : zlib
  117. Codec ID                                 : S_HDMV/PGS
  118. Codec ID/Info                            : Picture based subtitle format used on BDs/HD-DVDs
  119. Duration                                 : 1 h 58 min
  120. Bit rate                                 : 25.6 kb/s
  121. Count of elements                        : 2369
  122. Stream size                              : 21.7 MiB (0%)
  123. Title                                    : CHS
  124. Language                                 : Chinese
  125. Default                                  : Yes
  126. Forced                                   : No
  127. Text #4
  128. ID                                       : 7
  129. Format                                   : PGS
  130. Muxing mode                              : zlib
  131. Codec ID                                 : S_HDMV/PGS
  132. Codec ID/Info                            : Picture based subtitle format used on BDs/HD-DVDs
  133. Duration                                 : 1 h 58 min
  134. Bit rate                                 : 26.7 kb/s
  135. Count of elements                        : 2369
  136. Stream size                              : 22.7 MiB (0%)
  137. Title                                    : CHT
  138. Language                                 : Chinese
  139. Default                                  : Yes
  140. Forced                                   : No
  141. Menu
  142. 00:00:00.000                             : en:2019 Neo Tokyo
  143. 00:03:04.309                             : en:Back Street
  144. 00:05:25.283                             : en:Joker
  145. 00:06:58.668                             : en:No. 26 Takashi
  146. 00:10:33.508                             : en:Chase
  147. 00:12:11.731                             : en:Tetsuo vs. Clown
  148. 00:16:53.888                             : en:Interrogation
  149. 00:20:37.445                             : en:Colonel's Office
  150. 00:23:45.341                             : en:Vocational School
  151. 00:26:44.686                             : en:Clown's Revenge
  152. 00:29:10.082                             : en:Illusion
  153. 00:32:10.512                             : en:Terrorist Bombing
  154. 00:35:21.578                             : en:Tetsuo's Memory
  155. 00:38:14.250                             : en:Control Room
  156. 00:41:23.147                             : en:Terrorist's Hideout
  157. 00:45:05.703                             : en:Supreme Executives
  158. 00:47:40.107                             : en:Invasion
  159. 00:53:16.485                             : en:Battle in a Sewer
  160. 00:57:16.850                             : en:To the Baby Room
  161. 01:02:32.207                             : en:Location Tetsuo
  162. 01:05:30.176                             : en:Tetsuo Flies
  163. 01:08:36.404                             : en:Haruki-Ya
  164. 01:11:11.058                             : en:In Prison
  165. 01:14:30.466                             : en:Ready for Battle
  166. 01:18:12.271                             : en:Nezu's Mansion
  167. 01:21:31.428                             : en:Nezu's Demise
  168. 01:25:57.486                             : en:Olympic Stadium
  169. 01:30:47.359                             : en:Frozen Capsule
  170. 01:36:05.510                             : en:Sol
  171. 01:39:38.764                             : en:Momentary Break
  172. 01:41:54.900                             : en:Stadium Showdown
  173. 01:45:42.336                             : en:Tetsuo's Mutation
  174. 01:49:21.680                             : en:Akira, Resurrected
  175. 01:52:23.695                             : en:Memories
  176. 01:56:06.960                             : en:Destruction
  177. 01:58:24.973                             : en:Return of Kaneda
  178. 02:00:21.297                             : en:Credits
  179. 02:04:33.466                             : en:Chapter 38



此处一般会放置磁力链或种子下载链接,不过此链接需要注册会员才能看到,点击“立即注册”
磁力链下载【下载链接仅对注册会员开放,登陆后可见】
BT9527电影天堂 1、BT9527电影天堂提供的BT文件均来源于互联网抓取,只供网友学习交流、技术提升使用。
2、我们遵守BitTorrent点对点协议原则,任何版权问题请联系原资源发布商,我们不处理任何版权纠纷,谢谢!如有争议请联系邮箱:BT9527#hotmail.com(#换成@)
3、如果您发现某页面或地址有错误,请联系站长邮箱BT9527#hotmail.com(#换成@),我们会尽快处理。您的热心是对BT9527电影天堂最大的支持。
4、本站建议去正规影院观看电影以支持电影行业发展。
最新回复 (0)

你可以在 登录 or 注册 后,对此帖发表评论!

返回
发新帖