鬼玩人[中英字幕].The.Evil.Dead.1981.BluRay.1080p.x265.10bit-MiniHD 4.35GB

版主小s 5月前 250

✔资源类型:暂未分类   ✔电影年份:更 早   ✔电影地区:欧美   ✔电影分类:恐怖

◎译  名 鬼玩人 / 尸变 / 死亡魔鬼
◎片  名 The Evil Dead
◎年  代 1981
◎产  地 美国
◎类  别 恐怖
◎语  言 英语
◎上映日期 1981-10-15
◎IMDb链接 https://www.imdb.com/title/tt0083907/
◎豆瓣评分 7.1/10 (13136人评价)
◎豆瓣链接 https://movie.douban.com/subject/1292501/
◎片  长 85 分钟
◎导  演 山姆·雷米 Sam Raimi (id:1027159)
◎编  剧 山姆·雷米 Sam Raimi (id:1027159)
◎演  员 布鲁斯·坎贝尔 Bruce Campbell (id:1069816)
       艾伦·桑德维斯 Ellen Sandweiss (id:1146302)
       贝琪·贝克 Betsy Baker (id:1060619)
       特丽莎缇莉 Theresa Tilly (id:1150098)
       约瑟夫·洛杜卡 Joseph LoDuca (id:1276600)
       Tom Sullivan Tom Sullivan (id:1298641)

◎简  介
  五个年轻人艾什(布鲁斯?坎贝尔 Bruce Campbell 饰)、雪莉(Ellen Sandweiss 埃伦?桑德维斯饰)等相约一起自驾游,他们预订了一座坐落于深山里房子作为野外落脚点,他们翻山越岭终于找到了这间小木屋。晚上,他们发现了这间屋子主人留下来的一本封面吓人的古怪的书和一部老式录音机。屋子主人在录音留言里说他在研究远古流传的丧礼和一些咒语,而那本古怪的书名字就叫“死亡之书”;根据书上说人死了其实只是保持睡眠状态,并没有真正死去,通过咒语可以重新活过来。接着录音机里就播放了一段令人毛骨悚然的咒文。随后,恐怖的事情开始陆续发生。
  1. ##### MediaInfo ######
  2. General
  3. Unique ID                                : 177589692557966367700225639530985844741 (0x859A87DA11327AF2B8F02E5666827005)
  4. Complete name                            : The.Evil.Dead.1981.BluRay.1080p.x265.10bit-MiniHD.mkv
  5. Format                                   : Matroska
  6. Format version                           : Version 4
  7. File size                                : 4.35 GiB
  8. Duration                                 : 1 h 25 min
  9. Overall bit rate                         : 7 295 kb/s
  10. Encoded date                             : UTC 2017-04-07 17:48:00
  11. Writing application                      : mkvmerge v9.7.1 ('Pandemonium') 64bit
  12. Writing library                          : libebml v1.3.4 + libmatroska v1.4.5
  13. Video
  14. ID                                       : 1
  15. Format                                   : HEVC
  16. Format/Info                              : High Efficiency Video Coding
  17. Format profile                           : Main 10@L4@Main
  18. Codec ID                                 : V_MPEGH/ISO/HEVC
  19. Duration                                 : 1 h 25 min
  20. Bit rate                                 : 6 510 kb/s
  21. Width                                    : 1 440 pixels
  22. Height                                   : 1 080 pixels
  23. Display aspect ratio                     : 4:3
  24. Frame rate mode                          : Constant
  25. Frame rate                               : 23.976 (24000/1001/53354) FPS
  26. Color space                              : YUV
  27. Chroma subsampling                       : 4:2:0
  28. Bit depth                                : 10 bits
  29. Bits/(Pixel*Frame)                       : 0.175
  30. Stream size                              : 3.88 GiB (89%)
  31. Writing library                          : x265 2.3+24-a0eee4b41185:[Windows][GCC 6.3.0][64 bit] 10bit
  32. Encoding settings                        : cpuid=533541173503 / frame-threads=6 / numa-pools=36 / wpp / no-pmode / no-pme / no-psnr / no-ssim / log-level=2 / input-csp=1 / input-res=1440x1080 / interlace=0 / total-frames=122905 / level-idc=0 / high-tier=1 / uhd-bd=0 / ref=5 / no-allow-non-conformance / no-repeat-headers / annexb / no-aud / no-hrd / info / hash=0 / no-temporal-layers / no-open-gop / min-keyint=1 / keyint=360 / bframes=8 / b-adapt=2 / b-pyramid / bframe-bias=0 / rc-lookahead=60 / lookahead-slices=4 / NTMzNTQ=uuDQuD2mJt9fsCf / scenecut=40 / no-intra-refresh / ctu=32 / min-cu-size=8 / rect / no-amp / max-tu-size=16 / tu-inter-depth=2 / tu-intra-depth=2 / limit-tu=4 / rdoq-level=2 / dynamic-rd=0.00 / signhide / no-tskip / nr-intra=0 / nr-inter=0 / no-constrained-intra / no-strong-intra-smoothing / max-merge=3 / limit-refs=2 / limit-modes / me=3 / subme=5 / merange=25 / temporal-mvp / weightp / weightb / no-analyze-src-pics / deblock=-1:-1 / no-sao / no-sao-non-deblock / rd=4 / no-early-skip / rskip / no-fast-intra / no-tskip-fast / no-cu-lossless / b-intra / rdpenalty=1 / psy-rd=0.00 / psy-rdoq=5.00 / no-rd-refine / analysis-mode=0 / no-lossless / cbqpoffs=-2 / crqpoffs=-2 / rc=crf / crf=21.0 / qcomp=0.70 / qpstep=4 / stats-write=0 / stats-read=0 / ipratio=1.40 / pbratio=1.30 / aq-mode=1 / aq-strength=0.70 / cutree / zone-count=0 / no-strict-cbr / qg-size=16 / no-rc-grain / qpmax=69 / qpmin=0 / sar=0 / overscan=0 / videoformat=5 / range=0 / colorprim=1 / transfer=2 / colormatrix=2 / chromaloc=0 / display-window=0 / max-cll=0,0 / min-luma=0 / max-luma=1023 / log2-max-poc-lsb=8 / vui-timing-info / vui-hrd-info / slices=1 / opt-qp-pps / opt-ref-list-length-pps / no-multi-pass-opt-rps / scenecut-bias=0.05 / no-opt-cu-delta-qp / no-aq-motion / no-hdr / no-hdr-opt / refine-level=5
  33. Default                                  : Yes
  34. Forced                                   : No
  35. Color range                              : Limited
  36. Color primaries                          : BT.709
  37. Audio
  38. ID                                       : 2
  39. Format                                   : AC-3
  40. Format/Info                              : Audio Coding 3
  41. Commercial name                          : Dolby Digital
  42. Codec ID                                 : A_AC3
  43. Duration                                 : 1 h 25 min
  44. Bit rate mode                            : Constant
  45. Bit rate                                 : 640 kb/s
  46. Channel(s)                               : 6 channels
  47. Channel layout                           : L R C LFE Ls Rs
  48. Sampling rate                            : 48.0 kHz
  49. Frame rate                               : 31.250 FPS (1536 SPF)
  50. Compression mode                         : Lossy
  51. Stream size                              : 391 MiB (9%)
  52. Language                                 : English
  53. Service kind                             : Complete Main
  54. Default                                  : Yes
  55. Forced                                   : No
  56. Text #1
  57. ID                                       : 3
  58. Format                                   : PGS
  59. Muxing mode                              : zlib
  60. Codec ID                                 : S_HDMV/PGS
  61. Codec ID/Info                            : Picture based subtitle format used on BDs/HD-DVDs
  62. Language                                 : English
  63. Default                                  : Yes
  64. Forced                                   : No
  65. Text #2
  66. ID                                       : 4
  67. Format                                   : PGS
  68. Muxing mode                              : zlib
  69. Codec ID                                 : S_HDMV/PGS
  70. Codec ID/Info                            : Picture based subtitle format used on BDs/HD-DVDs
  71. Language                                 : Chinese
  72. Default                                  : No
  73. Forced                                   : No
  74. Text #3
  75. ID                                       : 5
  76. Format                                   : PGS
  77. Muxing mode                              : zlib
  78. Codec ID                                 : S_HDMV/PGS
  79. Codec ID/Info                            : Picture based subtitle format used on BDs/HD-DVDs
  80. Language                                 : Chinese
  81. Default                                  : No
  82. Forced                                   : No
  83. Menu
  84. 00:00:00.000                             : en:Chapter 01
  85. 00:03:32.670                             : en:Chapter 02
  86. 00:07:24.610                             : en:Chapter 03
  87. 00:12:36.922                             : en:Chapter 04
  88. 00:16:17.935                             : en:Chapter 05
  89. 00:19:20.993                             : en:Chapter 06
  90. 00:23:13.141                             : en:Chapter 07
  91. 00:27:03.788                             : en:Chapter 08
  92. 00:29:34.606                             : en:Chapter 09
  93. 00:34:25.688                             : en:Chapter 10
  94. 00:38:21.549                             : en:Chapter 11
  95. 00:41:30.237                             : en:Chapter 12
  96. 00:43:27.438                             : en:Chapter 13
  97. 00:46:39.588                             : en:Chapter 14
  98. 00:49:37.557                             : en:Chapter 15
  99. 00:54:35.313                             : en:Chapter 16
  100. 00:57:33.450                             : en:Chapter 17
  101. 01:00:43.431                             : en:Chapter 18
  102. 01:06:45.459                             : en:Chapter 19
  103. 01:08:54.505                             : en:Chapter 20
  104. 01:11:56.437                             : en:Chapter 21
  105. 01:15:29.983                             : en:Chapter 22
  106. 01:19:06.324                             : en:Chapter 23
  107. 01:21:46.943                             : en:Chapter 24





此处一般会放置磁力链或种子下载链接,不过此链接需要注册会员才能看到,点击“立即注册”
磁力链下载【下载链接仅对注册会员开放,登陆后可见】
BT9527电影天堂 1、BT9527电影天堂提供的BT文件均来源于互联网抓取,只供网友学习交流、技术提升使用。
2、我们遵守BitTorrent点对点协议原则,任何版权问题请联系原资源发布商,我们不处理任何版权纠纷,谢谢!如有争议请联系邮箱:BT9527#hotmail.com(#换成@)
3、如果您发现某页面或地址有错误,请联系站长邮箱BT9527#hotmail.com(#换成@),我们会尽快处理。您的热心是对BT9527电影天堂最大的支持。
4、本站建议去正规影院观看电影以支持电影行业发展。
最新回复 (0)

你可以在 登录 or 注册 后,对此帖发表评论!

返回
发新帖