黑天鹅[国英多音轨/中英字幕].Black.Swan.2010.BluRay.1080p.x265.10bit.2Audio-MiniHD 8.07GB

版主小s 5月前 251

✔资源类型:暂未分类   ✔电影年份:2010   ✔电影地区:欧美   ✔电影分类:剧情

◎译  名 黑天鹅 / 夺命黑天鹅 / 霸王别鹅(豆友译名)
◎片  名 Black Swan
◎年  代 2010
◎产  地 美国
◎类  别 剧情 / 惊悚
◎语  言 英语 / 法语 / 意大利语
◎上映日期 2010-09-01(威尼斯电影节) / 2010-12-17(美国)
◎IMDb链接 https://www.imdb.com/title/tt0947798/
◎豆瓣评分 8.6/10 (735799人评价)
◎豆瓣链接 https://movie.douban.com/subject/1978709/
◎片  长 108分钟
◎导  演 达伦·阿伦诺夫斯基 Darren Aronofsky (id:1041000)
◎编  剧 安德雷斯·海因斯 Andres Heinz (id:1313056)
       马克·海曼 Mark Heyman (id:1313055)
       约翰·J·麦克劳克林 John J. McLaughlin (id:1313057)
◎演  员 娜塔莉·波特曼 Natalie Portman (id:1054454)
       米拉·库尼斯 Mila Kunis (id:1003481)
       文森特·卡索 Vincent Cassel (id:1036377)
       芭芭拉·赫希 Barbara Hershey (id:1006998)
       薇诺娜·瑞德 Winona Ryder (id:1012519)
       本杰明·米派德 Benjamin Millepied (id:1312859)
       克塞尼亚·索罗 Ksenia Solo (id:1312747)
       克里斯汀娜·安娜波 Kristina Anapau (id:1040780)
       詹妮特·蒙哥马利 Janet Montgomery (id:1040740)
       塞巴斯蒂安·斯坦 Sebastian Stan (id:1021985)
       托比·海明威 Toby Hemingway (id:1018058)
       塞尔吉奥·托拉多 Sergio Torrado (id:1313058)
       马克·马戈利斯 Mark Margolis (id:1123828)
       蒂娜·斯隆 Tina Sloan (id:1153233)
       亚伯拉罕·阿罗诺夫斯基 Abraham Aronofsky (id:1313059)
       夏洛特·阿罗诺夫斯基 Charlotte Aronofsky (id:1058032)
       玛西娅·让·库尔茨 Marcia Jean Kurtz (id:1313060)
       肖恩·奥哈根 Shaun O'Hagan (id:1137328)
       克里斯托弗·加廷 Christopher Gartin (id:1093303)
       黛博拉·奥夫纳 Deborah Offner (id:1328704)
       斯坦利·B·赫尔曼 Stanley B. Herman (id:1385860)
       库尔特·弗勒曼 Kurt Froman (id:1084575)
       帕特里克·赫辛格 Patrick Heusinger (id:1317270)
       莎拉·海伊 Sarah Hay (id:1352765)
       坂本真绫 Maaya Sakamoto (id:1146783)
       约瑟夫·莱迪 Joseph P. Reidy (id:1295409)
       斯科特·富兰克林 Scott Franklin (id:1284102)
       克林特·曼塞尔 Clint Mansell (id:1014159)
       马修·利巴提克 Matthew Libatique (id:1009698)
       玛丽·海伦·鲍尔斯 Mary Helen Bowers (id:1380218)
       凯特·穆里维 Kate Mulleavy (id:1373887)
       劳拉·穆里维 Laura Mulleavy (id:1373888)
       约瑟夫·莱迪 Joseph P. Reidy (id:1295409)
       玛丽·海伦·鲍尔斯 Mary Helen Bowers (id:1380218)

◎简  介
  纽约剧团要重排《天鹅湖》,因前领舞Beth(薇诺娜?赖德 Winona Ryder 饰)离去,总监Thomas(文森特?卡索尔 Vincent Cassel. 饰)决定海选新领舞,且要求领舞要分饰黑天鹅与白天鹅。Nina(娜塔莉?波特曼Natalie Portman 饰)自幼练习芭蕾舞,在母亲的细心关照下,技艺出众。这次,她希望可以脱颖而出。然而,在竞争中,她发现心机颇重的Lily(米拉?库妮丝 Mila Kunis 饰)是自己的强劲对手。在选拔中,她的白天鹅表演的无可挑剔,但是黑天鹅不及Lily。她感到身心俱疲,回家还发现了背部的红斑与脚伤。她一个人找到总监,希望争取一下。总监趁机亲吻她,却被她强硬拒绝。结果,总监居然选了她。队友怀疑她靠色相上位。在酒会上,Beth甚至当众发泄。这种压力外加伤病,一直影响着她的发挥。总监启发她要释放激情,表现出黑天...

◎获奖情况 (共54项)
  第83届奥斯卡金像奖 (2011)
  最佳影片(提名)
  最佳导演(提名)
   └──达伦·阿伦诺夫斯基 (id:1041000)
  最佳女主角
   └──娜塔莉·波特曼 (id:1054454)
  最佳摄影(提名)
   └──马修·利巴提克 (id:1009698)
  最佳剪辑(提名)
   └──安德鲁·威斯布鲁 (id:1300629)

  第67届威尼斯电影节 (2010)
  金狮奖(提名)
   └──达伦·阿伦诺夫斯基 (id:1041000)
  马塞洛·马斯托依安尼奖(新锐演员奖)
   └──米拉·库尼斯 (id:1003481)

  第68届金球奖 (2011)
  电影类 最佳剧情片(提名)
  电影类 最佳导演(提名)
   └──达伦·阿伦诺夫斯基 (id:1041000)
  电影类 剧情片最佳女主角
   └──娜塔莉·波特曼 (id:1054454)
  电影类 最佳女配角(提名)
   └──米拉·库尼斯 (id:1003481)

  第35届日本电影学院奖 (2012)
  最佳外语片(提名)

  第55届意大利大卫奖 (2011)
  最佳外语片(提名)
   └──达伦·阿伦诺夫斯基 (id:1041000)

  第20届MTV电影奖 (2011)
  MTV电影奖 年度电影(提名)
  MTV电影奖 最佳女演员(提名)
   └──娜塔莉·波特曼 (id:1054454)
  MTV电影奖 最佳吻戏(提名)
  MTV电影奖 最令人印象深刻奖(提名)
   └──娜塔莉·波特曼 (id:1054454)

  第76届纽约影评人协会奖 (2010)
  最佳摄影
   └──马修·利巴提克 (id:1009698)

  第11届美国电影学会奖 (2010)
  年度佳片

  第9届华盛顿影评人协会奖 (2010)
  最佳影片(提名)
  最佳导演(提名)
   └──达伦·阿伦诺夫斯基 (id:1041000)
  最佳女主角(提名)
   └──娜塔莉·波特曼 (id:1054454)
  最佳原创剧本(提名)
  最佳摄影(提名)
   └──马修·利巴提克 (id:1009698)
  最佳配乐(提名)
   └──克林特·曼塞尔 (id:1014159)
  最佳艺术指导(提名)

  第31届波士顿影评人协会奖 (2010)
  最佳导演(提名)
   └──达伦·阿伦诺夫斯基 (id:1041000)
  最佳女主角
   └──娜塔莉·波特曼 (id:1054454)
  最佳摄影(提名)
   └──马修·利巴提克 (id:1009698)
  最佳剪辑
   └──安德鲁·威斯布鲁 (id:1300629)

  第15届圣地亚哥影评人协会奖 (2010)
  最佳影片(提名)
  最佳导演
   └──达伦·阿伦诺夫斯基 (id:1041000)
  最佳女主角(提名)
   └──娜塔莉·波特曼 (id:1054454)
  最佳摄影(提名)
   └──马修·利巴提克 (id:1009698)
  最佳剪辑(提名)
   └──安德鲁·威斯布鲁 (id:1300629)
  最佳配乐(提名)
   └──克林特·曼塞尔 (id:1014159)
  最佳艺术指导(提名)
   └──特蕾莎·德普雷 (id:1282260)

  第23届芝加哥影评人协会奖 (2010)
  最佳影片(提名)
  最佳导演(提名)
   └──达伦·阿伦诺夫斯基 (id:1041000)
  最佳女主角
   └──娜塔莉·波特曼 (id:1054454)
  最佳原创剧本(提名)
  最佳摄影(提名)
   └──马修·利巴提克 (id:1009698)
  最佳原创配乐
   └──克林特·曼塞尔 (id:1014159)

  第44届堪萨斯影评人协会奖 (2011)
  最佳女主角
   └──娜塔莉·波特曼 (id:1054454)

  第10届凤凰城影评人协会奖 (2010)
  最佳女主角
   └──娜塔莉·波特曼 (id:1054454)
  最佳原创剧本(提名)
  最佳剪辑(提名)
   └──安德鲁·威斯布鲁 (id:1300629)

  第19届东南影评人协会奖 (2010)
  最佳女主角
   └──娜塔莉·波特曼 (id:1054454)
  十大佳片

  第13届美国青少年选择奖 (2011)
  最佳剧情片
  最佳剧情片女演员
   └──娜塔莉·波特曼 (id:1054454)
  最抢戏电影女星(提名)
   └──米拉·库尼斯 (id:1003481)
  最佳电影吻戏(提名)

  第1届豆瓣电影鑫像奖 (2011)
  鑫豆单元 最佳女演员(外语)
   └──娜塔莉·波特曼 (id:1054454)

  1. ##### MediaInfo ######
  2. General
  3. Unique ID                                : 184079254326264597917934763344591712656 (0x8A7C5FF334201EAAAD09BEE4EBC5F190)
  4. Complete name                            : Black.Swan.2010.BluRay.1080p.x265.10bit.2Audio-MiniHD.mkv
  5. Format                                   : Matroska
  6. Format version                           : Version 4
  7. File size                                : 8.07 GiB
  8. Duration                                 : 1 h 48 min
  9. Overall bit rate                         : 10.7 Mb/s
  10. Encoded date                             : UTC 2017-10-11 20:06:38
  11. Writing application                      : mkvmerge v11.0.0 ('Alive') 64bit
  12. Writing library                          : libebml v1.3.4 + libmatroska v1.4.5
  13. Video
  14. ID                                       : 1
  15. Format                                   : HEVC
  16. Format/Info                              : High Efficiency Video Coding
  17. Codec ID                                 : V_MPEGH/ISO/HEVC
  18. Duration                                 : 1 h 48 min
  19. Bit rate                                 : 9 760 kb/s
  20. Width                                    : 1 920 pixels
  21. Height                                   : 800 pixels
  22. Display aspect ratio                     : 2.40:1
  23. Frame rate mode                          : Constant
  24. Frame rate                               : 23.976 (24000/1001/53354) FPS
  25. Bits/(Pixel*Frame)                       : 0.265
  26. Stream size                              : 7.37 GiB (91%)
  27. Default                                  : Yes
  28. Forced                                   : No
  29. Audio #1
  30. ID                                       : 2
  31. Format                                   : AC-3
  32. Format/Info                              : Audio Coding 3
  33. Commercial name                          : Dolby Digital
  34. Codec ID                                 : A_AC3
  35. Duration                                 : 1 h 48 min
  36. Bit rate mode                            : Constant
  37. Bit rate                                 : 640 kb/s
  38. Channel(s)                               : 6 channels
  39. Channel layout                           : L R C LFE Ls Rs
  40. Sampling rate                            : 48.0 kHz
  41. Frame rate                               : 31.250 FPS (1536 SPF)
  42. Compression mode                         : Lossy
  43. Stream size                              : 495 MiB (6%)
  44. Language                                 : English
  45. Service kind                             : Complete Main
  46. Default                                  : Yes
  47. Forced                                   : No
  48. Audio #2
  49. ID                                       : 3
  50. Format                                   : AC-3
  51. Format/Info                              : Audio Coding 3
  52. Commercial name                          : Dolby Digital
  53. Codec ID                                 : A_AC3
  54. Duration                                 : 1 h 48 min
  55. Bit rate mode                            : Constant
  56. Bit rate                                 : 256 kb/s
  57. Channel(s)                               : 6 channels
  58. Channel layout                           : L R C LFE Ls Rs
  59. Sampling rate                            : 48.0 kHz
  60. Frame rate                               : 31.250 FPS (1536 SPF)
  61. Compression mode                         : Lossy
  62. Delay relative to video                  : 300 ms
  63. Stream size                              : 198 MiB (2%)
  64. Language                                 : Chinese
  65. Service kind                             : Complete Main
  66. Default                                  : No
  67. Forced                                   : No
  68. Text #1
  69. ID                                       : 4
  70. Format                                   : PGS
  71. Muxing mode                              : zlib
  72. Codec ID                                 : S_HDMV/PGS
  73. Codec ID/Info                            : Picture based subtitle format used on BDs/HD-DVDs
  74. Duration                                 : 1 h 47 min
  75. Bit rate                                 : 7 177 b/s
  76. Count of elements                        : 2125
  77. Stream size                              : 5.51 MiB (0%)
  78. Language                                 : English
  79. Default                                  : Yes
  80. Forced                                   : No
  81. Text #2
  82. ID                                       : 5
  83. Format                                   : PGS
  84. Muxing mode                              : zlib
  85. Codec ID                                 : S_HDMV/PGS
  86. Codec ID/Info                            : Picture based subtitle format used on BDs/HD-DVDs
  87. Duration                                 : 1 h 46 min
  88. Bit rate                                 : 8 212 b/s
  89. Count of elements                        : 1937
  90. Stream size                              : 6.28 MiB (0%)
  91. Language                                 : Chinese
  92. Default                                  : No
  93. Forced                                   : No
  94. Text #3
  95. ID                                       : 6
  96. Format                                   : PGS
  97. Muxing mode                              : zlib
  98. Codec ID                                 : S_HDMV/PGS
  99. Codec ID/Info                            : Picture based subtitle format used on BDs/HD-DVDs
  100. Duration                                 : 1 h 46 min
  101. Bit rate                                 : 5 965 b/s
  102. Count of elements                        : 1799
  103. Stream size                              : 4.56 MiB (0%)
  104. Language                                 : Chinese
  105. Default                                  : No
  106. Forced                                   : No
  107. Menu
  108. 00:00:00.000                             : en:Chapter 01
  109. 00:06:18.044                             : en:Chapter 02
  110. 00:12:54.732                             : en:Chapter 03
  111. 00:16:35.077                             : en:Chapter 04
  112. 00:19:06.687                             : en:Chapter 05
  113. 00:21:53.020                             : en:Chapter 06
  114. 00:26:33.592                             : en:Chapter 07
  115. 00:29:43.865                             : en:Chapter 08
  116. 00:32:18.811                             : en:Chapter 09
  117. 00:36:05.872                             : en:Chapter 10
  118. 00:40:42.606                             : en:Chapter 11
  119. 00:43:52.129                             : en:Chapter 12
  120. 00:46:39.838                             : en:Chapter 13
  121. 00:49:33.679                             : en:Chapter 14
  122. 00:52:38.488                             : en:Chapter 15
  123. 00:55:47.886                             : en:Chapter 16
  124. 00:58:23.875                             : en:Chapter 17
  125. 01:06:56.095                             : en:Chapter 18
  126. 01:10:15.794                             : en:Chapter 19
  127. 01:13:26.485                             : en:Chapter 20
  128. 01:18:28.370                             : en:Chapter 21
  129. 01:22:49.798                             : en:Chapter 22
  130. 01:25:31.793                             : en:Chapter 23
  131. 01:28:40.565                             : en:Chapter 24
  132. 01:32:53.234                             : en:Chapter 25
  133. 01:34:35.044                             : en:Chapter 26
  134. 01:37:47.444                             : en:Chapter 27
  135. 01:42:57.796                             : en:Chapter 28





此处一般会放置磁力链或种子下载链接,不过此链接需要注册会员才能看到,点击“立即注册”
磁力链下载【下载链接仅对注册会员开放,登陆后可见】
BT9527电影天堂 1、BT9527电影天堂提供的BT文件均来源于互联网抓取,只供网友学习交流、技术提升使用。
2、我们遵守BitTorrent点对点协议原则,任何版权问题请联系原资源发布商,我们不处理任何版权纠纷,谢谢!如有争议请联系邮箱:BT9527#hotmail.com(#换成@)
3、如果您发现某页面或地址有错误,请联系站长邮箱BT9527#hotmail.com(#换成@),我们会尽快处理。您的热心是对BT9527电影天堂最大的支持。
4、本站建议去正规影院观看电影以支持电影行业发展。
最新回复 (0)

你可以在 登录 or 注册 后,对此帖发表评论!

返回
发新帖