飓风[国英多音轨/中英字幕].The.Hurricane.1999.BluRay.1080p.x265.10bit.2Audio-MiniHD 6.28GB

版主小s 5月前 188

✔资源类型:暂未分类   ✔电影年份:更 早   ✔电影地区:欧美   ✔电影分类:剧情

◎译  名 飓风 / 捍卫正义 / 黑罪风云 / 黑色飓风
◎片  名 The Hurricane
◎年  代 1999
◎产  地 美国
◎类  别 剧情 / 传记 / 运动
◎语  言 英语
◎上映日期 1999-12-14(美国)
◎IMDb链接 https://www.imdb.com/title/tt0174856/
◎豆瓣评分 8.5/10 (12199人评价)
◎豆瓣链接 https://movie.douban.com/subject/1294497/
◎片  长 146分钟
◎导  演 诺曼·杰威森 Norman Jewison (id:1010709)
◎编  剧 特里·斯温顿 Terry Swinton (id:1298744)
       阿尔米安·伯恩斯坦 Armyan Bernstein (id:1278500)
       Sam Chaiton Sam Chaiton (id:1280388)
       丹·戈登 Dan Gordon (id:1285176)
◎演  员 丹泽尔·华盛顿 Denzel Washington (id:1054431)
       维斯勒·夏农 Vicellous Shannon (id:1000486)
       黛博拉·卡拉·安格 Deborah Kara Unger (id:1002738)
       列维·施瑞博尔 Liev Schreiber (id:1027151)
       约翰·汉纳 John Hannah (id:1044879)
       阿尔·韦克斯曼 Al Waxman (id:1032551)
       大卫·兰斯布里 David Lansbury (id:1109060)
       罗德·斯泰格尔 Rod Steiger (id:1002747)
       鲍勃·迪伦 Bob Dylan (id:1018072)
       鲁宾·哈里肯·卡特 Rubin 'Hurricane' Carter (id:1045618)
       本布雷 Ben Bray (id:1276504)
       穆罕默德·阿里 Muhammad Ali (id:1014107)
       艾伦·伯斯汀 Ellen Burstyn (id:1036407)
       巴贾·乔拉 Badja Djola (id:1084800)
       维森特·帕斯托雷 Vincent Pastore (id:1134009)
       George T. Odom George T. Odom (id:1293475)
       丹·哈达亚 Dan Hedaya (id:1025245)
       黛比·摩根 Debbi Morgan (id:1054991)
       克兰西·布朗 Clancy Brown (id:1013817)
       哈里斯·于林 Harris Yulin (id:1160840)
       John Ketcham John Ketcham (id:1288469)
       汤姆·罗森伯格 Tom Rosenberg (id:1296083)
       伊夫林·阿佐夫 Irving Azoff (id:1277624)
       阿尔米安·伯恩斯坦 Armyan Bernstein (id:1278500)
       William Teitler William Teitler (id:1299030)
       罗杰·狄金斯 Roger Deakins (id:1018197)
       史蒂芬·E·里夫金 Stephen E. Rivkin (id:1295725)
       艾薇·考夫曼 Avy Kaufman (id:1288224)
       戈登·西姆 Gordon Sim (id:1297609)
       Dennis Davenport Dennis Davenport (id:1281855)
       小约翰·卡利亚内 John Caglione Jr. (id:1279853)

◎简  介
  一个黑人毛头小伙莱斯(维斯罗斯?雷恩?香农 Vicellous Reon Shannon 饰)在旧书市无意中淘到了拳王“飓风”鲁本?卡特(丹泽尔?华盛顿 Denzel Washington 饰)在狱中写的自传,并开始了对他的故事产生了兴趣。鲁本出生于贫寒家庭,幼年时嫉恶如仇,因此与当地的白人警察结怨。后来,他因为出色的身手,名震拳坛,绰号“飓风”。此后,他参加了越战成为荣誉军官,并在某舞会偶然结识了后来的妻子。当生活进入美满轨道的时候,一次新泽西酒吧杀人案彻底毁掉了他美好希望。莱斯与鲁本通信,了解到他蒙受不白之冤,便说服了朋友们,一起查找证据,希望揭开真相,令他重获自由,然而种族歧视的恶势力却在暗中百般刁难,意图把飓风困死在牢房……

◎获奖情况 (共6项)
  第72届奥斯卡金像奖 (2000)
  最佳男主角(提名)
   └──丹泽尔·华盛顿 (id:1054431)

  第50届柏林国际电影节 (2000)
  金熊奖(提名)
   └──诺曼·杰威森 (id:1010709)
  银熊奖 最佳男演员
   └──丹泽尔·华盛顿 (id:1054431)

  第57届金球奖 (2000)
  电影类 最佳剧情片(提名)
  电影类 最佳导演(提名)
   └──诺曼·杰威森 (id:1010709)
  电影类 剧情片最佳男主角
   └──丹泽尔·华盛顿 (id:1054431)

  1. ##### MediaInfo ######
  2. General
  3. Unique ID                                : 194616770037818448351714299853578747772 (0x9269D39621AE63178226DB653FC8BF7C)
  4. Complete name                            : The.Hurricane.1999.BluRay.1080p.x265.10bit.2Audio-MiniHD.mkv
  5. Format                                   : Matroska
  6. Format version                           : Version 4
  7. File size                                : 6.28 GiB
  8. Duration                                 : 2 h 25 min
  9. Overall bit rate                         : 6 162 kb/s
  10. Encoded date                             : UTC 2017-09-04 05:12:06
  11. Writing application                      : mkvmerge v11.0.0 ('Alive') 64bit
  12. Writing library                          : libebml v1.3.4 + libmatroska v1.4.5
  13. Video
  14. ID                                       : 1
  15. Format                                   : HEVC
  16. Format/Info                              : High Efficiency Video Coding
  17. Codec ID                                 : V_MPEGH/ISO/HEVC
  18. Duration                                 : 2 h 25 min
  19. Bit rate                                 : 5 016 kb/s
  20. Width                                    : 1 910 pixels
  21. Height                                   : 1 040 pixels
  22. Display aspect ratio                     : 1.85:1
  23. Frame rate mode                          : Constant
  24. Frame rate                               : 23.976 (24000/1001/53354) FPS
  25. Bits/(Pixel*Frame)                       : 0.105
  26. Stream size                              : 5.11 GiB (81%)
  27. Default                                  : Yes
  28. Forced                                   : No
  29. Audio #1
  30. ID                                       : 2
  31. Format                                   : AC-3
  32. Format/Info                              : Audio Coding 3
  33. Commercial name                          : Dolby Digital
  34. Codec ID                                 : A_AC3
  35. Duration                                 : 2 h 25 min
  36. Bit rate mode                            : Constant
  37. Bit rate                                 : 640 kb/s
  38. Channel(s)                               : 6 channels
  39. Channel layout                           : L R C LFE Ls Rs
  40. Sampling rate                            : 48.0 kHz
  41. Frame rate                               : 31.250 FPS (1536 SPF)
  42. Compression mode                         : Lossy
  43. Stream size                              : 668 MiB (10%)
  44. Language                                 : English
  45. Service kind                             : Complete Main
  46. Default                                  : Yes
  47. Forced                                   : No
  48. Audio #2
  49. ID                                       : 3
  50. Format                                   : AC-3
  51. Format/Info                              : Audio Coding 3
  52. Commercial name                          : Dolby Digital
  53. Codec ID                                 : A_AC3
  54. Duration                                 : 2 h 25 min
  55. Bit rate mode                            : Constant
  56. Bit rate                                 : 384 kb/s
  57. Channel(s)                               : 6 channels
  58. Channel layout                           : L R C LFE Ls Rs
  59. Sampling rate                            : 48.0 kHz
  60. Frame rate                               : 31.250 FPS (1536 SPF)
  61. Compression mode                         : Lossy
  62. Stream size                              : 401 MiB (6%)
  63. Language                                 : Chinese
  64. Service kind                             : Complete Main
  65. Default                                  : No
  66. Forced                                   : No
  67. Text #1
  68. ID                                       : 4
  69. Format                                   : PGS
  70. Muxing mode                              : zlib
  71. Codec ID                                 : S_HDMV/PGS
  72. Codec ID/Info                            : Picture based subtitle format used on BDs/HD-DVDs
  73. Language                                 : English
  74. Default                                  : Yes
  75. Forced                                   : No
  76. Text #2
  77. ID                                       : 5
  78. Format                                   : PGS
  79. Muxing mode                              : zlib
  80. Codec ID                                 : S_HDMV/PGS
  81. Codec ID/Info                            : Picture based subtitle format used on BDs/HD-DVDs
  82. Language                                 : Chinese
  83. Default                                  : No
  84. Forced                                   : No
  85. Text #3
  86. ID                                       : 6
  87. Format                                   : PGS
  88. Muxing mode                              : zlib
  89. Codec ID                                 : S_HDMV/PGS
  90. Codec ID/Info                            : Picture based subtitle format used on BDs/HD-DVDs
  91. Language                                 : Chinese
  92. Default                                  : No
  93. Forced                                   : No
  94. Menu
  95. 00:00:00.000                             : en:Chapter 01
  96. 00:07:53.931                             : en:Chapter 02
  97. 00:13:44.281                             : en:Chapter 03
  98. 00:17:21.915                             : en:Chapter 04
  99. 00:24:55.285                             : en:Chapter 05
  100. 00:29:03.366                             : en:Chapter 06
  101. 00:35:11.651                             : en:Chapter 07
  102. 00:44:06.268                             : en:Chapter 08
  103. 00:48:45.255                             : en:Chapter 09
  104. 00:53:10.854                             : en:Chapter 10
  105. 01:07:24.540                             : en:Chapter 11
  106. 01:12:33.307                             : en:Chapter 12
  107. 01:23:58.408                             : en:Chapter 13
  108. 01:33:08.040                             : en:Chapter 14
  109. 01:46:06.651                             : en:Chapter 15
  110. 01:55:16.159                             : en:Chapter 16
  111. 02:01:13.182                             : en:Chapter 17
  112. 02:12:44.581                             : en:Chapter 18
  113. 02:15:06.973                             : en:Chapter 19
  114. 02:19:33.948                             : en:Chapter 20





此处一般会放置磁力链或种子下载链接,不过此链接需要注册会员才能看到,点击“立即注册”
磁力链下载【下载链接仅对注册会员开放,登陆后可见】
BT9527电影天堂 1、BT9527电影天堂提供的BT文件均来源于互联网抓取,只供网友学习交流、技术提升使用。
2、我们遵守BitTorrent点对点协议原则,任何版权问题请联系原资源发布商,我们不处理任何版权纠纷,谢谢!如有争议请联系邮箱:BT9527#hotmail.com(#换成@)
3、如果您发现某页面或地址有错误,请联系站长邮箱BT9527#hotmail.com(#换成@),我们会尽快处理。您的热心是对BT9527电影天堂最大的支持。
4、本站建议去正规影院观看电影以支持电影行业发展。
最新回复 (0)

你可以在 登录 or 注册 后,对此帖发表评论!

返回
发新帖