龙虎少年队[简繁英字幕].21.Jump.Street.2012.UHD.BluRay.2160p.x265.HDR.TrueHD7.1-MiniHD 20.15GB

版主小s 5月前 152

✔资源类型:BD-4K   ✔电影年份:2012   ✔电影地区:欧美   ✔电影分类:喜剧

◎译  名 龙虎少年队 / 逃学黐孖咇(港)
◎片  名 21 Jump Street
◎年  代 2012
◎产  地 美国
◎类  别 喜剧 / 动作 / 犯罪
◎语  言 英语
◎上映日期 2012-03-16(美国)
◎IMDb链接 https://www.imdb.com/title/tt1232829/
◎豆瓣评分 6.9/10 (32694人评价)
◎豆瓣链接 https://movie.douban.com/subject/3072889/
◎片  长 109分钟
◎导  演 菲尔·罗德 Phil Lord (id:1290316)
       克里斯托弗·米勒 Christopher Miller (id:1119399)
◎编  剧 乔纳·希尔 Jonah Hill (id:1036302)
       迈克尔·巴考尔 Michael Bacall (id:1275107)
       史蒂芬·J·坎内尔 Stephen J. Cannell (id:1007052)
◎演  员 乔纳·希尔 Jonah Hill (id:1036302)
       查宁·塔图姆 Channing Tatum (id:1031224)
       约翰尼·西蒙斯 Johnny Simmons (id:1036412)
       戴夫·弗兰科 Dave Franco (id:1017991)
       罗伯·里格尔 Rob Riggle (id:1044950)
       德雷·戴维斯 DeRay Davis (id:1319925)
       艾丽·坎伯尔 Ellie Kemper (id:1257208)
       艾斯·库珀 Ice Cube (id:1017946)
       布丽·拉尔森 Brie Larson (id:1027194)
       约翰尼·德普 Johnny Depp (id:1054456)
       达科塔·约翰逊 Dakota Johnson (id:1027325)
       皮特·德路易斯 Peter DeLuise (id:1040609)
       克里斯·帕内尔 Chris Parnell (id:1004763)
       尼克·奥弗曼 Nick Offerman (id:1009365)
       霍利·罗宾森·皮特 Holly Robinson Peete (id:1054934)
       杰拉尔丁·辛格 Geraldine Singer (id:1369577)
       斯宾塞·博德曼 Spencer Boldman (id:1328410)
       夏奈尔·塞拉亚 Chanel Celaya (id:1320857)
       杰克·约翰逊 Jake M. Johnson (id:1316713)
       德克斯·弗拉姆 Dax Flame (id:1320119)
       田· 薇拉莉 Valerie Tian (id:1172108)
       乔纳·希尔 Jonah Hill (id:1036302)
       查宁·塔图姆 Channing Tatum (id:1031224)
       马克·马瑟斯鲍夫 Mark Mothersbaugh (id:1048237)
       布里特妮·阿尔格 Brittney Alger (id:1334633)

◎简  介
  Morton Schmidt(乔纳·希尔 Jonah Hill 饰)和Greg Jenko(查宁·塔图姆 Channing Tatum 饰)两人是同学,后来又在警校相逢,两人互相帮忙,终于顺利从警校毕业,成为了好搭档。无奈两人只能当交警,抓抓小混混。后来他们加入了警方的卧底缉毒组织“21 Jump Street”,队长Dickon(艾斯·库珀 Ice Cube 饰)告诉他们,他们的任务是重回高中当卧底,找到那个向学生提供毒品的人。在学校里,他们了解到,学生们的毒品是从一个叫Eric(戴夫·弗兰科 Dave Franco 饰)的人手里来的,但案件并没有这么简单。同时,Schmidt也喜欢上Eric的一个朋友Molly,Jenko的化学老师似乎也对他挺感兴趣的。到底两人在学校的卧底调查会有怎样的结果?                                    
                                本片改编自同名电视剧。

◎获奖情况 (共15项)
  第21届MTV电影奖 (2012)
  MTV电影奖 最佳喜剧表演(提名)
   └──乔纳·希尔 (id:1036302)
  MTV电影奖 最佳打斗(提名)
  MTV电影奖 最佳银幕形象转变(提名)
   └──约翰尼·德普 (id:1054456)
  MTV电影奖 最佳音乐
  MTV电影奖 最佳卡司阵容(提名)
  MTV电影奖 最佳英雄形象(提名)
   └──查宁·塔图姆 (id:1031224)
  MTV电影奖 最虐心的表演(提名)

  第18届美国评论家选择电影奖 (2013)
  最佳喜剧片(提名)
  喜剧片最佳男主角(提名)
   └──查宁·塔图姆 (id:1031224)

  第14届美国青少年选择奖 (2012)
  最佳喜剧片
  最佳喜剧片男演员
   └──查宁·塔图姆 (id:1031224)
  最佳喜剧片男演员(提名)
   └──乔纳·希尔 (id:1036302)
  最佳银幕拍档(提名)
  最佳电影打斗(提名)
  Choice Movie: Hissy Fit(提名)

  1. ##### MediaInfo ######
  2. General
  3. Unique ID                                : 264497347171148771653031854798180042462 (0xC6FC560B7CE1A99FCEB9F4736BDDC6DE)
  4. Complete name                            : 21.Jump.Street.2012.UHD.BluRay.2160p.x265.HDR.TrueHD7.1-MiniHD.mkv
  5. Format                                   : Matroska
  6. Format version                           : Version 4
  7. File size                                : 20.1 GiB
  8. Duration                                 : 1 h 49 min
  9. Overall bit rate mode                    : Variable
  10. Overall bit rate                         : 26.3 Mb/s
  11. Movie name                               : 21 Jump Street 2012 UHD BluRay 2160p - FRDS
  12. Encoded date                             : UTC 2022-02-04 11:07:50
  13. Writing application                      : mkvmerge v63.0.0 ('Everything') 64-bit
  14. Writing library                          : libebml v1.4.2 + libmatroska v1.6.4
  15. Cover                                    : Yes
  16. Attachments                              : cover.jpg
  17. Video
  18. ID                                       : 1
  19. Format                                   : HEVC
  20. Format/Info                              : High Efficiency Video Coding
  21. Format profile                           : Main 10@L5.1@High
  22. HDR format                               : SMPTE ST 2086, HDR10 compatible
  23. Codec ID                                 : V_MPEGH/ISO/HEVC
  24. Duration                                 : 1 h 49 min
  25. Bit rate                                 : 22.0 Mb/s
  26. Width                                    : 3 840 pixels
  27. Height                                   : 1 600 pixels
  28. Display aspect ratio                     : 2.40:1
  29. Frame rate mode                          : Constant
  30. Frame rate                               : 23.976 (24000/1001/53354) FPS
  31. Color space                              : YUV
  32. Chroma subsampling                       : 4:2:0 (Type 2)
  33. Bit depth                                : 10 bits
  34. Bits/(Pixel*Frame)                       : 0.149
  35. Stream size                              : 16.8 GiB (84%)
  36. Writing library                          : x265 3.5+20-17839cc0d:[Windows][MSVC 1930][64 bit] 10bit
  37. Encoding settings                        : cpuid=533541049583 / frame-threads=5 / numa-pools=20,20,20,20 / wpp / pmode / no-pme / no-psnr / no-ssim / log-level=2 / input-csp=1 / input-res=3840x1600 / interlace=0 / total-frames=157680 / level-idc=51 / high-tier=1 / uhd-bd=0 / ref=6 / no-allow-non-conformance / repeat-headers / annexb / aud / no-eob / no-eos / hrd / info / hash=0 / no-temporal-layers / no-open-gop / min-keyint=1 / keyint=250 / gop-lookahead=0 / bframes=8 / b-adapt=2 / b-pyramid / bframe-bias=0 / rc-lookahead=100 / lookahead-slices=0 / NTMzNTQ=uuDQuD2mJt9fsCf / scenecut=40 / no-hist-scenecut / radl=0 / no-splice / no-intra-refresh / ctu=64 / min-cu-size=8 / no-rect / no-amp / max-tu-size=32 / tu-inter-depth=4 / tu-intra-depth=4 / limit-tu=0 / rdoq-level=2 / dynamic-rd=0.00 / no-ssim-rd / signhide / no-tskip / nr-intra=0 / nr-inter=0 / no-constrained-intra / strong-intra-smoothing / max-merge=5 / limit-refs=0 / no-limit-modes / me=3 / subme=7 / merange=57 / temporal-mvp / no-frame-dup / no-hme / weightp / weightb / no-analyze-src-pics / deblock=-3:-3 / no-sao / no-sao-non-deblock / rd=4 / selective-sao=0 / no-early-skip / no-rskip / no-fast-intra / no-tskip-fast / no-cu-lossless / b-intra / no-splitrd-skip / rdpenalty=0 / psy-rd=1.25 / psy-rdoq=1.00 / no-rd-refine / no-lossless / cbqpoffs=0 / crqpoffs=0 / rc=crf / crf=18.0 / qcomp=0.60 / qpstep=4 / stats-write=0 / stats-read=0 / vbv-maxrate=160000 / vbv-bufsize=160000 / vbv-init=0.9 / min-vbv-fullness=50.0 / max-vbv-fullness=80.0 / crf-max=0.0 / crf-min=0.0 / ipratio=1.30 / pbratio=1.20 / aq-mode=1 / aq-strength=1.00 / no-cutree / zone-count=0 / no-strict-cbr / qg-size=8 / no-rc-grain / qpmax=69 / qpmin=0 / no-const-vbv / sar=0 / overscan=0 / videoformat=5 / range=0 / colorprim=9 / transfer=16 / colormatrix=9 / chromaloc=1 / chromaloc-top=2 / chromaloc-bottom=2 / display-window=0 / master-display=G(13250,34500)B(7500,3000)R(34000,16000)WP(15635,16450)L(40000000,50) / cll=3973,354 / min-luma=0 / max-luma=1023 / log2-max-poc-lsb=8 / vui-timing-info / vui-hrd-info / slices=1 / no-opt-qp-pps / no-opt-ref-list-length-pps / no-multi-pass-opt-rps / scenecut-bias=0.05 / hist-threshold=0.03 / no-opt-cu-delta-qp / no-aq-motion / hdr10 / hdr10-opt / no-dhdr10-opt / no-idr-recovery-sei / analysis-reuse-level=0 / analysis-save-reuse-level=0 / analysis-load-reuse-level=0 / scale-factor=0 / refine-intra=0 / refine-inter=0 / refine-mv=1 / refine-ctu-distortion=0 / no-limit-sao / ctu-info=0 / no-lowpass-dct / refine-analysis-type=0 / copy-pic=1 / max-ausize-factor=1.0 / no-dynamic-refine / no-single-sei / no-hevc-aq / no-svt / no-field / qp-adaptation-range=1.00 / scenecut-aware-qp=0conformance-window-offsets / right=0 / bottom=0 / NTMzNTQ= / decoder-max-rate=0 / no-vbv-live-multi-pass
  38. Default                                  : Yes
  39. Forced                                   : No
  40. Color range                              : Limited
  41. Color primaries                          : BT.2020
  42. Transfer characteristics                 : PQ
  43. Matrix coefficients                      : BT.2020 non-constant
  44. Mastering display color primaries        : Display P3
  45. Mastering display luminance              : min: 0.0050 cd/m2, max: 4000 cd/m2
  46. Maximum Content Light Level              : 3973 cd/m2
  47. Maximum Frame-Average Light Level        : 354 cd/m2
  48. Audio #1
  49. ID                                       : 2
  50. ID in the original source medium         : 4352 (0x1100)
  51. Format                                   : MLP FBA 16-ch
  52. Format/Info                              : Meridian Lossless Packing FBA with 16-channel presentation
  53. Commercial name                          : Dolby TrueHD with Dolby Atmos
  54. Codec ID                                 : A_TRUEHD
  55. Duration                                 : 1 h 49 min
  56. Bit rate mode                            : Variable
  57. Bit rate                                 : 2 714 kb/s
  58. Maximum bit rate                         : 4 188 kb/s
  59. Channel(s)                               : 8 channels
  60. Channel layout                           : L R C LFE Ls Rs Lb Rb
  61. Sampling rate                            : 48.0 kHz
  62. Frame rate                               : 1 200.000 FPS (40 SPF)
  63. Compression mode                         : Lossless
  64. Stream size                              : 2.08 GiB (10%)
  65. Language                                 : English
  66. Default                                  : Yes
  67. Forced                                   : No
  68. Original source medium                   : Blu-ray
  69. Number of dynamic objects                : 11
  70. Bed channel count                        : 1 channel
  71. Bed channel configuration                : LFE
  72. Audio #2
  73. ID                                       : 3
  74. ID in the original source medium         : 4352 (0x1100)
  75. Format                                   : AC-3
  76. Format/Info                              : Audio Coding 3
  77. Commercial name                          : Dolby Digital
  78. Codec ID                                 : A_AC3
  79. Duration                                 : 1 h 49 min
  80. Bit rate mode                            : Constant
  81. Bit rate                                 : 640 kb/s
  82. Channel(s)                               : 6 channels
  83. Channel layout                           : L R C LFE Ls Rs
  84. Sampling rate                            : 48.0 kHz
  85. Frame rate                               : 31.250 FPS (1536 SPF)
  86. Compression mode                         : Lossy
  87. Stream size                              : 502 MiB (2%)
  88. Language                                 : English
  89. Service kind                             : Complete Main
  90. Default                                  : No
  91. Forced                                   : No
  92. Original source medium                   : Blu-ray
  93. Audio #3
  94. ID                                       : 4
  95. Format                                   : Opus
  96. Codec ID                                 : A_OPUS
  97. Duration                                 : 1 h 49 min
  98. Bit rate                                 : 60.8 kb/s
  99. Channel(s)                               : 2 channels
  100. Channel layout                           : L R
  101. Sampling rate                            : 48.0 kHz
  102. Frame rate                               : 50.000 FPS (960 SPF)
  103. Compression mode                         : Lossy
  104. Stream size                              : 47.6 MiB (0%)
  105. Title                                    : Commentary by Directors Phil Lord & Christopher Miller and actors Jonah Hill and Channing Tatum
  106. Writing library                          : opusenc from opus-tools 0.2-3-gf5f571b
  107. Language                                 : English
  108. Default                                  : No
  109. Forced                                   : No
  110. ENCODER_OPTIONS                          : --bitrate 64
  111. Text #1
  112. ID                                       : 5
  113. ID in the original source medium         : 4772 (0x12A4)
  114. Format                                   : PGS
  115. Muxing mode                              : zlib
  116. Codec ID                                 : S_HDMV/PGS
  117. Codec ID/Info                            : Picture based subtitle format used on BDs/HD-DVDs
  118. Duration                                 : 1 h 45 min
  119. Bit rate                                 : 42.9 kb/s
  120. Count of elements                        : 4070
  121. Stream size                              : 32.5 MiB (0%)
  122. Title                                    : CHS
  123. Language                                 : Chinese
  124. Default                                  : No
  125. Forced                                   : No
  126. Original source medium                   : Blu-ray
  127. Text #2
  128. ID                                       : 6
  129. ID in the original source medium         : 4773 (0x12A5)
  130. Format                                   : PGS
  131. Muxing mode                              : zlib
  132. Codec ID                                 : S_HDMV/PGS
  133. Codec ID/Info                            : Picture based subtitle format used on BDs/HD-DVDs
  134. Duration                                 : 1 h 45 min
  135. Bit rate                                 : 40.7 kb/s
  136. Count of elements                        : 4070
  137. Stream size                              : 30.8 MiB (0%)
  138. Title                                    : CHT
  139. Language                                 : Chinese
  140. Default                                  : No
  141. Forced                                   : No
  142. Original source medium                   : Blu-ray
  143. Text #3
  144. ID                                       : 7
  145. ID in the original source medium         : 4775 (0x12A7)
  146. Format                                   : PGS
  147. Muxing mode                              : zlib
  148. Codec ID                                 : S_HDMV/PGS
  149. Codec ID/Info                            : Picture based subtitle format used on BDs/HD-DVDs
  150. Duration                                 : 1 h 47 min
  151. Bit rate                                 : 44.9 kb/s
  152. Count of elements                        : 4313
  153. Stream size                              : 34.5 MiB (0%)
  154. Title                                    : CHS
  155. Language                                 : Chinese
  156. Default                                  : No
  157. Forced                                   : No
  158. Original source medium                   : Blu-ray
  159. Text #4
  160. ID                                       : 8
  161. ID in the original source medium         : 4776 (0x12A8)
  162. Format                                   : PGS
  163. Muxing mode                              : zlib
  164. Codec ID                                 : S_HDMV/PGS
  165. Codec ID/Info                            : Picture based subtitle format used on BDs/HD-DVDs
  166. Duration                                 : 1 h 47 min
  167. Bit rate                                 : 45.9 kb/s
  168. Count of elements                        : 4313
  169. Stream size                              : 35.3 MiB (0%)
  170. Title                                    : CHT
  171. Language                                 : Chinese
  172. Default                                  : No
  173. Forced                                   : No
  174. Original source medium                   : Blu-ray
  175. Text #5
  176. ID                                       : 9
  177. ID in the original source medium         : 4777 (0x12A9)
  178. Format                                   : PGS
  179. Muxing mode                              : zlib
  180. Codec ID                                 : S_HDMV/PGS
  181. Codec ID/Info                            : Picture based subtitle format used on BDs/HD-DVDs
  182. Duration                                 : 1 h 47 min
  183. Bit rate                                 : 79.9 kb/s
  184. Count of elements                        : 4313
  185. Stream size                              : 61.5 MiB (0%)
  186. Title                                    : Chs&Eng
  187. Language                                 : Chinese
  188. Default                                  : Yes
  189. Forced                                   : No
  190. Original source medium                   : Blu-ray
  191. Text #6
  192. ID                                       : 10
  193. ID in the original source medium         : 4778 (0x12AA)
  194. Format                                   : PGS
  195. Muxing mode                              : zlib
  196. Codec ID                                 : S_HDMV/PGS
  197. Codec ID/Info                            : Picture based subtitle format used on BDs/HD-DVDs
  198. Duration                                 : 1 h 47 min
  199. Bit rate                                 : 80.9 kb/s
  200. Count of elements                        : 4313
  201. Stream size                              : 62.2 MiB (0%)
  202. Title                                    : Cht&Eng
  203. Language                                 : Chinese
  204. Default                                  : Yes
  205. Forced                                   : No
  206. Original source medium                   : Blu-ray
  207. Text #7
  208. ID                                       : 11
  209. ID in the original source medium         : 4768 (0x12A0)
  210. Format                                   : PGS
  211. Muxing mode                              : zlib
  212. Codec ID                                 : S_HDMV/PGS
  213. Codec ID/Info                            : Picture based subtitle format used on BDs/HD-DVDs
  214. Duration                                 : 1 h 49 min
  215. Bit rate                                 : 54.5 kb/s
  216. Count of elements                        : 4702
  217. Stream size                              : 42.7 MiB (0%)
  218. Language                                 : English
  219. Default                                  : No
  220. Forced                                   : No
  221. Original source medium                   : Blu-ray
  222. Text #8
  223. ID                                       : 12
  224. ID in the original source medium         : 4769 (0x12A1)
  225. Format                                   : PGS
  226. Muxing mode                              : zlib
  227. Codec ID                                 : S_HDMV/PGS
  228. Codec ID/Info                            : Picture based subtitle format used on BDs/HD-DVDs
  229. Duration                                 : 1 h 49 min
  230. Bit rate                                 : 54.5 kb/s
  231. Count of elements                        : 4702
  232. Stream size                              : 42.7 MiB (0%)
  233. Language                                 : English
  234. Default                                  : No
  235. Forced                                   : No
  236. Original source medium                   : Blu-ray
  237. Text #9
  238. ID                                       : 13
  239. ID in the original source medium         : 4770 (0x12A2)
  240. Format                                   : PGS
  241. Muxing mode                              : zlib
  242. Codec ID                                 : S_HDMV/PGS
  243. Codec ID/Info                            : Picture based subtitle format used on BDs/HD-DVDs
  244. Duration                                 : 1 h 45 min
  245. Bit rate                                 : 49.4 kb/s
  246. Count of elements                        : 3976
  247. Stream size                              : 37.1 MiB (0%)
  248. Language                                 : English
  249. Default                                  : No
  250. Forced                                   : No
  251. Original source medium                   : Blu-ray
  252. Text #10
  253. ID                                       : 14
  254. ID in the original source medium         : 4771 (0x12A3)
  255. Format                                   : PGS
  256. Muxing mode                              : zlib
  257. Codec ID                                 : S_HDMV/PGS
  258. Codec ID/Info                            : Picture based subtitle format used on BDs/HD-DVDs
  259. Duration                                 : 1 h 48 min
  260. Bit rate                                 : 20.8 kb/s
  261. Count of elements                        : 3536
  262. Stream size                              : 16.2 MiB (0%)
  263. Language                                 : Arabic
  264. Default                                  : No
  265. Forced                                   : No
  266. Original source medium                   : Blu-ray
  267. Text #11
  268. ID                                       : 15
  269. ID in the original source medium         : 4774 (0x12A6)
  270. Format                                   : PGS
  271. Muxing mode                              : zlib
  272. Codec ID                                 : S_HDMV/PGS
  273. Codec ID/Info                            : Picture based subtitle format used on BDs/HD-DVDs
  274. Duration                                 : 1 h 45 min
  275. Bit rate                                 : 38.9 kb/s
  276. Count of elements                        : 4064
  277. Stream size                              : 29.5 MiB (0%)
  278. Language                                 : Czech
  279. Default                                  : No
  280. Forced                                   : No
  281. Original source medium                   : Blu-ray
  282. Text #12
  283. ID                                       : 16
  284. ID in the original source medium         : 4779 (0x12AB)
  285. Format                                   : PGS
  286. Muxing mode                              : zlib
  287. Codec ID                                 : S_HDMV/PGS
  288. Codec ID/Info                            : Picture based subtitle format used on BDs/HD-DVDs
  289. Duration                                 : 1 h 48 min
  290. Bit rate                                 : 31.6 kb/s
  291. Count of elements                        : 3580
  292. Stream size                              : 24.6 MiB (0%)
  293. Language                                 : French
  294. Default                                  : No
  295. Forced                                   : No
  296. Original source medium                   : Blu-ray
  297. Text #13
  298. ID                                       : 17
  299. ID in the original source medium         : 4780 (0x12AC)
  300. Format                                   : PGS
  301. Muxing mode                              : zlib
  302. Codec ID                                 : S_HDMV/PGS
  303. Codec ID/Info                            : Picture based subtitle format used on BDs/HD-DVDs
  304. Duration                                 : 1 h 48 min
  305. Bit rate                                 : 39.9 kb/s
  306. Count of elements                        : 4170
  307. Stream size                              : 31.0 MiB (0%)
  308. Language                                 : German
  309. Default                                  : No
  310. Forced                                   : No
  311. Original source medium                   : Blu-ray
  312. Text #14
  313. ID                                       : 18
  314. ID in the original source medium         : 4781 (0x12AD)
  315. Format                                   : PGS
  316. Muxing mode                              : zlib
  317. Codec ID                                 : S_HDMV/PGS
  318. Codec ID/Info                            : Picture based subtitle format used on BDs/HD-DVDs
  319. Duration                                 : 1 h 45 min
  320. Bit rate                                 : 41.0 kb/s
  321. Count of elements                        : 3748
  322. Stream size                              : 31.0 MiB (0%)
  323. Language                                 : Greek
  324. Default                                  : No
  325. Forced                                   : No
  326. Original source medium                   : Blu-ray
  327. Text #15
  328. ID                                       : 19
  329. ID in the original source medium         : 4782 (0x12AE)
  330. Format                                   : PGS
  331. Muxing mode                              : zlib
  332. Codec ID                                 : S_HDMV/PGS
  333. Codec ID/Info                            : Picture based subtitle format used on BDs/HD-DVDs
  334. Duration                                 : 1 h 48 min
  335. Bit rate                                 : 30.7 kb/s
  336. Count of elements                        : 3420
  337. Stream size                              : 23.9 MiB (0%)
  338. Language                                 : Hebrew
  339. Default                                  : No
  340. Forced                                   : No
  341. Original source medium                   : Blu-ray
  342. Text #16
  343. ID                                       : 20
  344. ID in the original source medium         : 4783 (0x12AF)
  345. Format                                   : PGS
  346. Muxing mode                              : zlib
  347. Codec ID                                 : S_HDMV/PGS
  348. Codec ID/Info                            : Picture based subtitle format used on BDs/HD-DVDs
  349. Duration                                 : 1 h 45 min
  350. Bit rate                                 : 38.1 kb/s
  351. Count of elements                        : 4090
  352. Stream size                              : 28.8 MiB (0%)
  353. Language                                 : Hindi
  354. Default                                  : No
  355. Forced                                   : No
  356. Original source medium                   : Blu-ray
  357. Text #17
  358. ID                                       : 21
  359. ID in the original source medium         : 4784 (0x12B0)
  360. Format                                   : PGS
  361. Muxing mode                              : zlib
  362. Codec ID                                 : S_HDMV/PGS
  363. Codec ID/Info                            : Picture based subtitle format used on BDs/HD-DVDs
  364. Duration                                 : 1 h 45 min
  365. Bit rate                                 : 45.7 kb/s
  366. Count of elements                        : 4026
  367. Stream size                              : 34.6 MiB (0%)
  368. Language                                 : Hungarian
  369. Default                                  : No
  370. Forced                                   : No
  371. Original source medium                   : Blu-ray
  372. Text #18
  373. ID                                       : 22
  374. ID in the original source medium         : 4785 (0x12B1)
  375. Format                                   : PGS
  376. Muxing mode                              : zlib
  377. Codec ID                                 : S_HDMV/PGS
  378. Codec ID/Info                            : Picture based subtitle format used on BDs/HD-DVDs
  379. Duration                                 : 1 h 48 min
  380. Bit rate                                 : 45.0 kb/s
  381. Count of elements                        : 3422
  382. Stream size                              : 35.0 MiB (0%)
  383. Language                                 : Indonesian
  384. Default                                  : No
  385. Forced                                   : No
  386. Original source medium                   : Blu-ray
  387. Text #19
  388. ID                                       : 23
  389. ID in the original source medium         : 4786 (0x12B2)
  390. Format                                   : PGS
  391. Muxing mode                              : zlib
  392. Codec ID                                 : S_HDMV/PGS
  393. Codec ID/Info                            : Picture based subtitle format used on BDs/HD-DVDs
  394. Duration                                 : 1 h 45 min
  395. Bit rate                                 : 43.0 kb/s
  396. Count of elements                        : 4062
  397. Stream size                              : 32.5 MiB (0%)
  398. Language                                 : Italian
  399. Default                                  : No
  400. Forced                                   : No
  401. Original source medium                   : Blu-ray
  402. Text #20
  403. ID                                       : 24
  404. ID in the original source medium         : 4787 (0x12B3)
  405. Format                                   : PGS
  406. Muxing mode                              : zlib
  407. Codec ID                                 : S_HDMV/PGS
  408. Codec ID/Info                            : Picture based subtitle format used on BDs/HD-DVDs
  409. Duration                                 : 1 h 45 min
  410. Bit rate                                 : 33.2 kb/s
  411. Count of elements                        : 4078
  412. Stream size                              : 25.1 MiB (0%)
  413. Language                                 : Korean
  414. Default                                  : No
  415. Forced                                   : No
  416. Original source medium                   : Blu-ray
  417. Text #21
  418. ID                                       : 25
  419. ID in the original source medium         : 4788 (0x12B4)
  420. Format                                   : PGS
  421. Muxing mode                              : zlib
  422. Codec ID                                 : S_HDMV/PGS
  423. Codec ID/Info                            : Picture based subtitle format used on BDs/HD-DVDs
  424. Duration                                 : 1 h 48 min
  425. Bit rate                                 : 30.2 kb/s
  426. Count of elements                        : 3658
  427. Stream size                              : 23.5 MiB (0%)
  428. Language                                 : Polish
  429. Default                                  : No
  430. Forced                                   : No
  431. Original source medium                   : Blu-ray
  432. Text #22
  433. ID                                       : 26
  434. ID in the original source medium         : 4789 (0x12B5)
  435. Format                                   : PGS
  436. Muxing mode                              : zlib
  437. Codec ID                                 : S_HDMV/PGS
  438. Codec ID/Info                            : Picture based subtitle format used on BDs/HD-DVDs
  439. Duration                                 : 1 h 48 min
  440. Bit rate                                 : 40.3 kb/s
  441. Count of elements                        : 3382
  442. Stream size                              : 31.4 MiB (0%)
  443. Language                                 : Portuguese
  444. Default                                  : No
  445. Forced                                   : No
  446. Original source medium                   : Blu-ray
  447. Text #23
  448. ID                                       : 27
  449. ID in the original source medium         : 4790 (0x12B6)
  450. Format                                   : PGS
  451. Muxing mode                              : zlib
  452. Codec ID                                 : S_HDMV/PGS
  453. Codec ID/Info                            : Picture based subtitle format used on BDs/HD-DVDs
  454. Duration                                 : 1 h 48 min
  455. Bit rate                                 : 36.8 kb/s
  456. Count of elements                        : 2900
  457. Stream size                              : 28.6 MiB (0%)
  458. Language                                 : Romanian
  459. Default                                  : No
  460. Forced                                   : No
  461. Original source medium                   : Blu-ray
  462. Text #24
  463. ID                                       : 28
  464. ID in the original source medium         : 4791 (0x12B7)
  465. Format                                   : PGS
  466. Muxing mode                              : zlib
  467. Codec ID                                 : S_HDMV/PGS
  468. Codec ID/Info                            : Picture based subtitle format used on BDs/HD-DVDs
  469. Duration                                 : 1 h 45 min
  470. Bit rate                                 : 44.5 kb/s
  471. Count of elements                        : 3722
  472. Stream size                              : 33.7 MiB (0%)
  473. Language                                 : Russian
  474. Default                                  : No
  475. Forced                                   : No
  476. Original source medium                   : Blu-ray
  477. Text #25
  478. ID                                       : 29
  479. ID in the original source medium         : 4792 (0x12B8)
  480. Format                                   : PGS
  481. Muxing mode                              : zlib
  482. Codec ID                                 : S_HDMV/PGS
  483. Codec ID/Info                            : Picture based subtitle format used on BDs/HD-DVDs
  484. Duration                                 : 1 h 45 min
  485. Bit rate                                 : 37.4 kb/s
  486. Count of elements                        : 3346
  487. Stream size                              : 28.3 MiB (0%)
  488. Language                                 : Serbian
  489. Default                                  : No
  490. Forced                                   : No
  491. Original source medium                   : Blu-ray
  492. Text #26
  493. ID                                       : 30
  494. ID in the original source medium         : 4793 (0x12B9)
  495. Format                                   : PGS
  496. Muxing mode                              : zlib
  497. Codec ID                                 : S_HDMV/PGS
  498. Codec ID/Info                            : Picture based subtitle format used on BDs/HD-DVDs
  499. Duration                                 : 1 h 48 min
  500. Bit rate                                 : 44.7 kb/s
  501. Count of elements                        : 4074
  502. Stream size                              : 34.8 MiB (0%)
  503. Language                                 : Spanish
  504. Default                                  : No
  505. Forced                                   : No
  506. Original source medium                   : Blu-ray
  507. Text #27
  508. ID                                       : 31
  509. ID in the original source medium         : 4794 (0x12BA)
  510. Format                                   : PGS
  511. Muxing mode                              : zlib
  512. Codec ID                                 : S_HDMV/PGS
  513. Codec ID/Info                            : Picture based subtitle format used on BDs/HD-DVDs
  514. Duration                                 : 1 h 48 min
  515. Bit rate                                 : 37.5 kb/s
  516. Count of elements                        : 3774
  517. Stream size                              : 29.2 MiB (0%)
  518. Language                                 : Spanish
  519. Default                                  : No
  520. Forced                                   : No
  521. Original source medium                   : Blu-ray
  522. Text #28
  523. ID                                       : 32
  524. ID in the original source medium         : 4795 (0x12BB)
  525. Format                                   : PGS
  526. Muxing mode                              : zlib
  527. Codec ID                                 : S_HDMV/PGS
  528. Codec ID/Info                            : Picture based subtitle format used on BDs/HD-DVDs
  529. Duration                                 : 1 h 48 min
  530. Bit rate                                 : 29.3 kb/s
  531. Count of elements                        : 2072
  532. Stream size                              : 22.8 MiB (0%)
  533. Language                                 : Swedish
  534. Default                                  : No
  535. Forced                                   : No
  536. Original source medium                   : Blu-ray
  537. Text #29
  538. ID                                       : 33
  539. ID in the original source medium         : 4796 (0x12BC)
  540. Format                                   : PGS
  541. Muxing mode                              : zlib
  542. Codec ID                                 : S_HDMV/PGS
  543. Codec ID/Info                            : Picture based subtitle format used on BDs/HD-DVDs
  544. Duration                                 : 1 h 45 min
  545. Bit rate                                 : 47.0 kb/s
  546. Count of elements                        : 4062
  547. Stream size                              : 35.6 MiB (0%)
  548. Language                                 : Thai
  549. Default                                  : No
  550. Forced                                   : No
  551. Original source medium                   : Blu-ray
  552. Text #30
  553. ID                                       : 34
  554. ID in the original source medium         : 4797 (0x12BD)
  555. Format                                   : PGS
  556. Muxing mode                              : zlib
  557. Codec ID                                 : S_HDMV/PGS
  558. Codec ID/Info                            : Picture based subtitle format used on BDs/HD-DVDs
  559. Duration                                 : 1 h 45 min
  560. Bit rate                                 : 39.0 kb/s
  561. Count of elements                        : 3332
  562. Stream size                              : 29.5 MiB (0%)
  563. Language                                 : Turkish
  564. Default                                  : No
  565. Forced                                   : No
  566. Original source medium                   : Blu-ray
  567. Text #31
  568. ID                                       : 35
  569. ID in the original source medium         : 4798 (0x12BE)
  570. Format                                   : PGS
  571. Muxing mode                              : zlib
  572. Codec ID                                 : S_HDMV/PGS
  573. Codec ID/Info                            : Picture based subtitle format used on BDs/HD-DVDs
  574. Duration                                 : 1 h 48 min
  575. Bit rate                                 : 582 b/s
  576. Count of elements                        : 64
  577. Stream size                              : 464 KiB (0%)
  578. Language                                 : French
  579. Default                                  : No
  580. Forced                                   : No
  581. Original source medium                   : Blu-ray
  582. Text #32
  583. ID                                       : 36
  584. ID in the original source medium         : 4799 (0x12BF)
  585. Format                                   : PGS
  586. Muxing mode                              : zlib
  587. Codec ID                                 : S_HDMV/PGS
  588. Codec ID/Info                            : Picture based subtitle format used on BDs/HD-DVDs
  589. Duration                                 : 1 h 42 min
  590. Bit rate                                 : 1 012 b/s
  591. Count of elements                        : 104
  592. Stream size                              : 759 KiB (0%)
  593. Language                                 : Ukrainian
  594. Default                                  : No
  595. Forced                                   : No
  596. Original source medium                   : Blu-ray
  597. Text #33
  598. ID                                       : 37
  599. Format                                   : PGS
  600. Muxing mode                              : zlib
  601. Codec ID                                 : S_HDMV/PGS
  602. Codec ID/Info                            : Picture based subtitle format used on BDs/HD-DVDs
  603. Duration                                 : 1 h 47 min
  604. Bit rate                                 : 81.3 kb/s
  605. Count of elements                        : 4702
  606. Stream size                              : 62.4 MiB (0%)
  607. Title                                    : Commentary by Directors Phil Lord & Christopher Miller and actors Jonah Hill and Channing Tatum
  608. Language                                 : English
  609. Default                                  : No
  610. Forced                                   : No
  611. Text #34
  612. ID                                       : 38
  613. Format                                   : PGS
  614. Muxing mode                              : zlib
  615. Codec ID                                 : S_HDMV/PGS
  616. Codec ID/Info                            : Picture based subtitle format used on BDs/HD-DVDs
  617. Duration                                 : 1 h 47 min
  618. Bit rate                                 : 60.7 kb/s
  619. Count of elements                        : 4712
  620. Stream size                              : 46.7 MiB (0%)
  621. Title                                    : Commentary by Directors Phil Lord & Christopher Miller and actors Jonah Hill and Channing Tatum (Traditional Mandarin)
  622. Language                                 : Chinese
  623. Default                                  : No
  624. Forced                                   : No
  625. Text #35
  626. ID                                       : 39
  627. Format                                   : PGS
  628. Muxing mode                              : zlib
  629. Codec ID                                 : S_HDMV/PGS
  630. Codec ID/Info                            : Picture based subtitle format used on BDs/HD-DVDs
  631. Duration                                 : 1 h 47 min
  632. Bit rate                                 : 68.4 kb/s
  633. Count of elements                        : 4712
  634. Stream size                              : 52.5 MiB (0%)
  635. Title                                    : Commentary by Directors Phil Lord & Christopher Miller and actors Jonah Hill and Channing Tatum
  636. Language                                 : Dutch
  637. Default                                  : No
  638. Forced                                   : No
  639. Text #36
  640. ID                                       : 40
  641. Format                                   : PGS
  642. Muxing mode                              : zlib
  643. Codec ID                                 : S_HDMV/PGS
  644. Codec ID/Info                            : Picture based subtitle format used on BDs/HD-DVDs
  645. Duration                                 : 1 h 47 min
  646. Bit rate                                 : 66.6 kb/s
  647. Count of elements                        : 4710
  648. Stream size                              : 51.2 MiB (0%)
  649. Title                                    : Commentary by Directors Phil Lord & Christopher Miller and actors Jonah Hill and Channing Tatum
  650. Language                                 : French
  651. Default                                  : No
  652. Forced                                   : No
  653. Text #37
  654. ID                                       : 41
  655. Format                                   : PGS
  656. Muxing mode                              : zlib
  657. Codec ID                                 : S_HDMV/PGS
  658. Codec ID/Info                            : Picture based subtitle format used on BDs/HD-DVDs
  659. Duration                                 : 1 h 47 min
  660. Bit rate                                 : 78.9 kb/s
  661. Count of elements                        : 4718
  662. Stream size                              : 60.6 MiB (0%)
  663. Title                                    : Commentary by Directors Phil Lord & Christopher Miller and actors Jonah Hill and Channing Tatum
  664. Language                                 : German
  665. Default                                  : No
  666. Forced                                   : No
  667. Text #38
  668. ID                                       : 42
  669. Format                                   : PGS
  670. Muxing mode                              : zlib
  671. Codec ID                                 : S_HDMV/PGS
  672. Codec ID/Info                            : Picture based subtitle format used on BDs/HD-DVDs
  673. Duration                                 : 1 h 47 min
  674. Bit rate                                 : 66.8 kb/s
  675. Count of elements                        : 4712
  676. Stream size                              : 51.3 MiB (0%)
  677. Title                                    : Commentary by Directors Phil Lord & Christopher Miller and actors Jonah Hill and Channing Tatum
  678. Language                                 : Italian
  679. Default                                  : No
  680. Forced                                   : No
  681. Text #39
  682. ID                                       : 43
  683. Format                                   : PGS
  684. Muxing mode                              : zlib
  685. Codec ID                                 : S_HDMV/PGS
  686. Codec ID/Info                            : Picture based subtitle format used on BDs/HD-DVDs
  687. Duration                                 : 1 h 47 min
  688. Bit rate                                 : 47.4 kb/s
  689. Count of elements                        : 4712
  690. Stream size                              : 36.4 MiB (0%)
  691. Title                                    : Commentary by Directors Phil Lord & Christopher Miller and actors Jonah Hill and Channing Tatum
  692. Language                                 : Korean
  693. Default                                  : No
  694. Forced                                   : No
  695. Text #40
  696. ID                                       : 44
  697. Format                                   : PGS
  698. Muxing mode                              : zlib
  699. Codec ID                                 : S_HDMV/PGS
  700. Codec ID/Info                            : Picture based subtitle format used on BDs/HD-DVDs
  701. Duration                                 : 1 h 47 min
  702. Bit rate                                 : 73.5 kb/s
  703. Count of elements                        : 4712
  704. Stream size                              : 56.5 MiB (0%)
  705. Title                                    : Commentary by Directors Phil Lord & Christopher Miller and actors Jonah Hill and Channing Tatum (Brazilian)
  706. Language                                 : Portuguese
  707. Default                                  : No
  708. Forced                                   : No
  709. Text #41
  710. ID                                       : 45
  711. Format                                   : PGS
  712. Muxing mode                              : zlib
  713. Codec ID                                 : S_HDMV/PGS
  714. Codec ID/Info                            : Picture based subtitle format used on BDs/HD-DVDs
  715. Duration                                 : 1 h 47 min
  716. Bit rate                                 : 69.1 kb/s
  717. Count of elements                        : 4712
  718. Stream size                              : 53.1 MiB (0%)
  719. Title                                    : Commentary by Directors Phil Lord & Christopher Miller and actors Jonah Hill and Channing Tatum
  720. Language                                 : Russian
  721. Default                                  : No
  722. Forced                                   : No
  723. Text #42
  724. ID                                       : 46
  725. Format                                   : PGS
  726. Muxing mode                              : zlib
  727. Codec ID                                 : S_HDMV/PGS
  728. Codec ID/Info                            : Picture based subtitle format used on BDs/HD-DVDs
  729. Duration                                 : 1 h 47 min
  730. Bit rate                                 : 72.9 kb/s
  731. Count of elements                        : 4712
  732. Stream size                              : 56.0 MiB (0%)
  733. Title                                    : Commentary by Directors Phil Lord & Christopher Miller and actors Jonah Hill and Channing Tatum (Latin American)
  734. Language                                 : Spanish
  735. Default                                  : No
  736. Forced                                   : No
  737. Text #43
  738. ID                                       : 47
  739. Format                                   : PGS
  740. Muxing mode                              : zlib
  741. Codec ID                                 : S_HDMV/PGS
  742. Codec ID/Info                            : Picture based subtitle format used on BDs/HD-DVDs
  743. Duration                                 : 1 h 47 min
  744. Bit rate                                 : 64.0 kb/s
  745. Count of elements                        : 4712
  746. Stream size                              : 49.2 MiB (0%)
  747. Title                                    : Commentary by Directors Phil Lord & Christopher Miller and actors Jonah Hill and Channing Tatum
  748. Language                                 : Thai
  749. Default                                  : No
  750. Forced                                   : No
  751. Menu
  752. 00:00:00.000                             : en:Chapter 01
  753. 00:08:57.328                             : en:Chapter 02
  754. 00:18:21.683                             : en:Chapter 03
  755. 00:26:14.531                             : en:Chapter 04
  756. 00:33:15.827                             : en:Chapter 05
  757. 00:39:38.626                             : en:Chapter 06
  758. 00:45:53.292                             : en:Chapter 07
  759. 00:50:05.335                             : en:Chapter 08
  760. 00:56:19.542                             : en:Chapter 09
  761. 01:04:42.837                             : en:Chapter 10
  762. 01:09:49.185                             : en:Chapter 11
  763. 01:15:22.684                             : en:Chapter 12
  764. 01:19:53.789                             : en:Chapter 13
  765. 01:25:25.620                             : en:Chapter 14
  766. 01:34:44.679                             : en:Chapter 15
  767. 01:40:50.711                             : en:Chapter 16
  768. 01:44:50.284                             : en:Chapter 17



此处一般会放置磁力链或种子下载链接,不过此链接需要注册会员才能看到,点击“立即注册”
磁力链下载【下载链接仅对注册会员开放,登陆后可见】
BT9527电影天堂 1、BT9527电影天堂提供的BT文件均来源于互联网抓取,只供网友学习交流、技术提升使用。
2、我们遵守BitTorrent点对点协议原则,任何版权问题请联系原资源发布商,我们不处理任何版权纠纷,谢谢!如有争议请联系邮箱:BT9527#hotmail.com(#换成@)
3、如果您发现某页面或地址有错误,请联系站长邮箱BT9527#hotmail.com(#换成@),我们会尽快处理。您的热心是对BT9527电影天堂最大的支持。
4、本站建议去正规影院观看电影以支持电影行业发展。
最新回复 (0)

你可以在 登录 or 注册 后,对此帖发表评论!

返回
发新帖