龙虎少年队2[简繁英字幕].22.Jump.Street.2014.UHD.BluRay.2160p.x265.HDR.TrueHD7.1-MiniHD 22.07GB

版主小s 5月前 229

✔资源类型:BD-4K   ✔电影年份:2014   ✔电影地区:欧美   ✔电影分类:喜剧

◎译  名 龙虎少年队2 / 龙虎少年队:童颜巨捕(台) / 囧探出更(港) / 21 Jump Street 2
◎片  名 22 Jump Street
◎年  代 2014
◎产  地 美国
◎类  别 喜剧 / 动作 / 犯罪
◎语  言 英语
◎上映日期 2014-06-13(美国)
◎IMDb链接 https://www.imdb.com/title/tt2294449/
◎豆瓣评分 6.9/10 (24515人评价)
◎豆瓣链接 https://movie.douban.com/subject/10546666/
◎片  长 112分钟
◎导  演 菲尔·罗德 Phil Lord (id:1290316)
       克里斯托弗·米勒 Christopher Miller (id:1119399)
◎编  剧 迈克尔·巴考尔 Michael Bacall (id:1275107)
       奥伦·尤济尔 Oren Uziel (id:1341155)
       罗德尼·罗斯曼 Rodney Rothman (id:1296189)
       乔纳·希尔 Jonah Hill (id:1036302)
◎演  员 乔纳·希尔 Jonah Hill (id:1036302)
       查宁·塔图姆 Channing Tatum (id:1031224)
       彼得·斯特曼 Peter Stormare (id:1049549)
       怀亚特·拉塞尔 Wyatt Russell (id:1140515)
       艾波·斯蒂文斯 Amber Stevens (id:1027303)
       吉莉恩·贝尔 Jillian Bell (id:1335295)
       艾斯·库珀 Ice Cube (id:1017946)
       尼克·奥弗曼 Nick Offerman (id:1009365)
       吉米·塔特罗 Jimmy Tatro (id:1343651)
       卡罗琳·阿隆 Caroline Aaron (id:1025327)
       克雷格·罗伯兹 Craig Roberts (id:1214964)
       马克·埃文·杰克逊 Marc Evan Jackson (id:1207621)
       乔·克里斯特 Joe Chrest (id:1338883)
       埃迪·J.费尔南德斯 Eddie J. Fernandez (id:1283618)
       泰勒·福雷斯特 Tyler Forrest (id:1355050)
       罗伯·里格尔 Rob Riggle (id:1044950)
       徐海为 Haiwei Xu (id:1351511)
       戴夫·弗兰科 Dave Franco (id:1017991)
       德克斯·弗拉姆 Dax Flame (id:1320119)
       理查德·格里克 Richard Grieco (id:1000233)
       奎恩·拉提法 Queen Latifah (id:1031870)
       库尔特·克劳斯 Kurt Krause (id:1386112)
       托比·尼克尔斯 Toby Nichols (id:1350604)
       阮春智 Dustin Nguyen (id:1049832)
       塞斯·罗根 Seth Rogen (id:1002668)
       安娜·法瑞丝 Anna Faris (id:1041008)
       查宁·塔图姆 Channing Tatum (id:1031224)
       乔纳·希尔 Jonah Hill (id:1036302)
       马克·马瑟斯鲍夫 Mark Mothersbaugh (id:1048237)
       艾伦 A. 安彭 Allan A. Apone (id:1277325)

◎简  介
  故事紧接着上一部继续发展。延科(查宁·塔图姆 Channing Tatum 饰)和施密特(乔纳·希尔 Jonah Hill 饰)好不容易从高中“顺利毕业”,等待着他们的,却是又一轮卧底行动,这一次,他们要挑战的对象是“大学”。和高中相比,大学里人际关系的复杂程度和课业难度都要更上一层楼,这一次,兄弟两人能够顺利完成任务吗?                                    
                                在学园中,延科加入了校足球队,结识了一帮志同道合的好友,与此同时,施密特选择就读艺术系,与古灵精怪的玛雅(安珀·史蒂芬斯 Amber Stevens 饰)发生了一段浪漫轶事。然而,丰富精彩的大学生活令密不可分的延科和施密特之间产生了裂痕,这裂痕之巨大很可能导致患难与共的两人最终分道扬镳。

◎获奖情况 (共7项)
  第16届美国青少年选择奖 (2014)
  最佳突破表演电影新星(提名)
   └──怀亚特·拉塞尔 (id:1140515)
  最佳银幕拍档(提名)
  Choice Movie: Hissy Fit
   └──乔纳·希尔 (id:1036302)
  Choice Movie: Hissy Fit(提名)
   └──艾斯·库珀 (id:1017946)
  最佳暑期电影
  最佳暑期电影明星
   └──查宁·塔图姆 (id:1031224)
  最佳暑期电影明星(提名)
   └──乔纳·希尔 (id:1036302)

  1. ##### MediaInfo ######
  2. General
  3. Unique ID                                : 244299101588622054330173754423964942632 (0xB7CA4BA6C836BA2DDC06BAA8693D4128)
  4. Complete name                            : 22.Jump.Street.2014.UHD.BluRay.2160p.x265.HDR.TrueHD7.1-MiniHD.mkv
  5. Format                                   : Matroska
  6. Format version                           : Version 4
  7. File size                                : 22.1 GiB
  8. Duration                                 : 1 h 51 min
  9. Overall bit rate mode                    : Variable
  10. Overall bit rate                         : 28.2 Mb/s
  11. Movie name                               : 22 Jump Street 2014 UHD BluRay 2160p - FRDS
  12. Encoded date                             : UTC 2022-02-04 15:13:29
  13. Writing application                      : mkvmerge v64.0.0 ('Willows') 64-bit
  14. Writing library                          : libebml v1.4.2 + libmatroska v1.6.4
  15. Cover                                    : Yes
  16. Attachments                              : cover.jpg
  17. IMDB                                     : tt2294449
  18. TMDB                                     : movie/187017
  19. Video
  20. ID                                       : 1
  21. Format                                   : HEVC
  22. Format/Info                              : High Efficiency Video Coding
  23. Format profile                           : Main 10@L5.1@High
  24. HDR format                               : SMPTE ST 2086, HDR10 compatible
  25. Codec ID                                 : V_MPEGH/ISO/HEVC
  26. Duration                                 : 1 h 51 min
  27. Bit rate                                 : 23.8 Mb/s
  28. Width                                    : 3 840 pixels
  29. Height                                   : 1 604 pixels
  30. Display aspect ratio                     : 2.40:1
  31. Frame rate mode                          : Constant
  32. Frame rate                               : 23.976 (24000/1001/53354) FPS
  33. Color space                              : YUV
  34. Chroma subsampling                       : 4:2:0 (Type 2)
  35. Bit depth                                : 10 bits
  36. Bits/(Pixel*Frame)                       : 0.161
  37. Stream size                              : 18.6 GiB (84%)
  38. Writing library                          : x265 3.5+20-17839cc0d:[Windows][MSVC 1930][64 bit] 10bit
  39. Encoding settings                        : cpuid=533541111039 / frame-threads=5 / numa-pools=20,20 / wpp / pmode / no-pme / no-psnr / no-ssim / log-level=2 / input-csp=1 / input-res=3840x1604 / interlace=0 / total-frames=161040 / level-idc=51 / high-tier=1 / uhd-bd=0 / ref=6 / no-allow-non-conformance / repeat-headers / annexb / aud / no-eob / no-eos / hrd / info / hash=0 / no-temporal-layers / no-open-gop / min-keyint=1 / keyint=250 / gop-lookahead=0 / bframes=8 / b-adapt=2 / b-pyramid / bframe-bias=0 / rc-lookahead=100 / lookahead-slices=0 / NTMzNTQ=uuDQuD2mJt9fsCf / scenecut=40 / no-hist-scenecut / radl=0 / no-splice / no-intra-refresh / ctu=64 / min-cu-size=8 / no-rect / no-amp / max-tu-size=32 / tu-inter-depth=4 / tu-intra-depth=4 / limit-tu=0 / rdoq-level=2 / dynamic-rd=0.00 / no-ssim-rd / signhide / no-tskip / nr-intra=0 / nr-inter=0 / no-constrained-intra / no-strong-intra-smoothing / max-merge=5 / limit-refs=0 / no-limit-modes / me=3 / subme=7 / merange=57 / temporal-mvp / no-frame-dup / no-hme / weightp / weightb / no-analyze-src-pics / deblock=-3:-3 / no-sao / no-sao-non-deblock / rd=4 / selective-sao=0 / no-early-skip / no-rskip / no-fast-intra / no-tskip-fast / no-cu-lossless / b-intra / no-splitrd-skip / rdpenalty=0 / psy-rd=1.25 / psy-rdoq=1.00 / no-rd-refine / no-lossless / cbqpoffs=0 / crqpoffs=0 / rc=crf / crf=19.0 / qcomp=0.60 / qpstep=4 / stats-write=0 / stats-read=0 / vbv-maxrate=160000 / vbv-bufsize=160000 / vbv-init=0.9 / min-vbv-fullness=50.0 / max-vbv-fullness=80.0 / crf-max=0.0 / crf-min=0.0 / ipratio=1.30 / pbratio=1.20 / aq-mode=1 / aq-strength=1.00 / no-cutree / zone-count=0 / no-strict-cbr / qg-size=8 / no-rc-grain / qpmax=69 / qpmin=0 / no-const-vbv / sar=0 / overscan=0 / videoformat=5 / range=0 / colorprim=9 / transfer=16 / colormatrix=9 / chromaloc=1 / chromaloc-top=2 / chromaloc-bottom=2 / display-window=0 / master-display=G(13250,34500)B(7500,3000)R(34000,16000)WP(15635,16450)L(40000000,50) / cll=3629,527 / min-luma=0 / max-luma=1023 / log2-max-poc-lsb=8 / vui-timing-info / vui-hrd-info / slices=1 / no-opt-qp-pps / no-opt-ref-list-length-pps / no-multi-pass-opt-rps / scenecut-bias=0.05 / hist-threshold=0.03 / no-opt-cu-delta-qp / no-aq-motion / hdr10 / hdr10-opt / no-dhdr10-opt / no-idr-recovery-sei / analysis-reuse-level=0 / analysis-save-reuse-level=0 / analysis-load-reuse-level=0 / scale-factor=0 / refine-intra=0 / refine-inter=0 / refine-mv=1 / refine-ctu-distortion=0 / no-limit-sao / ctu-info=0 / no-lowpass-dct / refine-analysis-type=0 / copy-pic=1 / max-ausize-factor=1.0 / no-dynamic-refine / no-single-sei / no-hevc-aq / no-svt / no-field / qp-adaptation-range=1.00 / scenecut-aware-qp=0conformance-window-offsets / right=0 / bottom=0 / NTMzNTQ= / decoder-max-rate=0 / no-vbv-live-multi-pass
  40. Default                                  : Yes
  41. Forced                                   : No
  42. Color range                              : Limited
  43. Color primaries                          : BT.2020
  44. Transfer characteristics                 : PQ
  45. Matrix coefficients                      : BT.2020 non-constant
  46. Mastering display color primaries        : Display P3
  47. Mastering display luminance              : min: 0.0050 cd/m2, max: 4000 cd/m2
  48. Maximum Content Light Level              : 3629 cd/m2
  49. Maximum Frame-Average Light Level        : 527 cd/m2
  50. Audio #1
  51. ID                                       : 2
  52. Format                                   : MLP FBA 16-ch
  53. Format/Info                              : Meridian Lossless Packing FBA with 16-channel presentation
  54. Commercial name                          : Dolby TrueHD with Dolby Atmos
  55. Codec ID                                 : A_TRUEHD
  56. Duration                                 : 1 h 51 min
  57. Bit rate mode                            : Variable
  58. Bit rate                                 : 2 725 kb/s
  59. Maximum bit rate                         : 3 879 kb/s
  60. Channel(s)                               : 8 channels
  61. Channel layout                           : L R C LFE Ls Rs Lb Rb
  62. Sampling rate                            : 48.0 kHz
  63. Frame rate                               : 1 200.000 FPS (40 SPF)
  64. Compression mode                         : Lossless
  65. Stream size                              : 2.13 GiB (10%)
  66. Language                                 : English
  67. Default                                  : Yes
  68. Forced                                   : No
  69. Number of dynamic objects                : 11
  70. Bed channel count                        : 1 channel
  71. Bed channel configuration                : LFE
  72. Audio #2
  73. ID                                       : 3
  74. Format                                   : AC-3
  75. Format/Info                              : Audio Coding 3
  76. Commercial name                          : Dolby Digital
  77. Codec ID                                 : A_AC3
  78. Duration                                 : 1 h 51 min
  79. Bit rate mode                            : Constant
  80. Bit rate                                 : 640 kb/s
  81. Channel(s)                               : 6 channels
  82. Channel layout                           : L R C LFE Ls Rs
  83. Sampling rate                            : 48.0 kHz
  84. Frame rate                               : 31.250 FPS (1536 SPF)
  85. Compression mode                         : Lossy
  86. Stream size                              : 512 MiB (2%)
  87. Language                                 : English
  88. Service kind                             : Complete Main
  89. Default                                  : No
  90. Forced                                   : No
  91. Audio #3
  92. ID                                       : 4
  93. Format                                   : Opus
  94. Codec ID                                 : A_OPUS
  95. Duration                                 : 1 h 51 min
  96. Bit rate                                 : 60.2 kb/s
  97. Channel(s)                               : 2 channels
  98. Channel layout                           : L R
  99. Sampling rate                            : 48.0 kHz
  100. Frame rate                               : 50.000 FPS (960 SPF)
  101. Compression mode                         : Lossy
  102. Stream size                              : 48.2 MiB (0%)
  103. Title                                    : Commentary by actor Channing Tatum, directors Christopher Miller and Phil Lord and actor/writer Jonah
  104. Language                                 : English
  105. Default                                  : No
  106. Forced                                   : No
  107. Text #1
  108. ID                                       : 5
  109. Format                                   : PGS
  110. Muxing mode                              : zlib
  111. Codec ID                                 : S_HDMV/PGS
  112. Codec ID/Info                            : Picture based subtitle format used on BDs/HD-DVDs
  113. Duration                                 : 1 h 51 min
  114. Bit rate                                 : 82.7 kb/s
  115. Count of elements                        : 3149
  116. Stream size                              : 66.1 MiB (0%)
  117. Title                                    : Chs&Eng
  118. Language                                 : Chinese
  119. Default                                  : Yes
  120. Forced                                   : No
  121. Text #2
  122. ID                                       : 6
  123. Format                                   : PGS
  124. Muxing mode                              : zlib
  125. Codec ID                                 : S_HDMV/PGS
  126. Codec ID/Info                            : Picture based subtitle format used on BDs/HD-DVDs
  127. Duration                                 : 1 h 51 min
  128. Bit rate                                 : 83.8 kb/s
  129. Count of elements                        : 3149
  130. Stream size                              : 67.0 MiB (0%)
  131. Title                                    : Cht&Eng
  132. Language                                 : Chinese
  133. Default                                  : Yes
  134. Forced                                   : No
  135. Text #3
  136. ID                                       : 7
  137. Format                                   : PGS
  138. Muxing mode                              : zlib
  139. Codec ID                                 : S_HDMV/PGS
  140. Codec ID/Info                            : Picture based subtitle format used on BDs/HD-DVDs
  141. Duration                                 : 1 h 51 min
  142. Bit rate                                 : 47.2 kb/s
  143. Count of elements                        : 3149
  144. Stream size                              : 37.8 MiB (0%)
  145. Title                                    : CHS
  146. Language                                 : Chinese
  147. Default                                  : No
  148. Forced                                   : No
  149. Text #4
  150. ID                                       : 8
  151. Format                                   : PGS
  152. Muxing mode                              : zlib
  153. Codec ID                                 : S_HDMV/PGS
  154. Codec ID/Info                            : Picture based subtitle format used on BDs/HD-DVDs
  155. Duration                                 : 1 h 50 min
  156. Bit rate                                 : 39.0 kb/s
  157. Count of elements                        : 3658
  158. Stream size                              : 30.9 MiB (0%)
  159. Title                                    : CHS
  160. Language                                 : Chinese
  161. Default                                  : No
  162. Forced                                   : No
  163. Text #5
  164. ID                                       : 9
  165. Format                                   : PGS
  166. Muxing mode                              : zlib
  167. Codec ID                                 : S_HDMV/PGS
  168. Codec ID/Info                            : Picture based subtitle format used on BDs/HD-DVDs
  169. Duration                                 : 1 h 51 min
  170. Bit rate                                 : 48.3 kb/s
  171. Count of elements                        : 3149
  172. Stream size                              : 38.6 MiB (0%)
  173. Title                                    : CHT
  174. Language                                 : Chinese
  175. Default                                  : No
  176. Forced                                   : No
  177. Text #6
  178. ID                                       : 10
  179. Format                                   : PGS
  180. Muxing mode                              : zlib
  181. Codec ID                                 : S_HDMV/PGS
  182. Codec ID/Info                            : Picture based subtitle format used on BDs/HD-DVDs
  183. Duration                                 : 1 h 50 min
  184. Bit rate                                 : 35.4 kb/s
  185. Count of elements                        : 3646
  186. Stream size                              : 28.1 MiB (0%)
  187. Title                                    : CHT
  188. Language                                 : Chinese
  189. Default                                  : No
  190. Forced                                   : No
  191. Text #7
  192. ID                                       : 11
  193. Format                                   : PGS
  194. Muxing mode                              : zlib
  195. Codec ID                                 : S_HDMV/PGS
  196. Codec ID/Info                            : Picture based subtitle format used on BDs/HD-DVDs
  197. Duration                                 : 1 h 50 min
  198. Bit rate                                 : 38.1 kb/s
  199. Count of elements                        : 3626
  200. Stream size                              : 30.2 MiB (0%)
  201. Language                                 : Czech
  202. Default                                  : No
  203. Forced                                   : No
  204. Text #8
  205. ID                                       : 12
  206. Format                                   : PGS
  207. Muxing mode                              : zlib
  208. Codec ID                                 : S_HDMV/PGS
  209. Codec ID/Info                            : Picture based subtitle format used on BDs/HD-DVDs
  210. Duration                                 : 1 h 51 min
  211. Bit rate                                 : 62.4 kb/s
  212. Count of elements                        : 4522
  213. Stream size                              : 49.9 MiB (0%)
  214. Language                                 : English
  215. Default                                  : No
  216. Forced                                   : No
  217. Text #9
  218. ID                                       : 13
  219. Format                                   : PGS
  220. Muxing mode                              : zlib
  221. Codec ID                                 : S_HDMV/PGS
  222. Codec ID/Info                            : Picture based subtitle format used on BDs/HD-DVDs
  223. Duration                                 : 1 h 51 min
  224. Bit rate                                 : 62.4 kb/s
  225. Count of elements                        : 4522
  226. Stream size                              : 49.9 MiB (0%)
  227. Language                                 : English
  228. Default                                  : No
  229. Forced                                   : No
  230. Text #10
  231. ID                                       : 14
  232. Format                                   : PGS
  233. Muxing mode                              : zlib
  234. Codec ID                                 : S_HDMV/PGS
  235. Codec ID/Info                            : Picture based subtitle format used on BDs/HD-DVDs
  236. Duration                                 : 1 h 50 min
  237. Bit rate                                 : 55.4 kb/s
  238. Count of elements                        : 4028
  239. Stream size                              : 43.9 MiB (0%)
  240. Language                                 : English
  241. Default                                  : No
  242. Forced                                   : No
  243. Text #11
  244. ID                                       : 15
  245. Format                                   : PGS
  246. Muxing mode                              : zlib
  247. Codec ID                                 : S_HDMV/PGS
  248. Codec ID/Info                            : Picture based subtitle format used on BDs/HD-DVDs
  249. Duration                                 : 1 h 50 min
  250. Bit rate                                 : 27.6 kb/s
  251. Count of elements                        : 3876
  252. Stream size                              : 21.9 MiB (0%)
  253. Language                                 : Arabic
  254. Default                                  : No
  255. Forced                                   : No
  256. Text #12
  257. ID                                       : 16
  258. Format                                   : PGS
  259. Muxing mode                              : zlib
  260. Codec ID                                 : S_HDMV/PGS
  261. Codec ID/Info                            : Picture based subtitle format used on BDs/HD-DVDs
  262. Duration                                 : 1 h 50 min
  263. Bit rate                                 : 36.6 kb/s
  264. Count of elements                        : 3482
  265. Stream size                              : 29.0 MiB (0%)
  266. Language                                 : French
  267. Default                                  : No
  268. Forced                                   : No
  269. Text #13
  270. ID                                       : 17
  271. Format                                   : PGS
  272. Muxing mode                              : zlib
  273. Codec ID                                 : S_HDMV/PGS
  274. Codec ID/Info                            : Picture based subtitle format used on BDs/HD-DVDs
  275. Duration                                 : 1 h 50 min
  276. Bit rate                                 : 45.6 kb/s
  277. Count of elements                        : 4666
  278. Stream size                              : 36.2 MiB (0%)
  279. Language                                 : German
  280. Default                                  : No
  281. Forced                                   : No
  282. Text #14
  283. ID                                       : 18
  284. Format                                   : PGS
  285. Muxing mode                              : zlib
  286. Codec ID                                 : S_HDMV/PGS
  287. Codec ID/Info                            : Picture based subtitle format used on BDs/HD-DVDs
  288. Duration                                 : 1 h 50 min
  289. Bit rate                                 : 48.7 kb/s
  290. Count of elements                        : 3640
  291. Stream size                              : 38.6 MiB (0%)
  292. Language                                 : Greek
  293. Default                                  : No
  294. Forced                                   : No
  295. Text #15
  296. ID                                       : 19
  297. Format                                   : PGS
  298. Muxing mode                              : zlib
  299. Codec ID                                 : S_HDMV/PGS
  300. Codec ID/Info                            : Picture based subtitle format used on BDs/HD-DVDs
  301. Duration                                 : 1 h 50 min
  302. Bit rate                                 : 36.3 kb/s
  303. Count of elements                        : 3880
  304. Stream size                              : 28.8 MiB (0%)
  305. Language                                 : Hebrew
  306. Default                                  : No
  307. Forced                                   : No
  308. Text #16
  309. ID                                       : 20
  310. Format                                   : PGS
  311. Muxing mode                              : zlib
  312. Codec ID                                 : S_HDMV/PGS
  313. Codec ID/Info                            : Picture based subtitle format used on BDs/HD-DVDs
  314. Duration                                 : 1 h 50 min
  315. Bit rate                                 : 43.5 kb/s
  316. Count of elements                        : 4174
  317. Stream size                              : 34.4 MiB (0%)
  318. Language                                 : Hindi
  319. Default                                  : No
  320. Forced                                   : No
  321. Text #17
  322. ID                                       : 21
  323. Format                                   : PGS
  324. Muxing mode                              : zlib
  325. Codec ID                                 : S_HDMV/PGS
  326. Codec ID/Info                            : Picture based subtitle format used on BDs/HD-DVDs
  327. Duration                                 : 1 h 50 min
  328. Bit rate                                 : 50.6 kb/s
  329. Count of elements                        : 4164
  330. Stream size                              : 40.1 MiB (0%)
  331. Language                                 : Hungarian
  332. Default                                  : No
  333. Forced                                   : No
  334. Text #18
  335. ID                                       : 22
  336. Format                                   : PGS
  337. Muxing mode                              : zlib
  338. Codec ID                                 : S_HDMV/PGS
  339. Codec ID/Info                            : Picture based subtitle format used on BDs/HD-DVDs
  340. Duration                                 : 1 h 50 min
  341. Bit rate                                 : 49.9 kb/s
  342. Count of elements                        : 3686
  343. Stream size                              : 39.5 MiB (0%)
  344. Language                                 : Indonesian
  345. Default                                  : No
  346. Forced                                   : No
  347. Text #19
  348. ID                                       : 23
  349. Format                                   : PGS
  350. Muxing mode                              : zlib
  351. Codec ID                                 : S_HDMV/PGS
  352. Codec ID/Info                            : Picture based subtitle format used on BDs/HD-DVDs
  353. Duration                                 : 1 h 50 min
  354. Bit rate                                 : 51.7 kb/s
  355. Count of elements                        : 4154
  356. Stream size                              : 41.0 MiB (0%)
  357. Language                                 : Italian
  358. Default                                  : No
  359. Forced                                   : No
  360. Text #20
  361. ID                                       : 24
  362. Format                                   : PGS
  363. Muxing mode                              : zlib
  364. Codec ID                                 : S_HDMV/PGS
  365. Codec ID/Info                            : Picture based subtitle format used on BDs/HD-DVDs
  366. Duration                                 : 1 h 50 min
  367. Bit rate                                 : 40.3 kb/s
  368. Count of elements                        : 4174
  369. Stream size                              : 32.0 MiB (0%)
  370. Language                                 : Korean
  371. Default                                  : No
  372. Forced                                   : No
  373. Text #21
  374. ID                                       : 25
  375. Format                                   : PGS
  376. Muxing mode                              : zlib
  377. Codec ID                                 : S_HDMV/PGS
  378. Codec ID/Info                            : Picture based subtitle format used on BDs/HD-DVDs
  379. Duration                                 : 1 h 50 min
  380. Bit rate                                 : 37.1 kb/s
  381. Count of elements                        : 3256
  382. Stream size                              : 29.4 MiB (0%)
  383. Language                                 : Norwegian
  384. Default                                  : No
  385. Forced                                   : No
  386. Text #22
  387. ID                                       : 26
  388. Format                                   : PGS
  389. Muxing mode                              : zlib
  390. Codec ID                                 : S_HDMV/PGS
  391. Codec ID/Info                            : Picture based subtitle format used on BDs/HD-DVDs
  392. Duration                                 : 1 h 50 min
  393. Bit rate                                 : 38.6 kb/s
  394. Count of elements                        : 3446
  395. Stream size                              : 30.6 MiB (0%)
  396. Language                                 : Polish
  397. Default                                  : No
  398. Forced                                   : No
  399. Text #23
  400. ID                                       : 27
  401. Format                                   : PGS
  402. Muxing mode                              : zlib
  403. Codec ID                                 : S_HDMV/PGS
  404. Codec ID/Info                            : Picture based subtitle format used on BDs/HD-DVDs
  405. Duration                                 : 1 h 50 min
  406. Bit rate                                 : 47.7 kb/s
  407. Count of elements                        : 3530
  408. Stream size                              : 37.8 MiB (0%)
  409. Language                                 : Portuguese
  410. Default                                  : No
  411. Forced                                   : No
  412. Text #24
  413. ID                                       : 28
  414. Format                                   : PGS
  415. Muxing mode                              : zlib
  416. Codec ID                                 : S_HDMV/PGS
  417. Codec ID/Info                            : Picture based subtitle format used on BDs/HD-DVDs
  418. Duration                                 : 1 h 50 min
  419. Bit rate                                 : 41.9 kb/s
  420. Count of elements                        : 3126
  421. Stream size                              : 33.2 MiB (0%)
  422. Language                                 : Romanian
  423. Default                                  : No
  424. Forced                                   : No
  425. Text #25
  426. ID                                       : 29
  427. Format                                   : PGS
  428. Muxing mode                              : zlib
  429. Codec ID                                 : S_HDMV/PGS
  430. Codec ID/Info                            : Picture based subtitle format used on BDs/HD-DVDs
  431. Duration                                 : 1 h 50 min
  432. Bit rate                                 : 42.2 kb/s
  433. Count of elements                        : 3928
  434. Stream size                              : 33.4 MiB (0%)
  435. Language                                 : Russian
  436. Default                                  : No
  437. Forced                                   : No
  438. Text #26
  439. ID                                       : 30
  440. Format                                   : PGS
  441. Muxing mode                              : zlib
  442. Codec ID                                 : S_HDMV/PGS
  443. Codec ID/Info                            : Picture based subtitle format used on BDs/HD-DVDs
  444. Duration                                 : 1 h 50 min
  445. Bit rate                                 : 42.4 kb/s
  446. Count of elements                        : 3636
  447. Stream size                              : 33.6 MiB (0%)
  448. Language                                 : Serbian
  449. Default                                  : No
  450. Forced                                   : No
  451. Text #27
  452. ID                                       : 31
  453. Format                                   : PGS
  454. Muxing mode                              : zlib
  455. Codec ID                                 : S_HDMV/PGS
  456. Codec ID/Info                            : Picture based subtitle format used on BDs/HD-DVDs
  457. Duration                                 : 1 h 50 min
  458. Bit rate                                 : 41.9 kb/s
  459. Count of elements                        : 3736
  460. Stream size                              : 33.3 MiB (0%)
  461. Language                                 : Spanish
  462. Default                                  : No
  463. Forced                                   : No
  464. Text #28
  465. ID                                       : 32
  466. Format                                   : PGS
  467. Muxing mode                              : zlib
  468. Codec ID                                 : S_HDMV/PGS
  469. Codec ID/Info                            : Picture based subtitle format used on BDs/HD-DVDs
  470. Duration                                 : 1 h 50 min
  471. Bit rate                                 : 45.0 kb/s
  472. Count of elements                        : 3972
  473. Stream size                              : 35.7 MiB (0%)
  474. Language                                 : Spanish
  475. Default                                  : No
  476. Forced                                   : No
  477. Text #29
  478. ID                                       : 33
  479. Format                                   : PGS
  480. Muxing mode                              : zlib
  481. Codec ID                                 : S_HDMV/PGS
  482. Codec ID/Info                            : Picture based subtitle format used on BDs/HD-DVDs
  483. Duration                                 : 1 h 50 min
  484. Bit rate                                 : 34.0 kb/s
  485. Count of elements                        : 2114
  486. Stream size                              : 27.0 MiB (0%)
  487. Language                                 : Swedish
  488. Default                                  : No
  489. Forced                                   : No
  490. Text #30
  491. ID                                       : 34
  492. Format                                   : PGS
  493. Muxing mode                              : zlib
  494. Codec ID                                 : S_HDMV/PGS
  495. Codec ID/Info                            : Picture based subtitle format used on BDs/HD-DVDs
  496. Duration                                 : 1 h 50 min
  497. Bit rate                                 : 38.9 kb/s
  498. Count of elements                        : 3656
  499. Stream size                              : 30.8 MiB (0%)
  500. Language                                 : Thai
  501. Default                                  : No
  502. Forced                                   : No
  503. Text #31
  504. ID                                       : 35
  505. Format                                   : PGS
  506. Muxing mode                              : zlib
  507. Codec ID                                 : S_HDMV/PGS
  508. Codec ID/Info                            : Picture based subtitle format used on BDs/HD-DVDs
  509. Duration                                 : 1 h 50 min
  510. Bit rate                                 : 46.6 kb/s
  511. Count of elements                        : 3656
  512. Stream size                              : 36.9 MiB (0%)
  513. Language                                 : Turkish
  514. Default                                  : No
  515. Forced                                   : No
  516. Text #32
  517. ID                                       : 36
  518. Format                                   : PGS
  519. Muxing mode                              : zlib
  520. Codec ID                                 : S_HDMV/PGS
  521. Codec ID/Info                            : Picture based subtitle format used on BDs/HD-DVDs
  522. Duration                                 : 1 h 43 min
  523. Bit rate                                 : 1 811 b/s
  524. Count of elements                        : 104
  525. Stream size                              : 1.34 MiB (0%)
  526. Language                                 : French
  527. Default                                  : No
  528. Forced                                   : No
  529. Text #33
  530. ID                                       : 37
  531. Format                                   : PGS
  532. Muxing mode                              : zlib
  533. Codec ID                                 : S_HDMV/PGS
  534. Codec ID/Info                            : Picture based subtitle format used on BDs/HD-DVDs
  535. Duration                                 : 1 h 51 min
  536. Bit rate                                 : 81.2 kb/s
  537. Count of elements                        : 4692
  538. Stream size                              : 64.9 MiB (0%)
  539. Title                                    : Commentary by actor Channing Tatum, directors Christopher Miller and Phil Lord and actor/writer Jonah Hill
  540. Language                                 : English
  541. Default                                  : No
  542. Forced                                   : No
  543. Text #34
  544. ID                                       : 38
  545. Format                                   : PGS
  546. Muxing mode                              : zlib
  547. Codec ID                                 : S_HDMV/PGS
  548. Codec ID/Info                            : Picture based subtitle format used on BDs/HD-DVDs
  549. Duration                                 : 1 h 51 min
  550. Bit rate                                 : 59.7 kb/s
  551. Count of elements                        : 4702
  552. Stream size                              : 47.7 MiB (0%)
  553. Title                                    : Commentary by actor Channing Tatum, directors Christopher Miller and Phil Lord and actor/writer Jonah Hill (Traditional Mandarin)
  554. Language                                 : Chinese
  555. Default                                  : No
  556. Forced                                   : No
  557. Text #35
  558. ID                                       : 39
  559. Format                                   : PGS
  560. Muxing mode                              : zlib
  561. Codec ID                                 : S_HDMV/PGS
  562. Codec ID/Info                            : Picture based subtitle format used on BDs/HD-DVDs
  563. Duration                                 : 1 h 51 min
  564. Bit rate                                 : 72.7 kb/s
  565. Count of elements                        : 4672
  566. Stream size                              : 58.1 MiB (0%)
  567. Title                                    : Commentary by actor Channing Tatum, directors Christopher Miller and Phil Lord and actor/writer Jonah Hill
  568. Language                                 : Dutch
  569. Default                                  : No
  570. Forced                                   : No
  571. Text #36
  572. ID                                       : 40
  573. Format                                   : PGS
  574. Muxing mode                              : zlib
  575. Codec ID                                 : S_HDMV/PGS
  576. Codec ID/Info                            : Picture based subtitle format used on BDs/HD-DVDs
  577. Duration                                 : 1 h 51 min
  578. Bit rate                                 : 67.4 kb/s
  579. Count of elements                        : 4702
  580. Stream size                              : 53.9 MiB (0%)
  581. Title                                    : Commentary by actor Channing Tatum, directors Christopher Miller and Phil Lord and actor/writer Jonah Hill
  582. Language                                 : French
  583. Default                                  : No
  584. Forced                                   : No
  585. Text #37
  586. ID                                       : 41
  587. Format                                   : PGS
  588. Muxing mode                              : zlib
  589. Codec ID                                 : S_HDMV/PGS
  590. Codec ID/Info                            : Picture based subtitle format used on BDs/HD-DVDs
  591. Duration                                 : 1 h 51 min
  592. Bit rate                                 : 76.4 kb/s
  593. Count of elements                        : 4702
  594. Stream size                              : 61.1 MiB (0%)
  595. Title                                    : Commentary by actor Channing Tatum, directors Christopher Miller and Phil Lord and actor/writer Jonah Hill
  596. Language                                 : German
  597. Default                                  : No
  598. Forced                                   : No
  599. Text #38
  600. ID                                       : 42
  601. Format                                   : PGS
  602. Muxing mode                              : zlib
  603. Codec ID                                 : S_HDMV/PGS
  604. Codec ID/Info                            : Picture based subtitle format used on BDs/HD-DVDs
  605. Duration                                 : 1 h 51 min
  606. Bit rate                                 : 72.6 kb/s
  607. Count of elements                        : 4702
  608. Stream size                              : 58.0 MiB (0%)
  609. Title                                    : Commentary by actor Channing Tatum, directors Christopher Miller and Phil Lord and actor/writer Jonah Hill
  610. Language                                 : Italian
  611. Default                                  : No
  612. Forced                                   : No
  613. Text #39
  614. ID                                       : 43
  615. Format                                   : PGS
  616. Muxing mode                              : zlib
  617. Codec ID                                 : S_HDMV/PGS
  618. Codec ID/Info                            : Picture based subtitle format used on BDs/HD-DVDs
  619. Duration                                 : 1 h 51 min
  620. Bit rate                                 : 50.7 kb/s
  621. Count of elements                        : 4702
  622. Stream size                              : 40.5 MiB (0%)
  623. Title                                    : Commentary by actor Channing Tatum, directors Christopher Miller and Phil Lord and actor/writer Jonah Hill
  624. Language                                 : Korean
  625. Default                                  : No
  626. Forced                                   : No
  627. Text #40
  628. ID                                       : 44
  629. Format                                   : PGS
  630. Muxing mode                              : zlib
  631. Codec ID                                 : S_HDMV/PGS
  632. Codec ID/Info                            : Picture based subtitle format used on BDs/HD-DVDs
  633. Duration                                 : 1 h 51 min
  634. Bit rate                                 : 70.2 kb/s
  635. Count of elements                        : 4702
  636. Stream size                              : 56.1 MiB (0%)
  637. Title                                    : Commentary by actor Channing Tatum, directors Christopher Miller and Phil Lord and actor/writer Jonah Hill (Latin American)
  638. Language                                 : Spanish
  639. Default                                  : No
  640. Forced                                   : No
  641. Text #41
  642. ID                                       : 45
  643. Format                                   : PGS
  644. Muxing mode                              : zlib
  645. Codec ID                                 : S_HDMV/PGS
  646. Codec ID/Info                            : Picture based subtitle format used on BDs/HD-DVDs
  647. Duration                                 : 1 h 51 min
  648. Bit rate                                 : 51.5 kb/s
  649. Count of elements                        : 4704
  650. Stream size                              : 41.2 MiB (0%)
  651. Title                                    : Commentary by actor Channing Tatum, directors Christopher Miller and Phil Lord and actor/writer Jonah Hill
  652. Language                                 : Thai
  653. Default                                  : No
  654. Forced                                   : No
  655. Menu
  656. 00:00:00.000                             : en:Chapter 1
  657. 00:06:21.798                             : en:Chapter 2
  658. 00:13:09.372                             : en:Chapter 3
  659. 00:19:57.363                             : en:Chapter 4
  660. 00:26:32.174                             : en:Chapter 5
  661. 00:31:30.097                             : en:Chapter 6
  662. 00:36:47.247                             : en:Chapter 7
  663. 00:43:49.252                             : en:Chapter 8
  664. 00:51:46.395                             : en:Chapter 9
  665. 00:58:58.410                             : en:Chapter 10
  666. 01:07:30.588                             : en:Chapter 11
  667. 01:16:28.250                             : en:Chapter 12
  668. 01:23:02.603                             : en:Chapter 13
  669. 01:29:51.678                             : en:Chapter 14
  670. 01:35:25.470                             : en:Chapter 15
  671. 01:41:57.194                             : en:Chapter 16



此处一般会放置磁力链或种子下载链接,不过此链接需要注册会员才能看到,点击“立即注册”
磁力链下载【下载链接仅对注册会员开放,登陆后可见】
BT9527电影天堂 1、BT9527电影天堂提供的BT文件均来源于互联网抓取,只供网友学习交流、技术提升使用。
2、我们遵守BitTorrent点对点协议原则,任何版权问题请联系原资源发布商,我们不处理任何版权纠纷,谢谢!如有争议请联系邮箱:BT9527#hotmail.com(#换成@)
3、如果您发现某页面或地址有错误,请联系站长邮箱BT9527#hotmail.com(#换成@),我们会尽快处理。您的热心是对BT9527电影天堂最大的支持。
4、本站建议去正规影院观看电影以支持电影行业发展。
最新回复 (0)

你可以在 登录 or 注册 后,对此帖发表评论!

返回
发新帖