红粉联盟[国英多音轨/简繁英字幕].A.League.of.Their.Own.1992.UHD.BluRay.2160p.x265.HDR.TrueHD.Atmos.7.1-MiniHD 20.03GB

版主小s 5月前 285

✔资源类型:BD-4K   ✔电影年份:更 早   ✔电影地区:欧美   ✔电影分类:剧情

◎译  名 红粉联盟 / 女子棒球队 / 红粉本垒打 / 骄阳岁月
◎片  名 A League of Their Own
◎年  代 1992
◎产  地 美国
◎类  别 剧情 / 喜剧 / 运动
◎语  言 英语
◎上映日期 1992-07-01
◎IMDb链接 https://www.imdb.com/title/tt0104694/
◎豆瓣评分 7.6/10 (2017人评价)
◎豆瓣链接 https://movie.douban.com/subject/1294721/
◎片  长 128 分钟
◎导  演 潘妮·马歇尔 Penny Marshall (id:1027870)
◎编  剧 洛维尔·冈茨 Lowell Ganz (id:1050410)
       巴巴卢·曼德尔 Babaloo Mandel (id:1028109)
◎演  员 汤姆·汉克斯 Tom Hanks (id:1054450)
       吉娜·戴维斯 Geena Davis (id:1006979)
       罗莉·佩蒂 Lori Petty (id:1027827)
       麦当娜 Madonna (id:1022631)
       罗茜·欧唐内 Rosie O'Donnell (id:1002756)
       梅根·卡瓦纳芙 Megan Cavanagh (id:1076572)
       特雷西赖纳 Tracy Reiner (id:1138820)
       比蒂·施拉姆 Bitty Schram (id:1143995)
       安·库萨克 Ann Cusack (id:1017984)
       安妮·拉姆塞 Anne Ramsay (id:1147029)
       弗雷迪·辛普森 Freddie Simpson (id:1430256)
       Kelli Simpkins Kelli Simpkins (id:1297648)
       凯瑟琳·马歇尔 Kathleen Marshall (id:1119549)
       Pauline Brailsford Pauline Brailsford (id:1076339)
       大卫·斯特雷泽恩 David Strathairn (id:1007009)
       盖瑞·马歇尔 Garry Marshall (id:1041160)
       乔恩·拉威茨 Jon Lovitz (id:1055039)
       比尔·普尔曼 Bill Pullman (id:1036384)
       埃迪·琼斯 Eddie Jones (id:1337120)
       迈克尔·黑利 Michael Haley (id:1050644)
       唐·戴维斯 Don S. Davis (id:1025257)
       珍妮特·琼斯 Janet Jones (id:1108106)
       蒂娅·里欧妮 Téa Leoni (id:1055744)
       劳蕾尔·克罗宁 Laurel Cronin (id:1069469)
       罗伯特·斯坦顿 Robert Stanton (id:1154825)
       哈里·谢尔 Harry Shearer (id:1013923)
       乔伊·斯洛特尼克 Joey Slotnick (id:1152200)
       Stephen Feagley Stephen Feagley (id:1086886)
       Rae Allen Rae Allen (id:1058321)
       埃迪·梅卡 Eddie Mekka (id:1117723)
       斯蒂芬·梅尔勒 Stephen Mailer (id:1032597)
       Lynn Cartwright Lynn Cartwright (id:1076468)
       Barbara Erwin Barbara Erwin (id:1089836)
       Betty Miller Betty Miller (id:1121602)
       芭芭拉普莱恩 Barbara Pilavin (id:1129176)
       Marvin Einhorn Marvin Einhorn (id:1089443)
       德尔克洛斯 Del Close (id:1077508)
       Thomas Colby Thomas Colby (id:1173912)
       Doug Decker Doug Decker (id:1090192)
       大卫·L·兰德尔 David L. Lander (id:1010727)
       雷·托勒 Ray Toler (id:1154784)
       Amy Lemisch Amy Lemisch (id:1289775)
       罗伯特·格林赫特 Robert Greenhut (id:1285407)
       汉斯·季默 Hans Zimmer (id:1054386)
       Amanda Mackey Johnson Amanda Mackey Johnson (id:1290650)
       埃伦·路易斯 Ellen Lewis (id:1289949)
       小乔治·德蒂塔 George DeTitta Jr. (id:1282314)
       比尔·格鲁姆 Bill Groom (id:1285511)

◎简  介
  故事发生在二次世界大战期间,沃尔特(盖瑞·马歇尔 Garry Marshall 饰)是曾经风靡一时的棒球明星,如今,早已屈居二线的他决定组建一支史无前例的女子棒球队。他看重了漂亮高大的多利(吉娜·戴维斯 Geena Davis 饰),多利的妹妹基特(罗莉·佩蒂 Lori Petty 饰)也跟随着姐姐的脚步加入了球队。                                    
                                之后,马拉(梅根·卡瓦纳芙 Megan Cavanagh 饰)等一干得力干将的加入让球队的实力瞬间增强,在几次挫折之后,沃尔特的“娘子军”逐渐得到了体育界的认可。可是,就在这样的关键时刻,棒球队里却发生了内讧,马拉和基特离队,沃尔特也产生了放弃的想法。就在这时,多利远赴战场的丈夫鲍勃(比尔·普尔曼 Bill Pullman 饰)的归来让棒球队看到了新的希望。

◎获奖情况 (共4项)
  第50届金球奖 (1993)
  电影类 音乐/喜剧片最佳女主角(提名)
   └──吉娜·戴维斯 (id:1006979)
  电影类 最佳原创歌曲(提名)

  第16届日本电影学院奖 (1993)
  最佳外语片(提名)

  第17届报知映画赏 (1992)
  海外作品奖
   └──潘妮·马歇尔 (id:1027870)

  1. ##### MediaInfo ######
  2. General
  3. Unique ID                                : 207327928375547859413870147900294248260 (0x9BF9E814184BED25519F4B839D4B3744)
  4. Complete name                            : A.League.of.Their.Own.1992.UHD.BluRay.2160p.x265.HDR.TrueHD.Atmos.7.1-MiniHD.mkv
  5. Format                                   : Matroska
  6. Format version                           : Version 4
  7. File size                                : 20.0 GiB
  8. Duration                                 : 2 h 7 min
  9. Overall bit rate mode                    : Variable
  10. Overall bit rate                         : 22.4 Mb/s
  11. Movie name                               : A League of Their Own [1992] UHD BluRay 2160p - FRDS
  12. Encoded date                             : UTC 2022-03-04 09:18:11
  13. Writing application                      : mkvmerge v65.0.0 ('Too Much') 64-bit
  14. Writing library                          : libebml v1.4.2 + libmatroska v1.6.4
  15. Cover                                    : Yes
  16. Attachments                              : cover.jpg
  17. Video
  18. ID                                       : 1
  19. Format                                   : HEVC
  20. Format/Info                              : High Efficiency Video Coding
  21. Format profile                           : Main 10@L5.1@High
  22. HDR format                               : SMPTE ST 2086, HDR10 compatible
  23. Codec ID                                 : V_MPEGH/ISO/HEVC
  24. Duration                                 : 2 h 7 min
  25. Bit rate                                 : 17.1 Mb/s
  26. Width                                    : 3 840 pixels
  27. Height                                   : 1 604 pixels
  28. Display aspect ratio                     : 2.40:1
  29. Frame rate mode                          : Constant
  30. Frame rate                               : 23.976 (24000/1001/53354) FPS
  31. Color space                              : YUV
  32. Chroma subsampling                       : 4:2:0
  33. Bit depth                                : 10 bits
  34. Bits/(Pixel*Frame)                       : 0.115
  35. Stream size                              : 15.2 GiB (76%)
  36. Writing library                          : x265 3.3+3-g8f8e332f1+29:[Windows][#Erg`Djh#][@Yuuki] made by @Dongfangbubai
  37. Encoding settings                        : rc=crf / crf=20.0000 / qcomp=0.70 / qpstep=4 / stats-write=0 / stats-read=0 / vbv-maxrate=160000 / vbv-bufsize=160000 / vbv-init=0.9 / crf-max=0.0 / crf-min=0.0 / no-lossless / no-cu-lossless / aq-mode=3 / aq-strength=0.80 / cbqpoffs=-3 / crqpoffs=-3 / ipratio=1.40 / pbratio=1.30 / psy-rd=2.00 / psy-rdoq=3.00 / deblock=-1:-1 / ref=5 / limit-refs=0 / no-limit-modes / bframes=8 / b-adapt=2 / bframe-bias=0 / b-pyramid / b-intra / weightp / weightb / min-keyint=23 / max-keyint=240 / rc-lookahead=60 / gop-lookahead=0 / NTMzNTQ=uuDQuD2mJt9fsCf / scenecut=40 / hist-scenecut=0 / radl=0 / max-cu-size=32 / min-cu-size=8 / me=3 / subme=4 / merange=25 / rdoq-level=2 / rd=4 / rdpenalty=1 / dynamic-rd=0.00 / no-rd-refine / ----- / no-cutree / no-sao / no-rect / no-amp / no-open-gop / wpp / pmode / pme / no-psnr / no-ssim / nr-intra=0 / nr-inter=0 / no-constrained-intra / no-strong-intra-smoothing / max-tu-size=32 / tu-inter-depth=2 / tu-intra-depth=2 / limit-tu=0 / qg-size=32 / qpmax=69 / qpmin=0 / ----- / cpuid=533541176575 / frame-threads=6 / numa-pools=54,- / log-level=2 / input-csp=1 / input-res=3840x1604 / interlace=0 / level-idc=0 / high-tier=1 / uhd-bd=0 / no-allow-non-conformance / no-repeat-headers / no-aud / hrd / info / hash=0 / no-temporal-layers / lookahead-slices=0 / no-splice / no-intra-refresh / no-ssim-rd / signhide / no-tskip / max-merge=3 / temporal-mvp / no-frame-dup / no-hme / no-analyze-src-pics / no-sao-non-deblock / selective-sao=0 / no-early-skip / no-rskip / no-fast-intra / no-tskip-fast / no-splitrd-skip / zone-count=0 / no-strict-cbr / no-rc-grain / no-const-vbv / sar=0 / overscan=0 / videoformat=5 / range=0 / colorprim=9 / transfer=16 / colormatrix=9 / chromaloc=0 / display-window=0 / master-display=G(13250,34500)B(7500,3000)R(34000,16000)WP(15635,16450)L(10000000,1) / cll=1595,479 / min-luma=0 / max-luma=1023 / log2-max-poc-lsb=8 / vui-timing-info / vui-hrd-info / slices=1 / no-opt-qp-pps / no-opt-ref-list-length-pps / no-multi-pass-opt-rps / scenecut-bias=0.05 / hist-threshold=0.01 / no-opt-cu-delta-qp / no-aq-motion / hdr10 / hdr10-opt / no-dhdr10-opt / no-idr-recovery-sei / analysis-reuse-level=0 / analysis-save-reuse-level=0 / analysis-load-reuse-level=0 / scale-factor=0 / refine-intra=0 / refine-inter=0 / refine-mv=1 / refine-ctu-distortion=0 / no-limit-sao / ctu-info=0 / no-lowpass-dct / refine-analysis-type=0 / copy-pic=1 / max-ausize-factor=1.0 / no-dynamic-refine / no-single-sei / no-hevc-aq / no-svt / no-field / qp-adaptation-range=1.00 / no-scenecut-aware-qpconformance-window-offsets / right=0 / bottom=0 / NTMzNTQ=
  38. Default                                  : Yes
  39. Forced                                   : No
  40. Color range                              : Limited
  41. Color primaries                          : BT.2020
  42. Transfer characteristics                 : PQ
  43. Matrix coefficients                      : BT.2020 non-constant
  44. Mastering display color primaries        : Display P3
  45. Mastering display luminance              : min: 0.0001 cd/m2, max: 1000 cd/m2
  46. Maximum Content Light Level              : 1595 cd/m2
  47. Maximum Frame-Average Light Level        : 479 cd/m2
  48. Audio #1
  49. ID                                       : 2
  50. Format                                   : MLP FBA 16-ch
  51. Format/Info                              : Meridian Lossless Packing FBA with 16-channel presentation
  52. Commercial name                          : Dolby TrueHD with Dolby Atmos
  53. Codec ID                                 : A_TRUEHD
  54. Duration                                 : 2 h 7 min
  55. Bit rate mode                            : Variable
  56. Bit rate                                 : 3 257 kb/s
  57. Maximum bit rate                         : 4 749 kb/s
  58. Channel(s)                               : 8 channels
  59. Channel layout                           : L R C LFE Ls Rs Lb Rb
  60. Sampling rate                            : 48.0 kHz
  61. Frame rate                               : 1 200.000 FPS (40 SPF)
  62. Compression mode                         : Lossless
  63. Stream size                              : 2.91 GiB (15%)
  64. Title                                    : Dolby TrueHD/Atmos Audio / 7.1 / 48 kHz / 3257 kbps / 16-bit
  65. Language                                 : English
  66. Default                                  : Yes
  67. Forced                                   : No
  68. Number of dynamic objects                : 11
  69. Bed channel count                        : 1 channel
  70. Bed channel configuration                : LFE
  71. Audio #2
  72. ID                                       : 3
  73. Format                                   : AC-3
  74. Format/Info                              : Audio Coding 3
  75. Commercial name                          : Dolby Digital
  76. Codec ID                                 : A_AC3
  77. Duration                                 : 2 h 7 min
  78. Bit rate mode                            : Constant
  79. Bit rate                                 : 640 kb/s
  80. Channel(s)                               : 6 channels
  81. Channel layout                           : L R C LFE Ls Rs
  82. Sampling rate                            : 48.0 kHz
  83. Frame rate                               : 31.250 FPS (1536 SPF)
  84. Compression mode                         : Lossy
  85. Stream size                              : 586 MiB (3%)
  86. Title                                    : Compatibility Track / Dolby Digital Audio / 5.1 / 48 kHz / 640 kbps
  87. Language                                 : English
  88. Service kind                             : Complete Main
  89. Default                                  : No
  90. Forced                                   : No
  91. Audio #3
  92. ID                                       : 4
  93. Format                                   : FLAC
  94. Format/Info                              : Free Lossless Audio Codec
  95. Codec ID                                 : A_FLAC
  96. Duration                                 : 2 h 7 min
  97. Bit rate mode                            : Variable
  98. Bit rate                                 : 585 kb/s
  99. Channel(s)                               : 2 channels
  100. Channel layout                           : L R
  101. Sampling rate                            : 48.0 kHz
  102. Frame rate                               : 11.719 FPS (4096 SPF)
  103. Bit depth                                : 16 bits
  104. Compression mode                         : Lossless
  105. Stream size                              : 536 MiB (3%)
  106. Title                                    : Original Stereo Dolby Mix / FLAC Audio / 2.0 / 48 kHz / 585 kbps / 16-bit
  107. Writing library                          : libFLAC 1.2.1 (UTC 2007-09-17)
  108. Language                                 : English
  109. Default                                  : No
  110. Forced                                   : No
  111. Audio #4
  112. ID                                       : 5
  113. Format                                   : AC-3
  114. Format/Info                              : Audio Coding 3
  115. Commercial name                          : Dolby Digital
  116. Codec ID                                 : A_AC3
  117. Duration                                 : 2 h 7 min
  118. Bit rate mode                            : Constant
  119. Bit rate                                 : 192 kb/s
  120. Channel(s)                               : 2 channels
  121. Channel layout                           : L R
  122. Sampling rate                            : 48.0 kHz
  123. Frame rate                               : 31.250 FPS (1536 SPF)
  124. Compression mode                         : Lossy
  125. Stream size                              : 176 MiB (1%)
  126. Title                                    : Commentary by director Penny Marshall and actresses Lori Petty, Tracy Reiner and Megan Cavanagh
  127. Language                                 : English
  128. Service kind                             : Complete Main
  129. Default                                  : No
  130. Forced                                   : No
  131. Audio #5
  132. ID                                       : 6
  133. Format                                   : AC-3
  134. Format/Info                              : Audio Coding 3
  135. Commercial name                          : Dolby Digital
  136. Codec ID                                 : A_AC3
  137. Duration                                 : 2 h 7 min
  138. Bit rate mode                            : Constant
  139. Bit rate                                 : 192 kb/s
  140. Channel(s)                               : 2 channels
  141. Channel layout                           : L R
  142. Sampling rate                            : 48.0 kHz
  143. Frame rate                               : 31.250 FPS (1536 SPF)
  144. Compression mode                         : Lossy
  145. Stream size                              : 176 MiB (1%)
  146. Language                                 : Chinese
  147. Service kind                             : Complete Main
  148. Default                                  : No
  149. Forced                                   : No
  150. Text #1
  151. ID                                       : 7
  152. Format                                   : PGS
  153. Muxing mode                              : zlib
  154. Codec ID                                 : S_HDMV/PGS
  155. Codec ID/Info                            : Picture based subtitle format used on BDs/HD-DVDs
  156. Duration                                 : 2 h 5 min
  157. Bit rate                                 : 36.3 kb/s
  158. Count of elements                        : 3517
  159. Stream size                              : 32.6 MiB (0%)
  160. Title                                    : English (USA)
  161. Language                                 : English
  162. Default                                  : No
  163. Forced                                   : No
  164. Text #2
  165. ID                                       : 8
  166. Format                                   : PGS
  167. Muxing mode                              : zlib
  168. Codec ID                                 : S_HDMV/PGS
  169. Codec ID/Info                            : Picture based subtitle format used on BDs/HD-DVDs
  170. Duration                                 : 2 h 5 min
  171. Bit rate                                 : 36.3 kb/s
  172. Count of elements                        : 3521
  173. Stream size                              : 32.6 MiB (0%)
  174. Title                                    : English (UK)
  175. Language                                 : English
  176. Default                                  : No
  177. Forced                                   : No
  178. Text #3
  179. ID                                       : 9
  180. Format                                   : PGS
  181. Muxing mode                              : zlib
  182. Codec ID                                 : S_HDMV/PGS
  183. Codec ID/Info                            : Picture based subtitle format used on BDs/HD-DVDs
  184. Duration                                 : 2 h 7 min
  185. Bit rate                                 : 44.8 kb/s
  186. Count of elements                        : 4274
  187. Stream size                              : 40.9 MiB (0%)
  188. Title                                    : English SDH (USA)
  189. Language                                 : English
  190. Default                                  : No
  191. Forced                                   : No
  192. Text #4
  193. ID                                       : 10
  194. Format                                   : PGS
  195. Muxing mode                              : zlib
  196. Codec ID                                 : S_HDMV/PGS
  197. Codec ID/Info                            : Picture based subtitle format used on BDs/HD-DVDs
  198. Duration                                 : 2 h 7 min
  199. Bit rate                                 : 44.8 kb/s
  200. Count of elements                        : 4274
  201. Stream size                              : 40.9 MiB (0%)
  202. Title                                    : English SDH (UK)
  203. Language                                 : English
  204. Default                                  : No
  205. Forced                                   : No
  206. Text #5
  207. ID                                       : 11
  208. Format                                   : PGS
  209. Muxing mode                              : zlib
  210. Codec ID                                 : S_HDMV/PGS
  211. Codec ID/Info                            : Picture based subtitle format used on BDs/HD-DVDs
  212. Duration                                 : 2 h 7 min
  213. Bit rate                                 : 66.9 kb/s
  214. Count of elements                        : 5182
  215. Stream size                              : 61.2 MiB (0%)
  216. Title                                    : Commentary by director Penny Marshall and actresses Lori Petty, Tracy Reiner and Megan Cavanagh
  217. Language                                 : English
  218. Default                                  : No
  219. Forced                                   : No
  220. Text #6
  221. ID                                       : 12
  222. Format                                   : PGS
  223. Muxing mode                              : zlib
  224. Codec ID                                 : S_HDMV/PGS
  225. Codec ID/Info                            : Picture based subtitle format used on BDs/HD-DVDs
  226. Duration                                 : 2 h 4 min
  227. Bit rate                                 : 18.1 kb/s
  228. Count of elements                        : 3285
  229. Stream size                              : 16.1 MiB (0%)
  230. Language                                 : Arabic
  231. Default                                  : No
  232. Forced                                   : No
  233. Text #7
  234. ID                                       : 13
  235. Format                                   : PGS
  236. Muxing mode                              : zlib
  237. Codec ID                                 : S_HDMV/PGS
  238. Codec ID/Info                            : Picture based subtitle format used on BDs/HD-DVDs
  239. Duration                                 : 2 h 7 min
  240. Bit rate                                 : 33.1 kb/s
  241. Count of elements                        : 3568
  242. Stream size                              : 30.2 MiB (0%)
  243. Title                                    : Simplified
  244. Language                                 : Chinese
  245. Default                                  : Yes
  246. Forced                                   : No
  247. Text #8
  248. ID                                       : 14
  249. Format                                   : PGS
  250. Muxing mode                              : zlib
  251. Codec ID                                 : S_HDMV/PGS
  252. Codec ID/Info                            : Picture based subtitle format used on BDs/HD-DVDs
  253. Duration                                 : 2 h 7 min
  254. Bit rate                                 : 34.2 kb/s
  255. Count of elements                        : 3565
  256. Stream size                              : 31.2 MiB (0%)
  257. Title                                    : Traditional
  258. Language                                 : Chinese
  259. Default                                  : Yes
  260. Forced                                   : No
  261. Text #9
  262. ID                                       : 15
  263. Format                                   : PGS
  264. Muxing mode                              : zlib
  265. Codec ID                                 : S_HDMV/PGS
  266. Codec ID/Info                            : Picture based subtitle format used on BDs/HD-DVDs
  267. Duration                                 : 2 h 4 min
  268. Bit rate                                 : 28.3 kb/s
  269. Count of elements                        : 3265
  270. Stream size                              : 25.3 MiB (0%)
  271. Language                                 : Czech
  272. Default                                  : No
  273. Forced                                   : No
  274. Text #10
  275. ID                                       : 16
  276. Format                                   : PGS
  277. Muxing mode                              : zlib
  278. Codec ID                                 : S_HDMV/PGS
  279. Codec ID/Info                            : Picture based subtitle format used on BDs/HD-DVDs
  280. Duration                                 : 2 h 4 min
  281. Bit rate                                 : 26.8 kb/s
  282. Count of elements                        : 2296
  283. Stream size                              : 23.9 MiB (0%)
  284. Language                                 : Danish
  285. Default                                  : No
  286. Forced                                   : No
  287. Text #11
  288. ID                                       : 17
  289. Format                                   : PGS
  290. Muxing mode                              : zlib
  291. Codec ID                                 : S_HDMV/PGS
  292. Codec ID/Info                            : Picture based subtitle format used on BDs/HD-DVDs
  293. Duration                                 : 2 h 4 min
  294. Bit rate                                 : 27.5 kb/s
  295. Count of elements                        : 2272
  296. Stream size                              : 24.5 MiB (0%)
  297. Language                                 : Dutch
  298. Default                                  : No
  299. Forced                                   : No
  300. Text #12
  301. ID                                       : 18
  302. Format                                   : PGS
  303. Muxing mode                              : zlib
  304. Codec ID                                 : S_HDMV/PGS
  305. Codec ID/Info                            : Picture based subtitle format used on BDs/HD-DVDs
  306. Duration                                 : 2 h 4 min
  307. Bit rate                                 : 27.4 kb/s
  308. Count of elements                        : 2286
  309. Stream size                              : 24.5 MiB (0%)
  310. Language                                 : Finnish
  311. Default                                  : No
  312. Forced                                   : No
  313. Text #13
  314. ID                                       : 19
  315. Format                                   : PGS
  316. Muxing mode                              : zlib
  317. Codec ID                                 : S_HDMV/PGS
  318. Codec ID/Info                            : Picture based subtitle format used on BDs/HD-DVDs
  319. Duration                                 : 2 h 6 min
  320. Bit rate                                 : 26.9 kb/s
  321. Count of elements                        : 3119
  322. Stream size                              : 24.4 MiB (0%)
  323. Language                                 : French
  324. Default                                  : No
  325. Forced                                   : No
  326. Text #14
  327. ID                                       : 20
  328. Format                                   : PGS
  329. Muxing mode                              : zlib
  330. Codec ID                                 : S_HDMV/PGS
  331. Codec ID/Info                            : Picture based subtitle format used on BDs/HD-DVDs
  332. Duration                                 : 2 h 4 min
  333. Bit rate                                 : 35.3 kb/s
  334. Count of elements                        : 3371
  335. Stream size                              : 31.5 MiB (0%)
  336. Language                                 : German
  337. Default                                  : No
  338. Forced                                   : No
  339. Text #15
  340. ID                                       : 21
  341. Format                                   : PGS
  342. Muxing mode                              : zlib
  343. Codec ID                                 : S_HDMV/PGS
  344. Codec ID/Info                            : Picture based subtitle format used on BDs/HD-DVDs
  345. Duration                                 : 2 h 5 min
  346. Bit rate                                 : 26.7 kb/s
  347. Count of elements                        : 3549
  348. Stream size                              : 24.0 MiB (0%)
  349. Language                                 : Hebrew
  350. Default                                  : No
  351. Forced                                   : No
  352. Text #16
  353. ID                                       : 22
  354. Format                                   : PGS
  355. Muxing mode                              : zlib
  356. Codec ID                                 : S_HDMV/PGS
  357. Codec ID/Info                            : Picture based subtitle format used on BDs/HD-DVDs
  358. Duration                                 : 2 h 4 min
  359. Bit rate                                 : 24.0 kb/s
  360. Count of elements                        : 3307
  361. Stream size                              : 21.4 MiB (0%)
  362. Language                                 : Hindi
  363. Default                                  : No
  364. Forced                                   : No
  365. Text #17
  366. ID                                       : 23
  367. Format                                   : PGS
  368. Muxing mode                              : zlib
  369. Codec ID                                 : S_HDMV/PGS
  370. Codec ID/Info                            : Picture based subtitle format used on BDs/HD-DVDs
  371. Duration                                 : 2 h 4 min
  372. Bit rate                                 : 29.1 kb/s
  373. Count of elements                        : 3395
  374. Stream size                              : 26.0 MiB (0%)
  375. Language                                 : Hungarian
  376. Default                                  : No
  377. Forced                                   : No
  378. Text #18
  379. ID                                       : 24
  380. Format                                   : PGS
  381. Muxing mode                              : zlib
  382. Codec ID                                 : S_HDMV/PGS
  383. Codec ID/Info                            : Picture based subtitle format used on BDs/HD-DVDs
  384. Duration                                 : 2 h 5 min
  385. Bit rate                                 : 32.7 kb/s
  386. Count of elements                        : 3283
  387. Stream size                              : 29.4 MiB (0%)
  388. Language                                 : Icelandic
  389. Default                                  : No
  390. Forced                                   : No
  391. Text #19
  392. ID                                       : 25
  393. Format                                   : PGS
  394. Muxing mode                              : zlib
  395. Codec ID                                 : S_HDMV/PGS
  396. Codec ID/Info                            : Picture based subtitle format used on BDs/HD-DVDs
  397. Duration                                 : 2 h 5 min
  398. Bit rate                                 : 35.1 kb/s
  399. Count of elements                        : 3583
  400. Stream size                              : 31.6 MiB (0%)
  401. Language                                 : Italian
  402. Default                                  : No
  403. Forced                                   : No
  404. Text #20
  405. ID                                       : 26
  406. Format                                   : PGS
  407. Muxing mode                              : zlib
  408. Codec ID                                 : S_HDMV/PGS
  409. Codec ID/Info                            : Picture based subtitle format used on BDs/HD-DVDs
  410. Duration                                 : 2 h 4 min
  411. Bit rate                                 : 25.0 kb/s
  412. Count of elements                        : 2246
  413. Stream size                              : 22.3 MiB (0%)
  414. Language                                 : Norwegian
  415. Default                                  : No
  416. Forced                                   : No
  417. Text #21
  418. ID                                       : 27
  419. Format                                   : PGS
  420. Muxing mode                              : zlib
  421. Codec ID                                 : S_HDMV/PGS
  422. Codec ID/Info                            : Picture based subtitle format used on BDs/HD-DVDs
  423. Duration                                 : 2 h 4 min
  424. Bit rate                                 : 27.3 kb/s
  425. Count of elements                        : 3139
  426. Stream size                              : 24.3 MiB (0%)
  427. Language                                 : Polish
  428. Default                                  : No
  429. Forced                                   : No
  430. Text #22
  431. ID                                       : 28
  432. Format                                   : PGS
  433. Muxing mode                              : zlib
  434. Codec ID                                 : S_HDMV/PGS
  435. Codec ID/Info                            : Picture based subtitle format used on BDs/HD-DVDs
  436. Duration                                 : 2 h 5 min
  437. Bit rate                                 : 31.8 kb/s
  438. Count of elements                        : 3577
  439. Stream size                              : 28.6 MiB (0%)
  440. Title                                    : Brazilian
  441. Language                                 : Portuguese
  442. Default                                  : No
  443. Forced                                   : No
  444. Text #23
  445. ID                                       : 29
  446. Format                                   : PGS
  447. Muxing mode                              : zlib
  448. Codec ID                                 : S_HDMV/PGS
  449. Codec ID/Info                            : Picture based subtitle format used on BDs/HD-DVDs
  450. Duration                                 : 2 h 5 min
  451. Bit rate                                 : 32.6 kb/s
  452. Count of elements                        : 3339
  453. Stream size                              : 29.3 MiB (0%)
  454. Title                                    : Iberian
  455. Language                                 : Portuguese
  456. Default                                  : No
  457. Forced                                   : No
  458. Text #24
  459. ID                                       : 30
  460. Format                                   : PGS
  461. Muxing mode                              : zlib
  462. Codec ID                                 : S_HDMV/PGS
  463. Codec ID/Info                            : Picture based subtitle format used on BDs/HD-DVDs
  464. Duration                                 : 2 h 5 min
  465. Bit rate                                 : 33.7 kb/s
  466. Count of elements                        : 3675
  467. Stream size                              : 30.3 MiB (0%)
  468. Language                                 : Russian
  469. Default                                  : No
  470. Forced                                   : No
  471. Text #25
  472. ID                                       : 31
  473. Format                                   : PGS
  474. Muxing mode                              : zlib
  475. Codec ID                                 : S_HDMV/PGS
  476. Codec ID/Info                            : Picture based subtitle format used on BDs/HD-DVDs
  477. Duration                                 : 2 h 4 min
  478. Bit rate                                 : 32.3 kb/s
  479. Count of elements                        : 3395
  480. Stream size                              : 28.8 MiB (0%)
  481. Title                                    : Castilian
  482. Language                                 : Spanish
  483. Default                                  : No
  484. Forced                                   : No
  485. Text #26
  486. ID                                       : 32
  487. Format                                   : PGS
  488. Muxing mode                              : zlib
  489. Codec ID                                 : S_HDMV/PGS
  490. Codec ID/Info                            : Picture based subtitle format used on BDs/HD-DVDs
  491. Duration                                 : 2 h 4 min
  492. Bit rate                                 : 29.9 kb/s
  493. Count of elements                        : 2999
  494. Stream size                              : 26.7 MiB (0%)
  495. Title                                    : Latin American
  496. Language                                 : Spanish
  497. Default                                  : No
  498. Forced                                   : No
  499. Text #27
  500. ID                                       : 33
  501. Format                                   : PGS
  502. Muxing mode                              : zlib
  503. Codec ID                                 : S_HDMV/PGS
  504. Codec ID/Info                            : Picture based subtitle format used on BDs/HD-DVDs
  505. Duration                                 : 2 h 4 min
  506. Bit rate                                 : 26.0 kb/s
  507. Count of elements                        : 2224
  508. Stream size                              : 23.2 MiB (0%)
  509. Language                                 : Swedish
  510. Default                                  : No
  511. Forced                                   : No
  512. Text #28
  513. ID                                       : 34
  514. Format                                   : PGS
  515. Muxing mode                              : zlib
  516. Codec ID                                 : S_HDMV/PGS
  517. Codec ID/Info                            : Picture based subtitle format used on BDs/HD-DVDs
  518. Duration                                 : 2 h 7 min
  519. Bit rate                                 : 29.2 kb/s
  520. Count of elements                        : 3499
  521. Stream size                              : 26.7 MiB (0%)
  522. Language                                 : Thai
  523. Default                                  : No
  524. Forced                                   : No
  525. Text #29
  526. ID                                       : 35
  527. Format                                   : PGS
  528. Muxing mode                              : zlib
  529. Codec ID                                 : S_HDMV/PGS
  530. Codec ID/Info                            : Picture based subtitle format used on BDs/HD-DVDs
  531. Duration                                 : 2 h 4 min
  532. Bit rate                                 : 31.5 kb/s
  533. Count of elements                        : 3339
  534. Stream size                              : 28.1 MiB (0%)
  535. Language                                 : Turkish
  536. Default                                  : No
  537. Forced                                   : No
  538. Menu
  539. 00:00:00.000                             : en:Start
  540. 00:05:31.498                             : en:Columbia Moviescope News
  541. 00:06:35.186                             : en:Willamette, Oregon, 1943: "Mule!" "Nag!"
  542. 00:09:48.587                             : en:Dottie and Dottie's Sister
  543. 00:11:31.940                             : en:A Good Scout: "Your Country Needs You."
  544. 00:15:24.506                             : en:Catching the Train to Chicago
  545. 00:17:05.732                             : en:Marla: "... An Eye Like DiMaggio."
  546. 00:21:48.473                             : en:The Cowgirls Meet Mae and Doris
  547. 00:24:18.915                             : en:A Social Commentary; Tryouts
  548. 00:26:32.632                             : en:First Members
  549. 00:29:42.071                             : en:Charm and Beauty School
  550. 00:31:12.495                             : en:Recruiting the Manager
  551. 00:33:37.056                             : en:Jimmy Dugan Makes an Impression
  552. 00:36:18.300                             : en:Meet the Peaches
  553. 00:38:26.970                             : en:Dottie Swings Away; Jimmy and Ira
  554. 00:40:38.727                             : en:Columbia Moviescope News: Diamond Gals
  555. 00:42:31.882                             : en:Evelyn Makes a Request; The Sweetest Little Boy
  556. 00:46:21.736                             : en:The Suds Bucket
  557. 00:49:20.206                             : en:Dottie to the Rescue; Marla's Blues
  558. 00:52:10.752                             : en:Mae's Confession; Jimmy at the Bat
  559. 00:53:11.104                             : en:Mixed Signals
  560. 00:55:38.000                             : en:Night Bus Gossip
  561. 00:57:57.390                             : en:"There's No Crying in Baseball."
  562. 01:00:07.937                             : en:Ira's Concern
  563. 01:01:59.340                             : en:Performing for LIFE
  564. 01:03:05.656                             : en:Drawing a Crowd
  565. 01:07:29.920                             : en:Jimmy and Dottie
  566. 01:10:34.396                             : en:Kit Loses Her Stuff; Ira Takes Over the League
  567. 01:14:27.128                             : en:Kit Fight
  568. 01:17:08.289                             : en:Trade Agreement
  569. 01:18:23.781                             : en:Sibling Rivalry
  570. 01:20:47.383                             : en:League Song
  571. 01:21:47.151                             : en:Jimmy's Pep Talk
  572. 01:22:28.317                             : en:A Telegram From the War Dept.
  573. 01:24:49.208                             : en:Bob
  574. 01:26:54.625                             : en:Dottie Leaves the Team: "It's Only a Game."
  575. 01:30:03.147                             : en:Women's World Series: Rockford vs. Racine
  576. 01:31:23.143                             : en:A Team Prayer: "May Our Balls Be Plentiful."
  577. 01:33:13.420                             : en:The Star Spangled Banner
  578. 01:34:01.510                             : en:The Return of Dottie: "We're Gonna Win!"
  579. 01:36:05.133                             : en:The Final Game
  580. 01:38:21.561                             : en:The Peaches Take the Lead
  581. 01:41:33.044                             : en:The Bottom of the Ninth
  582. 01:43:20.318                             : en:Kit at the Bat
  583. 01:48:02.642                             : en:A Sisterly Reunion
  584. 01:51:24.427                             : en:Jimmy Meets Bob
  585. 01:53:36.225                             : en:1988 Team Reunion
  586. 01:55:36.554                             : en:The Baseball Hall of Fame
  587. 01:57:19.990                             : en:The Ceremony
  588. 01:58:11.000                             : en:The Exhibit
  589. 02:01:15.392                             : en:End Credits / Old Timers Game
  590. 02:06:02.429                             : en:End Credits Conclusion



此处一般会放置磁力链或种子下载链接,不过此链接需要注册会员才能看到,点击“立即注册”
磁力链下载【下载链接仅对注册会员开放,登陆后可见】
BT9527电影天堂 1、BT9527电影天堂提供的BT文件均来源于互联网抓取,只供网友学习交流、技术提升使用。
2、我们遵守BitTorrent点对点协议原则,任何版权问题请联系原资源发布商,我们不处理任何版权纠纷,谢谢!如有争议请联系邮箱:BT9527#hotmail.com(#换成@)
3、如果您发现某页面或地址有错误,请联系站长邮箱BT9527#hotmail.com(#换成@),我们会尽快处理。您的热心是对BT9527电影天堂最大的支持。
4、本站建议去正规影院观看电影以支持电影行业发展。
最新回复 (0)

你可以在 登录 or 注册 后,对此帖发表评论!

返回
发新帖