非亲兄弟[简繁英字幕].Step.Brothers.2008.BluRay.2160p.x265.10bit.HDR.2Audios-MiniHD 23.88GB

版主小s 5月前 209

✔资源类型:BD-4K   ✔电影年份:2008   ✔电影地区:欧美   ✔电影分类:喜剧

◎译  名 非亲兄弟 / 两兄弟 / 烂兄烂弟 / 半路兄弟
◎片  名 Step Brothers
◎年  代 2008
◎产  地 美国
◎类  别 喜剧
◎语  言 英语 / 西班牙语
◎上映日期 2008-07-25
◎IMDb链接 https://www.imdb.com/title/tt0838283/
◎豆瓣评分 6.1/10 (3493人评价)
◎豆瓣链接 https://movie.douban.com/subject/1916089/
◎片  长 98 分钟
◎导  演 亚当·麦凯 Adam McKay (id:1002735)
◎编  剧 威尔·法瑞尔 Will Ferrell (id:1009242)
       亚当·麦凯 Adam McKay (id:1002735)
       约翰·C·赖利 John C. Reilly (id:1017907)
◎演  员 威尔·法瑞尔 Will Ferrell (id:1009242)
       约翰·C·赖利 John C. Reilly (id:1017907)
       玛丽·斯汀伯根 Mary Steenburgen (id:1006988)
       理查德·詹金斯 Richard Jenkins (id:1048145)
       亚当·斯科特 Adam Scott (id:1002677)
       凯瑟琳·哈恩 Kathryn Hahn (id:1022649)
       安德丽·萨维奇 Andrea Savage (id:1032068)
        Elizabeth Yozamp (id:1245006)
       韦恩·费德曼 Wayne Federman (id:1082024)
       郑肯 Ken Jeong (id:1275017)
       Dmitri Schuyler-Linch Dmitri Schuyler-Linch (id:1227312)
        Bryce Hurless (id:1233307)
       唐·阿伯纳西 Don Abernathy (id:1432739)
        Jarrod W. Robbins (id:1256551)
       汤米·格里茨 Tommy Gerrits (id:1259675)
       吉莲·韦格曼 Gillian Vigman (id:1004783)
       杰克·西曼斯基 Jake Szymanski (id:1347587)
        Debbie Prokop (id:1258248)
       杰弗里·阿希金 Jeffrey Ashkin (id:1195075)
       克里斯·亨奇 Chris Henchy (id:1002800)
       菲尔·拉马 Phil LaMarr (id:1007036)
       马特·沃尔什 Matt Walsh (id:1027861)
       罗伯·里格尔 Rob Riggle (id:1044950)
       霍拉提奥·桑斯 Horatio Sanz (id:1140387)
       伊恩·罗伯茨 Ian Roberts (id:1147379)
       布莱恩·赫斯基 Brian Huskey (id:1191173)
       塞斯·罗根 Seth Rogen (id:1002668)
       贾德·阿帕图 Judd Apatow (id:1036351)
       亚当·麦凯 Adam McKay (id:1002735)
       威尔·法瑞尔 Will Ferrell (id:1009242)
       乔·布里昂 Jon Brion (id:1037030)
       Allison Jones Allison Jones (id:1287843)
       Virginia L. Randolph Virginia L. Randolph (id:1295219)
       克莱顿·哈特利 Clayton Hartley (id:1286164)
       苏珊·马瑟森 Susan Matheson (id:1450159)
       马修·W.蒙格儿 Matthew W. Mungle (id:1131227)
       克林顿·维恩 Clinton Wayne (id:1055970)
       Steve Artmont Steve Artmont (id:1277467)
       Adam Brandy Adam Brandy (id:1067710)
       Nanci Cascio Nanci Cascio (id:1197685)
       Adam Martin Adam Martin (id:1291106)
       文森特·G·冈萨雷斯 Vincent G. Gonzales (id:1096819)
       Greg Groenekamp Greg Groenekamp (id:1285507)
       罗科·帕西尼诺 Rocco Passionino (id:1294053)
       克里斯汀·布拉南 Kristen Branan (id:1078302)
       Ben Funk Ben Funk (id:1080831)
       拉乌尔·博洛尼尼 Raoul Bolognini (id:1174697)

◎简  介
  39岁的布伦南?哈夫(威尔?法瑞尔 Will Ferrell 饰)无业,一直在母亲南希(玛丽?斯汀伯根 Mary Steenburgen 饰)家蹭吃蹭住。40岁的戴尔?多巴克(约翰?赖利 John Reilly 饰)也是个与父亲罗伯特(理查德?詹金斯 Richard Jenkins 饰)住在一起的大龄男,靠父亲的接济生活。南希与罗伯特一见钟情,婚后搬入罗伯特家居住,布伦南也随母亲一起搬入,从此被迫以继兄弟的身份与戴尔同处一室。二人从相互敌视逐渐成为最佳拍档,共同对付布伦南的优秀弟弟德里克(亚当?斯科特 Adam Scott 饰),玩闹得不亦乐乎。可没想到他们的胡作非为却毁了父母刚建立起来的美满婚姻,二人后悔万分,终于决定痛改前非……
  1. ##### MediaInfo ######
  2. General
  3. Unique ID                                : 158986192661531178491813241810560799653 (0x779BA07DC51708967BE7E3810604D3A5)
  4. Complete name                            : Step.Brothers.2008.BluRay.2160p.x265.10bit.HDR.2Audios-MiniHD.mkv
  5. Format                                   : Matroska
  6. Format version                           : Version 4
  7. File size                                : 23.9 GiB
  8. Duration                                 : 1 h 45 min
  9. Overall bit rate mode                    : Variable
  10. Overall bit rate                         : 32.4 Mb/s
  11. Encoded date                             : UTC 2019-06-17 10:53:30
  12. Writing application                      : mkvmerge v27.0.0 ('Metropolis') 64-bit
  13. Writing library                          : libebml v1.3.6 + libmatroska v1.4.9
  14. Video
  15. ID                                       : 1
  16. Format                                   : HEVC
  17. Format/Info                              : High Efficiency Video Coding
  18. Format profile                           : Main 10@L5.1@High
  19. HDR format                               : SMPTE ST 2086, HDR10 compatible
  20. Codec ID                                 : V_MPEGH/ISO/HEVC
  21. Duration                                 : 1 h 45 min
  22. Bit rate                                 : 28.6 Mb/s
  23. Width                                    : 3 840 pixels
  24. Height                                   : 1 608 pixels
  25. Display aspect ratio                     : 2.40:1
  26. Frame rate mode                          : Constant
  27. Frame rate                               : 23.976 (24000/1001/53354) FPS
  28. Color space                              : YUV
  29. Chroma subsampling                       : 4:2:0
  30. Bit depth                                : 10 bits
  31. Bits/(Pixel*Frame)                       : 0.193
  32. Stream size                              : 21.1 GiB (88%)
  33. Title                                    : mUHD-FRDS
  34. Writing library                          : x265 3.0+2-ge71f790de+23:[Windows][GCC 8.2.1][64 bit] Yuuki 10bit
  35. Encoding settings                        : rc=crf / crf=19.0000 / qcomp=0.70 / qpstep=4 / stats-write=0 / stats-read=0 / vbv-maxrate=160000 / vbv-bufsize=160000 / vbv-init=0.9 / crf-max=0.0 / crf-min=0.0 / no-lossless / no-cu-lossless / aq-mode=3 / aq-strength=0.80 / cbqpoffs=-3 / crqpoffs=-3 / ipratio=1.40 / pbratio=1.30 / psy-rd=2.00 / psy-rdoq=3.00 / deblock=-1:-1 / ref=5 / limit-refs=1 / limit-modes / bframes=8 / b-adapt=2 / bframe-bias=0 / b-pyramid / b-intra / weightp / weightb / min-keyint=23 / max-keyint=240 / rc-lookahead=60 / gop-lookahead=0 / NTMzNTQ=uuDQuD2mJt9fsCf / scenecut=40 / radl=0 / max-cu-size=32 / min-cu-size=8 / me=3 / subme=4 / merange=25 / rdoq-level=2 / rd=4 / rdpenalty=1 / dynamic-rd=0.00 / no-rd-refine / ----- / no-cutree / no-sao / no-rect / no-amp / no-open-gop / wpp / pmode / pme / no-psnr / no-ssim / nr-intra=0 / nr-inter=0 / no-constrained-intra / no-strong-intra-smoothing / max-tu-size=32 / tu-inter-depth=2 / tu-intra-depth=2 / limit-tu=0 / qg-size=32 / qpmax=69 / qpmin=0 / ----- / cpuid=533541111039 / frame-threads=6 / numa-pools=-,54 / log-level=2 / input-csp=1 / input-res=3840x1608 / interlace=0 / level-idc=0 / high-tier=1 / uhd-bd=0 / no-allow-non-conformance / no-repeat-headers / no-aud / hrd / info / hash=0 / no-temporal-layers / lookahead-slices=0 / no-splice / no-intra-refresh / no-ssim-rd / signhide / no-tskip / max-merge=3 / temporal-mvp / no-analyze-src-pics / no-sao-non-deblock / no-early-skip / no-rskip / no-fast-intra / no-tskip-fast / no-splitrd-skip / zone-count=0 / no-strict-cbr / no-rc-grain / no-const-vbv / sar=0 / overscan=0 / videoformat=5 / range=0 / colorprim=9 / transfer=16 / colormatrix=9 / chromaloc=0 / display-window=0 / master-display=G(13250,34500)B(7500,3000)R(34000,16000)WP(15635,16450)L(40000000,50) / max-cll=1038,345 / min-luma=0 / max-luma=1023 / log2-max-poc-lsb=8 / vui-timing-info / vui-hrd-info / slices=1 / no-opt-qp-pps / no-opt-ref-list-length-pps / no-multi-pass-opt-rps / scenecut-bias=0.05 / no-opt-cu-delta-qp / no-aq-motion / hdr / hdr-opt / no-dhdr10-opt / no-idr-recovery-sei / analysis-reuse-level=5 / scale-factor=0 / refine-intra=0 / refine-inter=0 / refine-mv=0 / refine-ctu-distortion=0 / no-limit-sao / ctu-info=0 / no-lowpass-dct / refine-analysis-type=0 / copy-pic=1 / max-ausize-factor=1.0 / no-dynamic-refine / no-single-sei / no-hevc-aq / qp-adaptation-range=1.00
  36. Default                                  : Yes
  37. Forced                                   : No
  38. Color range                              : Limited
  39. Color primaries                          : BT.2020
  40. Transfer characteristics                 : PQ
  41. Matrix coefficients                      : BT.2020 non-constant
  42. Mastering display color primaries        : Display P3
  43. Mastering display luminance              : min: 0.0050 cd/m2, max: 4000 cd/m2
  44. Maximum Content Light Level              : 1038 cd/m2
  45. Maximum Frame-Average Light Level        : 345 cd/m2
  46. Audio #1
  47. ID                                       : 2
  48. Format                                   : MLP FBA 16-ch
  49. Format/Info                              : Meridian Lossless Packing FBA with 16-channel presentation
  50. Commercial name                          : Dolby TrueHD with Dolby Atmos
  51. Codec ID                                 : A_TRUEHD
  52. Duration                                 : 1 h 45 min
  53. Bit rate mode                            : Variable
  54. Bit rate                                 : 3 041 kb/s
  55. Maximum bit rate                         : 3 822 kb/s
  56. Channel(s)                               : 8 channels
  57. Channel layout                           : L R C LFE Ls Rs Lb Rb
  58. Sampling rate                            : 48.0 kHz
  59. Frame rate                               : 1 200.000 FPS (40 SPF)
  60. Compression mode                         : Lossless
  61. Stream size                              : 2.24 GiB (9%)
  62. Language                                 : English
  63. Default                                  : Yes
  64. Forced                                   : No
  65. Number of dynamic objects                : 11
  66. Bed channel count                        : 1 channel
  67. Bed channel configuration                : LFE
  68. Audio #2
  69. ID                                       : 3
  70. Format                                   : AC-3
  71. Format/Info                              : Audio Coding 3
  72. Commercial name                          : Dolby Digital
  73. Codec ID                                 : A_AC3
  74. Duration                                 : 1 h 45 min
  75. Bit rate mode                            : Constant
  76. Bit rate                                 : 640 kb/s
  77. Channel(s)                               : 6 channels
  78. Channel layout                           : L R C LFE Ls Rs
  79. Sampling rate                            : 48.0 kHz
  80. Frame rate                               : 31.250 FPS (1536 SPF)
  81. Compression mode                         : Lossy
  82. Stream size                              : 483 MiB (2%)
  83. Language                                 : English
  84. Service kind                             : Complete Main
  85. Default                                  : No
  86. Forced                                   : No
  87. Text #1
  88. ID                                       : 4
  89. Format                                   : PGS
  90. Muxing mode                              : zlib
  91. Codec ID                                 : S_HDMV/PGS
  92. Codec ID/Info                            : Picture based subtitle format used on BDs/HD-DVDs
  93. Duration                                 : 1 h 44 min
  94. Bit rate                                 : 47.8 kb/s
  95. Count of elements                        : 3360
  96. Stream size                              : 35.7 MiB (0%)
  97. Title                                    : English
  98. Language                                 : English
  99. Default                                  : No
  100. Forced                                   : No
  101. Text #2
  102. ID                                       : 5
  103. Format                                   : PGS
  104. Muxing mode                              : zlib
  105. Codec ID                                 : S_HDMV/PGS
  106. Codec ID/Info                            : Picture based subtitle format used on BDs/HD-DVDs
  107. Duration                                 : 1 h 45 min
  108. Bit rate                                 : 44.7 kb/s
  109. Count of elements                        : 3450
  110. Stream size                              : 33.6 MiB (0%)
  111. Title                                    : 原盘繁中
  112. Language                                 : Chinese
  113. Default                                  : No
  114. Forced                                   : No
  115. Text #3
  116. ID                                       : 6
  117. Format                                   : PGS
  118. Muxing mode                              : zlib
  119. Codec ID                                 : S_HDMV/PGS
  120. Codec ID/Info                            : Picture based subtitle format used on BDs/HD-DVDs
  121. Duration                                 : 1 h 44 min
  122. Bit rate                                 : 50.8 kb/s
  123. Count of elements                        : 3487
  124. Stream size                              : 38.1 MiB (0%)
  125. Title                                    : 简英双语
  126. Language                                 : Chinese
  127. Default                                  : Yes
  128. Forced                                   : No





此处一般会放置磁力链或种子下载链接,不过此链接需要注册会员才能看到,点击“立即注册”
磁力链下载【下载链接仅对注册会员开放,登陆后可见】
BT9527电影天堂 1、BT9527电影天堂提供的BT文件均来源于互联网抓取,只供网友学习交流、技术提升使用。
2、我们遵守BitTorrent点对点协议原则,任何版权问题请联系原资源发布商,我们不处理任何版权纠纷,谢谢!如有争议请联系邮箱:BT9527#hotmail.com(#换成@)
3、如果您发现某页面或地址有错误,请联系站长邮箱BT9527#hotmail.com(#换成@),我们会尽快处理。您的热心是对BT9527电影天堂最大的支持。
4、本站建议去正规影院观看电影以支持电影行业发展。
最新回复 (0)

你可以在 登录 or 注册 后,对此帖发表评论!

返回
发新帖