圣诞坏公公2[简繁英字幕].Bad.Santa.2.2016.2160p.SDR.UHD.BluRay.DTS-HD.MA.5.1.x265-10bit-ENTHD 9.92GB

版主小s 5月前 269

✔资源类型:BD-4K   ✔电影年份:2016   ✔电影地区:欧美   ✔电影分类:剧情

◎译  名 圣诞坏公公2
◎片  名 Bad Santa 2
◎年  代 2016
◎产  地 美国
◎类  别 剧情 / 喜剧 / 犯罪
◎语  言 英语
◎上映日期 2016-11-23(美国)
◎IMDb链接 https://www.imdb.com/title/tt1798603/
◎豆瓣评分 5.9/10 (576人评价)
◎豆瓣链接 https://movie.douban.com/subject/10594840/
◎片  长 92分钟
◎导  演 马克·沃特斯 Mark Waters (id:1009536)
◎编  剧 约翰尼·罗森塔尔 Johnny Rosenthal (id:1365168)
       肖娜·克罗斯 Shauna Cross (id:1319781)
       格伦·费卡拉 Glenn Ficarra (id:1317347)
       约翰·里夸 John Requa (id:1317350)
       道格·艾林 Doug Ellin (id:1000407)
◎演  员 比利·鲍伯·松顿 Billy Bob Thornton (id:1025200)
       凯西·贝茨 Kathy Bates (id:1010555)
       托尼·考克斯 Tony Cox (id:1000290)
       克里斯蒂娜·亨德里克斯 Christina Hendricks (id:1047880)
       布瑞特·凯利 Brett Kelly (id:1168595)
       瑞恩·汉森 Ryan Hansen (id:1009328)
       珍妮·吉格瑞诺 Jenny Zigrino (id:1365147)
       杰夫·斯科夫龙 Jeff Skowron (id:1155291)
       克里斯蒂娜·罗塞托 Cristina Rosato (id:1240735)
       迈克·斯塔尔 Mike Starr (id:1025280)
       奥克塔维亚·斯宾瑟 Octavia Spencer (id:1154263)
       西拉·维克多 Selah Victor (id:1185804)
       隆巴多·博伊尔 Lombardo Boyar (id:1077918)
       玛丽亚·埃雷拉 Maria Herrera (id:1055329)
       娜塔莉·希波蒂 Nathaly Thibault (id:1345419)

◎简  介
  米拉迈克斯公司(Miramax) 和Broad Green Pictures公司宣布,他们将为2003年喜剧《圣诞坏公公》(Bad Santa)拍摄续集,原版主演比利·鲍勃·松顿(Billy Bob Thornton)也会回归。                                    
                                《圣诞坏公公》讲述的是一个小偷为了行窃,到商场扮成圣诞老人的故事。和我们通常看到的圣诞老人不同,比利·鲍勃·松顿塑造的圣诞公公抽烟、喝酒、三观不正满满负能量,不过这样的人设倒是让人感觉十分新鲜,电影当年上映时以黑马之姿取得了票房佳绩。                                    
                                《圣诞坏公公2》(Bad Santa 2)计划2016年圣诞档期在美国上映,明年一月份该片将在加拿大魁北克省的蒙特利尔开机拍摄。
  1. ##### MediaInfo ######
  2. General
  3. Unique ID                                : 335982086844758081835464673909033058793 (0xFCC3CBD2A993880A89E09D70D61AC1E9)
  4. Complete name                            : Bad.Santa.2.2016.2160p.SDR.UHD.BluRay.DTS-HD.MA.5.1.x265-10bit-ENTHD.mkv
  5. Format                                   : Matroska
  6. Format version                           : Version 4
  7. File size                                : 9.92 GiB
  8. Duration                                 : 1 h 34 min
  9. Overall bit rate mode                    : Variable
  10. Overall bit rate                         : 15.0 Mb/s
  11. Movie name                               : Bad Santa 2 2016 2160p SDR UHD BluRay DTS-HD MA 5.1 x265-10bit-HDS
  12. Encoded date                             : UTC 2022-06-16 06:03:32
  13. Writing application                      : mkvmerge v67.0.0 ('Under Stars') 64-bit
  14. Writing library                          : libebml v1.4.2 + libmatroska v1.6.4
  15. Video
  16. ID                                       : 1
  17. Format                                   : HEVC
  18. Format/Info                              : High Efficiency Video Coding
  19. Format profile                           : Main 10@L6.1@High
  20. Codec ID                                 : V_MPEGH/ISO/HEVC
  21. Duration                                 : 1 h 34 min
  22. Bit rate                                 : 11.3 Mb/s
  23. Width                                    : 3 840 pixels
  24. Height                                   : 2 076 pixels
  25. Display aspect ratio                     : 1.85:1
  26. Frame rate mode                          : Constant
  27. Frame rate                               : 23.976 (24000/1001/53354) FPS
  28. Color space                              : YUV
  29. Chroma subsampling                       : 4:2:0
  30. Bit depth                                : 10 bits
  31. Bits/(Pixel*Frame)                       : 0.059
  32. Stream size                              : 7.50 GiB (76%)
  33. Title                                    : @HDSky
  34. Writing library                          : x265 - H.265/HEVC codec
  35. Default                                  : Yes
  36. Forced                                   : No
  37. Audio
  38. ID                                       : 2
  39. Format                                   : DTS XLL
  40. Format/Info                              : Digital Theater Systems
  41. Commercial name                          : DTS-HD Master Audio
  42. Codec ID                                 : A_DTS
  43. Duration                                 : 1 h 34 min
  44. Bit rate mode                            : Variable
  45. Bit rate                                 : 3 524 kb/s
  46. Channel(s)                               : 6 channels
  47. Channel layout                           : C L R Ls Rs LFE
  48. Sampling rate                            : 48.0 kHz
  49. Frame rate                               : 93.750 FPS (512 SPF)
  50. Bit depth                                : 24 bits
  51. Compression mode                         : Lossless
  52. Stream size                              : 2.33 GiB (24%)
  53. Title                                    : English
  54. Language                                 : English
  55. Default                                  : Yes
  56. Forced                                   : No
  57. Text #1
  58. ID                                       : 3
  59. Format                                   : PGS
  60. Muxing mode                              : zlib
  61. Codec ID                                 : S_HDMV/PGS
  62. Codec ID/Info                            : Picture based subtitle format used on BDs/HD-DVDs
  63. Duration                                 : 1 h 28 min
  64. Bit rate                                 : 56.1 kb/s
  65. Count of elements                        : 2988
  66. Stream size                              : 35.3 MiB (0%)
  67. Title                                    : ENG
  68. Language                                 : English
  69. Default                                  : Yes
  70. Forced                                   : No
  71. Text #2
  72. ID                                       : 4
  73. Format                                   : PGS
  74. Muxing mode                              : zlib
  75. Codec ID                                 : S_HDMV/PGS
  76. Codec ID/Info                            : Picture based subtitle format used on BDs/HD-DVDs
  77. Duration                                 : 1 h 27 min
  78. Bit rate                                 : 35.3 kb/s
  79. Count of elements                        : 2540
  80. Stream size                              : 22.2 MiB (0%)
  81. Title                                    : CHS
  82. Language                                 : Chinese
  83. Default                                  : Yes
  84. Forced                                   : No
  85. Text #3
  86. ID                                       : 5
  87. Format                                   : PGS
  88. Muxing mode                              : zlib
  89. Codec ID                                 : S_HDMV/PGS
  90. Codec ID/Info                            : Picture based subtitle format used on BDs/HD-DVDs
  91. Duration                                 : 1 h 27 min
  92. Bit rate                                 : 40.9 kb/s
  93. Count of elements                        : 2540
  94. Stream size                              : 25.7 MiB (0%)
  95. Title                                    : CHT
  96. Language                                 : Chinese
  97. Default                                  : Yes
  98. Forced                                   : No
  99. Text #4
  100. ID                                       : 6
  101. Format                                   : PGS
  102. Muxing mode                              : zlib
  103. Codec ID                                 : S_HDMV/PGS
  104. Codec ID/Info                            : Picture based subtitle format used on BDs/HD-DVDs
  105. Duration                                 : 1 h 27 min
  106. Bit rate                                 : 62.0 kb/s
  107. Count of elements                        : 2540
  108. Stream size                              : 39.0 MiB (0%)
  109. Title                                    : CHS&ENG
  110. Language                                 : Chinese
  111. Default                                  : Yes
  112. Forced                                   : No
  113. Text #5
  114. ID                                       : 7
  115. Format                                   : PGS
  116. Muxing mode                              : zlib
  117. Codec ID                                 : S_HDMV/PGS
  118. Codec ID/Info                            : Picture based subtitle format used on BDs/HD-DVDs
  119. Duration                                 : 1 h 27 min
  120. Bit rate                                 : 67.6 kb/s
  121. Count of elements                        : 2540
  122. Stream size                              : 42.5 MiB (0%)
  123. Title                                    : CHT&ENG
  124. Language                                 : Chinese
  125. Default                                  : Yes
  126. Forced                                   : No
  127. Menu
  128. 00:00:00.000                             : en:第 01 章
  129. 00:05:52.227                             : en:第 02 章
  130. 00:10:59.742                             : en:第 03 章
  131. 00:16:21.856                             : en:第 04 章
  132. 00:20:13.212                             : en:第 05 章
  133. 00:25:33.699                             : en:第 06 章
  134. 00:29:39.444                             : en:第 07 章
  135. 00:33:50.695                             : en:第 08 章
  136. 00:36:56.131                             : en:第 09 章
  137. 00:41:19.018                             : en:第 10 章
  138. 00:44:48.811                             : en:第 11 章
  139. 00:52:08.333                             : en:第 12 章
  140. 01:00:32.545                             : en:第 13 章
  141. 01:05:53.157                             : en:第 14 章
  142. 01:13:16.976                             : en:第 15 章
  143. 01:17:47.496                             : en:第 16 章
  144. 01:21:57.204                             : en:第 17 章
  145. 01:25:42.220                             : en:第 18 章





此处一般会放置磁力链或种子下载链接,不过此链接需要注册会员才能看到,点击“立即注册”
磁力链下载【下载链接仅对注册会员开放,登陆后可见】
BT9527电影天堂 1、BT9527电影天堂提供的BT文件均来源于互联网抓取,只供网友学习交流、技术提升使用。
2、我们遵守BitTorrent点对点协议原则,任何版权问题请联系原资源发布商,我们不处理任何版权纠纷,谢谢!如有争议请联系邮箱:BT9527#hotmail.com(#换成@)
3、如果您发现某页面或地址有错误,请联系站长邮箱BT9527#hotmail.com(#换成@),我们会尽快处理。您的热心是对BT9527电影天堂最大的支持。
4、本站建议去正规影院观看电影以支持电影行业发展。
最新回复 (0)

你可以在 登录 or 注册 后,对此帖发表评论!

返回
发新帖